osu file format v14

[General]
AudioFilename: audio.mp3
AudioLeadIn: 0
PreviewTime: 55010
Countdown: 0
SampleSet: Soft
StackLeniency: 0.7
Mode: 0
LetterboxInBreaks: 0
WidescreenStoryboard: 0

[Editor]
Bookmarks: 11045,22079,33113,44147,55182,66216,77251,99320,110354,121389,132423,143458,154492,165527,176562,187596
DistanceSpacing: 1.1
BeatDivisor: 4
GridSize: 4
TimelineZoom: 2

[Metadata]
Title:Remember
TitleUnicode:Remember
Artist:ColBreakz & Vizzen
ArtistUnicode:ColBreakz & Vizzen
Creator:Hinsvar
Version:Expert
Source:
Tags:Electronic English drum and & bass DnB dubstep glitch hop drumstep melodic
BeatmapID:4286267
BeatmapSetID:2052201

[Difficulty]
HPDrainRate:6
CircleSize:3.5
OverallDifficulty:8.5
ApproachRate:9.2
SliderMultiplier:1.76
SliderTickRate:1

[Events]
//Background and Video events
0,0,"BG.jpg",0,0
//Break Periods
2,77451,98750
//Storyboard Layer 0 (Background)
//Storyboard Layer 1 (Fail)
//Storyboard Layer 2 (Pass)
//Storyboard Layer 3 (Foreground)
//Storyboard Layer 4 (Overlay)
//Storyboard Sound Samples

[TimingPoints]
11,344.827586206897,4,2,1,50,1,0
11045,-250,4,2,1,50,0,0
20054,344.827586206897,4,2,1,50,1,8
20054,-250,4,2,1,50,0,0
22079,344.827586206897,4,2,1,50,1,0
22079,-250,4,2,1,50,0,0
33113,-166.666666666667,4,2,1,60,0,0
44147,-125,4,2,1,70,0,0
49665,-100,4,2,1,50,0,0
50354,-100,4,2,1,55,0,0
51044,-100,4,2,1,60,0,0
51734,-100,4,2,1,65,0,0
52423,-100,4,2,1,70,0,0
55182,-62.5,4,2,1,75,0,1
55872,-125,4,2,1,75,0,0
66216,-62.5,4,2,1,75,0,1
66906,-125,4,2,1,75,0,0
77251,-166.666666666667,4,2,2,50,0,0
121389,-125,4,2,1,60,0,0
132423,-100,4,2,1,70,0,0
137941,-100,4,2,1,50,0,0
138630,-100,4,2,1,55,0,0
139320,-100,4,2,1,60,0,0
140010,-100,4,2,1,65,0,0
140699,-100,4,2,1,70,0,0
143458,-83.3333333333333,4,2,1,80,0,1
147596,-166.666666666667,4,2,1,80,0,0
147941,-83.3333333333333,4,2,1,80,0,1
158630,-166.666666666667,4,2,1,80,0,0
158975,-83.3333333333333,4,2,1,80,0,1
164147,-166.666666666667,4,2,1,80,0,0
164492,-83.3333333333333,4,2,1,80,0,1
176561,-100,4,2,1,70,0,0
179320,-125,4,2,1,60,0,0
186389,-250,4,2,1,50,0,0

[Colours]
Combo1 : 200,142,238
Combo2 : 242,153,100
Combo3 : 123,233,236
Combo4 : 121,213,87

[HitObjects]
326,123,11045,5,2,0:0:0:0:
326,123,11735,1,2,0:0:0:0:
493,140,12079,1,2,0:0:0:0:
326,123,12769,1,2,0:0:0:0:
493,140,13114,1,2,0:0:0:0:
394,276,13459,1,2,0:0:0:0:
394,276,14321,1,2,0:0:0:0:
326,225,14493,6,0,P|302:212|277:204,2,52.8,2|0|0,0:0|0:0|0:0,0:0:0:0:
404,191,15183,2,0,P|427:176|446:159,2,52.8,2|0|0,0:0|0:0|0:0,0:0:0:0:
394,276,15873,2,0,P|394:303|400:328,2,52.8,2|0|0,0:0|0:0|0:0,0:0:0:0:
394,276,16562,5,2,0:0:0:0:
118,276,16907,1,2,0:0:0:0:
118,192,17942,5,2,0:0:0:0:
394,192,18286,1,2,0:0:0:0:
394,108,18976,5,2,0:0:0:0:
118,108,19321,1,2,0:0:0:0:
394,108,20054,5,2,0:0:0:0:
118,108,20398,1,2,0:0:0:0:
187,192,21088,5,2,0:0:0:0:
325,192,21433,1,2,0:0:0:0:
256,276,22079,5,2,0:0:0:0:
256,276,22768,1,2,0:0:0:0:
116,369,23113,1,2,0:0:0:0:
256,276,23803,1,2,0:0:0:0:
116,369,24147,1,2,0:0:0:0:
105,201,24492,1,2,0:0:0:0:
105,201,25354,1,2,0:0:0:0:
164,141,25527,6,0,L|155:81,2,52.8,2|0|0,0:0|0:0|0:0,0:0:0:0:
241,174,26216,2,0,L|248:226,2,52.8,2|0|0,0:0|0:0|0:0,0:0:0:0:
300,114,26906,2,0,L|291:54,2,52.8,2|0|0,0:0|0:0|0:0,0:0:0:0:
377,147,27596,5,2,0:0:0:0:
212,19,27941,1,2,0:0:0:0:
212,19,29492,1,2,0:0:0:0:
137,60,29665,6,0,P|105:57|81:46,2,52.8,2|0|0,0:0|0:0|0:0,0:0:0:0:
210,104,30354,2,0,P|242:107|266:118,2,52.8,2|0|0,0:0|0:0|0:0,0:0:0:0:
135,145,31044,2,0,P|103:142|79:131,2,52.8,2|0|0,0:0|0:0|0:0,0:0:0:0:
212,193,31734,1,2,0:0:0:0:
212,193,32079,2,0,B|262:203|285:237|281:242|301:273|371:288,1,176,2|0,0:0|0:0,0:0:0:0:
505,267,33113,5,2,3:2:0:0:
505,267,33803,2,0,P|453:259|421:216,1,105.599996777344,2|0,0:0|0:0,0:0:0:0:
309,28,34492,2,0,P|328:77|306:126,1,105.599996777344,2|0,0:0|0:0,0:0:0:0:
223,121,35010,2,0,P|203:71|225:22,1,105.599996777344,2|0,0:0|0:0,0:0:0:0:
263,191,35527,2,0,P|247:212|222:216,2,52.7999983886719,2|0|0,0:0|0:0|0:0,0:0:0:0:
97,162,36216,5,2,0:0:0:0:
68,328,36561,1,2,0:0:0:0:
234,357,36906,1,2,0:0:0:0:
444,328,37251,6,0,B|426:300|430:277|433:274|441:249|416:223,1,105.599996777344,2|0,0:0|0:0,0:0:0:0:
373,157,37768,2,0,B|357:186|335:194|331:193|306:199|296:233,1,105.599996777344,2|0,0:0|0:0,0:0:0:0:
261,304,38285,2,0,B|277:303|286:310|287:312|295:322|313:318,2,52.7999983886719,2|0|0,0:0|0:0|0:0,0:0:0:0:
216,231,38803,2,0,B|206:217|208:205|210:203|214:191|202:178,1,52.7999983886719,2|0,0:0|0:0,0:0:0:0:
55,100,39320,5,2,0:0:0:0:
213,15,39665,1,2,0:0:0:0:
362,95,40010,2,0,P|394:42|450:37,1,105.599996777344,2|0,0:0|0:0,0:0:0:0:
485,100,40527,2,0,P|514:154|491:205,1,105.599996777344,2|0,0:0|0:0,0:0:0:0:
419,204,41044,2,0,P|388:203|371:180,2,52.7999983886719,2|0|0,0:0|0:0|0:0,0:0:0:0:
474,268,41561,2,0,P|449:276|437:299,1,52.7999983886719,2|0,0:0|0:0,0:0:0:0:
286,373,42079,5,2,0:0:0:0:
212,222,42423,1,2,0:0:0:0:
61,296,42768,2,0,L|49:359,2,52.7999983886719,2|0|0,0:0|0:0|0:0,0:0:0:0:
72,128,43458,2,0,L|23:86,1,52.7999983886719,2|0,0:0|0:0,0:0:0:0:
89,30,43803,2,0,L|137:71,1,52.7999983886719,2|0,0:0|0:0,0:0:0:0:
198,165,44147,6,0,B|244:155|269:179|265:185|289:214|343:188,1,140.8,10|8,3:2|0:0,0:0:0:0:
485,154,44665,1,2,0:0:0:0:
497,68,44837,2,0,B|451:58|426:82|430:88|406:117|352:91,1,140.8,8|8,0:0|0:0,0:0:0:0:
79,226,45527,6,0,P|44:166|72:92,1,140.8,10|8,3:2|0:0,0:0:0:0:
229,78,46044,2,0,P|194:138|116:151,1,140.8,2|0,0:0|0:0,0:0:0:0:
64,16,46561,2,0,P|98:15|123:46,1,70.4,10|0,0:0|0:0,0:0:0:0:
177,245,46906,6,0,P|182:317|205:382,1,140.8,10|8,3:2|0:0,0:0:0:0:
336,292,47423,1,2,0:0:0:0:
422,309,47596,2,0,P|419:273|408:240,1,70.4,8|0,0:0|0:0,0:0:0:0:
495,224,47941,2,0,P|506:257|508:292,1,70.4,8|0,0:0|0:0,0:0:0:0:
286,170,48285,6,0,B|267:119|292:96|296:100|323:74|301:18,1,140.8,10|8,3:2|0:0,0:0:0:0:
193,123,48803,1,2,0:0:0:0:
115,80,48975,2,0,B|97:100|81:95|82:92|64:87|45:111,1,70.4,8|0,0:0|0:0,0:0:0:0:
194,212,49320,2,0,B|220:216|224:233|221:233|225:251|255:256,1,70.4,8|0,0:0|0:0,0:0:0:0:
265,359,49665,5,10,3:2:0:0:
269,341,49837,1,8,0:0:0:0:
252,337,50010,1,8,0:0:0:0:
248,353,50182,1,8,0:0:0:0:
116,351,50354,5,10,3:2:0:0:
102,299,50527,1,8,0:0:0:0:
51,313,50699,1,8,0:0:0:0:
64,364,50872,1,8,0:0:0:0:
212,142,51044,5,10,3:2:0:0:
147,201,51216,1,8,0:0:0:0:
184,281,51389,1,8,0:0:0:0:
249,221,51561,1,8,0:0:0:0:
506,147,51734,5,10,3:2:0:0:
484,16,51906,1,8,0:0:0:0:
354,36,52079,1,8,0:0:0:0:
375,167,52251,1,8,0:0:0:0:
464,367,52423,5,2,1:2:0:0:
467,364,52510,1,0,3:0:0:0:
471,356,52596,1,0,3:0:0:0:
475,343,52682,1,0,3:0:0:0:
472,325,52768,1,2,1:2:0:0:
463,304,52854,1,0,3:0:0:0:
444,284,52941,1,0,3:0:0:0:
414,275,53027,1,0,3:0:0:0:
379,283,53113,1,2,1:2:0:0:
345,304,53199,1,0,3:0:0:0:
306,324,53285,1,0,3:0:0:0:
257,329,53372,1,0,3:0:0:0:
209,306,53458,6,0,P|202:294|199:278,8,22,2|0|0|0|0|0|0|0|2,1:2|0:0|0:0|0:0|0:0|0:0|0:0|0:0|1:2,0:0:0:0:
311,86,54665,5,0,3:0:0:0:
311,86,54837,1,0,3:0:0:0:
311,86,55010,1,0,3:0:0:0:
26,23,55182,6,0,P|22:56|34:101,1,70.4,4|0,3:2|0:0,0:0:0:0:
192,194,55354,2,0,B|254:124|352:202|333:246|424:306|502:222,1,352,2|0,0:0|0:0,0:0:0:0:
500,224,55872,5,0,1:0:0:0:
424,152,56044,2,0,P|458:123|494:119,2,70.4,2|2|0,0:0|0:0|0:0,0:0:0:0:
250,276,56561,1,0,3:0:0:0:
110,361,56734,6,0,L|88:325,1,35.2,2|0,0:0|0:0,0:0:0:0:
25,291,56906,2,0,L|66:290,1,35.2,2|0,0:0|0:0,0:0:0:0:
127,253,57079,2,0,L|107:289,1,35.2,2|0,0:0|0:0,0:0:0:0:
23,375,57251,5,0,1:0:0:0:
205,356,57423,2,0,P|225:361|244:374,1,35.2,2|0,0:0|0:0,0:0:0:0:
377,217,57596,1,2,0:0:0:0:
333,209,57682,1,2,0:0:0:0:
290,195,57768,1,2,0:0:0:0:
252,175,57854,1,2,0:0:0:0:
217,149,57941,6,0,P|207:119|208:75,1,70.4,0|0,3:0|0:0,0:0:0:0:
312,24,58285,1,2,0:0:0:0:
217,149,58630,6,0,P|207:119|208:75,1,70.4,0|0,1:0|0:0,0:0:0:0:
312,24,58975,2,0,P|322:54|321:98,1,70.4,2|0,0:0|0:0,0:0:0:0:
111,122,59320,6,0,L|35:103,2,70.4,0|0|0,3:0|0:0|0:0,0:0:0:0:
85,35,59837,2,0,L|123:44,1,35.2,2|0,0:0|0:0,0:0:0:0:
323,176,60010,2,0,L|399:195,1,70.4,0|0,1:0|0:0,0:0:0:0:
208,294,60354,1,2,0:0:0:0:
164,299,60441,1,2,0:0:0:0:
128,324,60527,1,2,0:0:0:0:
91,348,60613,1,2,0:0:0:0:
49,356,60699,6,0,P|68:306|22:239,1,140.8,4|2,3:2|0:0,0:0:0:0:
33,46,61216,2,0,P|23:71|49:104,1,70.4,2|0,0:0|1:0,0:0:0:0:
168,211,61561,5,2,0:0:0:0:
256,207,61734,1,2,0:0:0:0:
343,203,61906,1,2,0:0:0:0:
465,279,62079,5,0,3:0:0:0:
351,211,62251,6,0,L|354:169,1,35.2,2|0,0:0|0:0,0:0:0:0:
264,215,62423,2,0,L|267:173,1,35.2,2|0,0:0|0:0,0:0:0:0:
177,219,62596,2,0,L|180:177,1,35.2,2|0,0:0|0:0,0:0:0:0:
465,105,62768,5,0,1:0:0:0:
256,298,62941,1,2,0:0:0:0:
46,105,63113,1,2,0:0:0:0:
38,148,63199,1,2,0:0:0:0:
35,192,63285,1,2,0:0:0:0:
40,238,63372,1,2,0:0:0:0:
47,280,63458,6,0,P|80:300|110:333,1,70.4,0|0,3:0|0:0,0:0:0:0:
256,379,63803,1,2,0:0:0:0:
47,280,64147,6,0,P|80:300|110:333,1,70.4,0|0,1:0|0:0,0:0:0:0:
409,322,64492,1,2,0:0:0:0:
409,278,64579,1,2,0:0:0:0:
422,236,64665,1,2,0:0:0:0:
447,200,64751,1,2,0:0:0:0:
482,174,64837,1,0,3:0:0:0:
469,87,65010,6,0,P|457:53|455:9,2,70.4,2|2|0,0:0|0:0|0:0,0:0:0:0:
201,46,65527,2,0,P|212:79|215:114,1,70.4,0|0,1:0|0:0,0:0:0:0:
343,69,65872,1,2,0:0:0:0:
343,69,65958,1,2,0:0:0:0:
343,69,66044,1,2,0:0:0:0:
221,220,66216,6,0,B|177:245|127:195|130:190|81:138|28:162,1,211.2,4|0,3:2|0:0,0:0:0:0:
30,160,66561,1,2,0:0:0:0:
115,292,66734,2,0,P|114:327|106:363,1,70.4,2|0,0:0|0:0,0:0:0:0:
139,90,66906,5,0,1:0:0:0:
139,90,67251,1,2,3:2:0:0:
60,51,67423,2,0,P|30:32|3:7,1,70.4,2|0,0:0|0:0,0:0:0:0:
212,41,67768,1,0,3:0:0:0:
364,31,67941,2,0,B|408:14|436:43|435:50|459:80|514:56,1,140.8,2|0,3:2|1:0,0:0:0:0:
462,145,68458,2,0,P|427:138|386:136,2,70.4,2|2|0,0:0|0:0|0:0,0:0:0:0:
412,367,68975,5,0,3:0:0:0:
418,220,69147,1,2,0:0:0:0:
464,296,69320,1,2,0:0:0:0:
366,291,69492,1,2,0:0:0:0:
146,291,69665,6,0,P|114:307|73:311,1,70.4,0|2,1:0|0:0,0:0:0:0:
94,146,70010,2,0,P|77:140|61:127,1,35.2,0|0,3:0|0:0,0:0:0:0:
45,56,70182,1,0,3:0:0:0:
256,21,70354,5,2,0:0:0:0:
262,33,70441,1,2,0:0:0:0:
265,46,70527,1,2,0:0:0:0:
264,59,70613,1,2,0:0:0:0:
259,72,70699,2,0,L|254:147,1,70.4,0|2,3:0|0:0,0:0:0:0:
253,373,71044,2,0,L|258:298,1,70.4,0|2,1:0|0:0,0:0:0:0:
109,180,71389,5,0,3:0:0:0:
403,204,71561,1,2,0:0:0:0:
150,283,71734,6,0,B|100:295|89:324|93:324|82:353|26:366,1,140.8,0|2,3:0|0:0,0:0:0:0:
130,153,72251,1,2,0:0:0:0:
130,153,72337,1,2,0:0:0:0:
130,153,72423,2,0,B|165:190|196:185|194:181|224:176|263:218,1,140.8,0|2,1:0|0:0,0:0:0:0:
30,235,72941,2,0,B|37:210|27:198|26:200|16:188|25:160,1,70.4,0|2,3:0|0:0,0:0:0:0:
207,89,73285,1,0,3:0:0:0:
10,66,73458,6,0,L|7:20,1,35.2,2|0,0:0|0:0,0:0:0:0:
93,66,73630,2,0,L|90:20,1,35.2,2|0,0:0|0:0,0:0:0:0:
283,1,73803,5,0,1:0:0:0:
244,199,73975,2,0,L|167:250,2,70.4,2|2|0,0:0|0:0|0:0,0:0:0:0:
420,67,74492,5,0,3:0:0:0:
442,152,74665,2,0,P|404:155|362:131,2,70.4,2|2|0,0:0|0:0|0:0,0:0:0:0:
256,299,75182,5,0,1:0:0:0:
142,174,75354,2,0,B|112:154|78:184|80:191|42:223|0:197,1,140.8,0|0,3:0|0:0,0:0:0:0:
370,174,75872,1,6,3:2:0:0:
370,174,76906,5,2,3:2:0:0:
403,170,76992,1,2,0:0:0:0:
434,188,77079,1,2,0:0:0:0:
465,204,77165,1,2,0:0:0:0:
499,203,77251,1,2,3:2:0:0:
274,364,99320,5,0,3:0:0:0:
274,364,99665,1,0,3:0:0:0:
178,224,100010,2,0,P|163:176|161:117,1,105.599996777344,10|0,0:0|0:0,0:0:0:0:
311,44,100699,1,2,0:0:0:0:
311,44,100872,1,0,3:0:0:0:
336,124,101044,2,0,P|351:172|353:231,2,105.599996777344,2|8|0,3:2|0:0|0:0,0:0:0:0:
160,121,102079,1,2,0:0:0:0:
160,121,102596,1,2,0:0:0:0:
86,79,102768,6,0,P|49:72|12:28,2,79.1999975830079,10|0|0,0:0|0:0|0:0,0:0:0:0:
233,77,103458,2,0,P|257:48|314:38,2,79.1999975830079,2|0|0,0:0|0:0|0:0,0:0:0:0:
161,205,104147,2,0,P|173:240|153:294,2,79.1999975830079,10|0|0,0:0|0:0|0:0,0:0:0:0:
86,164,104837,5,2,3:2:0:0:
256,290,105182,1,0,3:0:0:0:
426,164,105527,1,10,0:0:0:0:
434,172,106216,1,2,0:0:0:0:
474,246,106389,1,0,3:0:0:0:
434,172,106561,2,0,P|414:126|414:71,1,105.599996777344,2|8,3:2|0:0,0:0:0:0:
78,212,107251,5,2,0:0:0:0:
78,212,107596,2,0,P|98:258|98:313,1,105.599996777344,2|0,0:0|3:0,0:0:0:0:
236,14,108285,5,10,0:0:0:0:
236,14,108630,2,0,P|190:34|135:34,1,105.599996777344,2|0,0:0|0:0,0:0:0:0:
51,20,109147,1,0,3:0:0:0:
135,34,109320,1,2,3:2:0:0:
276,370,109665,6,0,P|322:350|377:350,1,105.599996777344,10|0,0:0|0:0,0:0:0:0:
492,151,110354,5,0,3:0:0:0:
492,151,110699,1,0,3:0:0:0:
326,187,111044,2,0,L|217:209,1,105.599996777344,10|0,0:0|0:0,0:0:0:0:
76,132,111734,1,2,0:0:0:0:
76,132,111906,1,0,3:0:0:0:
62,48,112079,2,0,L|171:26,2,105.599996777344,2|8|0,3:2|0:0|0:0,0:0:0:0:
219,109,113113,1,2,0:0:0:0:
219,109,113630,1,2,0:0:0:0:
181,183,113803,6,0,P|146:203|107:203,2,79.1999975830079,10|0|0,0:0|0:0|0:0,0:0:0:0:
68,277,114492,2,0,P|98:293|122:334,2,79.1999975830079,2|0|0,0:0|0:0|0:0,0:0:0:0:
206,327,115182,2,0,P|206:287|225:253,2,79.1999975830079,10|0|0,0:0|0:0|0:0,0:0:0:0:
292,312,115872,5,2,3:2:0:0:
292,312,116216,2,0,P|343:333|400:372,1,105.599996777344,2|8,3:2|0:0,0:0:0:0:
506,46,117251,1,2,0:0:0:0:
506,46,117423,2,0,P|480:35|452:16,1,52.7999983886719,0|0,3:0|3:0,0:0:0:0:
382,58,117768,1,2,0:0:0:0:
303,26,117941,6,0,P|294:64|309:101,2,79.1999975830079,10|0|0,0:0|0:0|0:0,0:0:0:0:
152,111,118630,2,0,P|189:99|213:69,2,79.1999975830079,2|0|0,0:0|0:0|0:0,0:0:0:0:
302,200,119320,2,0,P|273:173|234:167,2,79.1999975830079,10|0|0,0:0|0:0|0:0,0:0:0:0:
236,253,120010,1,2,0:0:0:0:
236,253,120182,1,0,3:0:0:0:
170,306,120354,2,0,B|88:305|97:217|106:218|115:124|24:123,1,263.99999194336,2|0,3:2|0:0,0:0:0:0:
13,35,121389,5,0,3:0:0:0:
13,35,121734,1,0,3:0:0:0:
188,43,122079,2,0,P|225:43|258:22,2,70.4,2|0|0,0:0|3:0|3:0,0:0:0:0:
236,253,122768,2,0,B|285:251|298:282|297:286|316:315|366:309,1,140.8,2|0,3:2|3:0,0:0:0:0:
467,153,123285,2,0,B|443:196|410:192|407:189|372:191|352:237,1,140.8,2|0,0:0|3:0,0:0:0:0:
440,335,123803,2,0,B|427:314|436:300|438:300|447:284|434:267,2,70.4,2|0|0,3:2|0:0|3:0,0:0:0:0:
175,364,124492,5,2,3:2:0:0:
47,242,124837,2,0,P|26:215|29:169,2,70.4,2|0|0,0:0|3:0|3:0,0:0:0:0:
345,216,125527,2,0,P|284:183|216:193,1,140.8,2|0,3:2|3:0,0:0:0:0:
350,27,126044,2,0,P|351:96|394:150,1,140.8,2|0,0:0|3:0,0:0:0:0:
112,138,126561,2,0,P|209:103|268:17,1,211.2,2|2,3:2|0:0,0:0:0:0:
268,17,127251,1,0,3:0:0:0:
429,86,127596,6,0,P|424:52|425:16,2,70.4,2|0|0,0:0|3:0|3:0,0:0:0:0:
504,361,128285,2,0,P|535:305|492:252,1,140.8,2|0,3:2|3:0,0:0:0:0:
403,262,128803,2,0,P|372:318|415:371,1,140.8,2|0,0:0|3:0,0:0:0:0:
288,311,129320,2,0,B|234:277|191:313|196:317|150:358|78:324,1,211.2,2|2,3:2|0:0,0:0:0:0:
88,328,130010,1,0,3:0:0:0:
95,126,130354,2,0,L|86:46,2,70.4,2|0|0,0:0|3:0|3:0,0:0:0:0:
391,23,131044,5,2,3:2:0:0:
391,23,131216,2,0,L|322:31,1,70.4,2|0,0:0|3:0,0:0:0:0:
424,327,131734,2,0,L|417:258,1,70.4,2|0,0:0|3:0,0:0:0:0:
260,227,132079,2,0,L|252:157,1,70.4,2|0,3:2|0:0,0:0:0:0:
95,126,132423,6,0,P|42:115|9:8,1,176,2|8,3:2|0:0,0:0:0:0:
241,76,132941,2,0,P|277:35|386:60,1,176,2|0,0:0|3:0,0:0:0:0:
211,227,133458,2,0,P|219:252|181:293,1,88,8|0,0:0|0:0,0:0:0:0:
114,352,133803,6,0,P|200:333|300:330,1,176,2|8,3:2|0:0,0:0:0:0:
512,177,134320,2,0,P|426:196|326:199,1,176,2|0,0:0|3:0,0:0:0:0:
190,101,134837,2,0,P|155:77|138:20,1,88,8|0,0:0|0:0,0:0:0:0:
33,234,135182,6,0,P|103:282|137:396,1,176,2|8,3:2|0:0,0:0:0:0:
271,250,135699,1,2,0:0:0:0:
277,119,135872,2,0,P|279:76|286:26,1,88,2|0,0:0|3:0,0:0:0:0:
425,297,136216,2,0,P|449:262|506:245,1,88,8|0,0:0|0:0,0:0:0:0:
509,136,136561,6,0,P|435:165|322:188,1,176,2|8,3:2|0:0,0:0:0:0:
87,222,137079,2,0,P|127:207|171:198,2,88,2|0|0,0:0|0:0|3:0,0:0:0:0:
253,149,137596,2,0,P|243:106|228:64,1,88,8|0,0:0|0:0,0:0:0:0:
37,22,137941,5,10,3:2:0:0:
30,38,138113,1,8,0:0:0:0:
31,55,138285,1,8,0:0:0:0:
40,71,138458,1,8,0:0:0:0:
29,159,138630,5,10,3:2:0:0:
47,207,138803,1,8,0:0:0:0:
86,240,138975,1,8,0:0:0:0:
137,255,139147,1,8,0:0:0:0:
252,337,139320,5,10,3:2:0:0:
328,372,139492,1,8,0:0:0:0:
413,363,139665,1,8,0:0:0:0:
492,321,139837,1,8,0:0:0:0:
418,142,140010,5,10,3:2:0:0:
330,42,140182,1,8,0:0:0:0:
278,163,140354,1,8,1:2:0:0:
365,262,140527,1,8,0:0:0:0:
142,356,140699,5,2,1:2:0:0:
145,354,140785,1,0,3:0:0:0:
151,347,140872,1,0,3:0:0:0:
157,335,140958,1,0,3:0:0:0:
162,318,141044,1,2,1:2:0:0:
165,296,141130,1,0,3:0:0:0:
162,269,141216,1,0,3:0:0:0:
151,239,141303,1,0,3:0:0:0:
129,210,141389,1,2,1:2:0:0:
92,194,141475,1,0,3:0:0:0:
48,202,141561,1,0,3:0:0:0:
21,242,141647,1,0,3:0:0:0:
22,295,141734,6,0,P|27:314|39:324,8,22,2|0|0|0|0|0|0|0|0,1:2|0:0|0:0|0:0|0:0|0:0|0:0|0:0|3:0,0:0:0:0:
490,295,142941,5,0,3:0:0:0:
490,295,143113,1,0,3:0:0:0:
490,295,143285,2,0,L|478:353,1,44,0|0,3:0|0:0,0:0:0:0:
318,362,143458,6,0,B|312:289|258:283|256:287|203:282|194:205,1,211.199993554688,6|0,3:2|1:0,0:0:0:0:
239,24,143975,2,0,P|263:20|275:45,2,52.7999983886719,2|0|0,0:0|0:0|0:0,0:0:0:0:
35,63,144320,1,0,3:0:0:0:
35,63,144406,1,2,0:0:0:0:
35,63,144492,2,0,L|149:43,1,105.599996777344,0|0,1:0|0:0,0:0:0:0:
377,48,144837,6,0,B|436:47|447:89|442:94|457:139|523:129,1,158.399995166016,2|0,3:2|0:0,0:0:0:0:
501,130,145182,2,0,P|501:157|494:183,1,52.7999983886719,0|0,1:0|0:0,0:0:0:0:
442,352,145354,2,0,P|440:296|455:244,1,105.599996777344,2|2,0:0|0:0,0:0:0:0:
453,249,145613,1,2,0:0:0:0:
453,249,145699,1,0,3:0:0:0:
311,116,145872,2,0,P|255:117|203:102,1,105.599996777344,0|0,1:0|0:0,0:0:0:0:
121,365,146216,5,0,3:0:0:0:
1,219,146389,1,2,0:0:0:0:
187,188,146561,2,0,P|143:215|148:273,1,105.599996777344,0|0,1:0|0:0,0:0:0:0:
287,360,146906,1,2,0:2:0:0:
287,360,146992,1,2,0:0:0:0:
287,360,147079,2,0,L|270:279,1,52.7999983886719,0|0,3:0|0:0,0:0:0:0:
389,183,147251,2,0,P|348:117|261:124,1,158.399995166016,0|0,1:0|0:0,0:0:0:0:
274,116,147596,6,0,P|248:115|235:93,1,52.7999983886719,2|0,3:2|0:0,0:0:0:0:
445,75,147941,6,0,L|453:23,1,52.7999983886719,0|0,1:0|0:0,0:0:0:0:
396,281,148113,1,2,0:0:0:0:
396,281,148199,1,0,3:0:0:0:
396,281,148285,2,0,L|448:289,1,52.7999983886719,2|0,0:0|0:0,0:0:0:0:
190,232,148458,2,0,L|182:284,1,52.7999983886719,0|0,3:0|0:0,0:0:0:0:
239,26,148630,1,0,1:0:0:0:
187,22,148716,1,2,0:0:0:0:
141,47,148803,1,2,0:0:0:0:
96,74,148889,1,2,0:0:0:0:
44,69,148975,6,0,P|104:52|207:146,1,211.199993554688,6|0,3:2|1:0,0:0:0:0:
50,205,149492,2,0,P|38:194|46:160,2,52.7999983886719,2|0|0,0:0|0:0|0:0,0:0:0:0:
104,375,149837,1,0,3:0:0:0:
104,375,149923,1,2,0:0:0:0:
104,375,150010,2,0,P|154:368|175:323,1,105.599996777344,0|0,1:0|0:0,0:0:0:0:
17,308,150354,5,0,3:2:0:0:
281,290,150527,1,2,0:0:0:0:
274,68,150699,1,0,1:0:0:0:
10,86,150872,1,2,0:0:0:0:
10,86,150958,1,2,0:0:0:0:
10,86,151044,1,2,0:0:0:0:
40,221,151216,2,0,P|46:197|48:165,1,52.7999983886719,0|0,3:0|0:0,0:0:0:0:
217,137,151389,2,0,P|205:185|201:249,1,105.599996777344,0|0,1:0|0:0,0:0:0:0:
422,364,151734,5,0,3:0:0:0:
294,203,151906,1,2,0:0:0:0:
497,172,152079,2,0,P|447:169|385:138,1,105.599996777344,0|0,1:0|0:0,0:0:0:0:
484,43,152423,1,2,0:2:0:0:
484,43,152510,1,2,0:0:0:0:
484,43,152596,2,0,P|463:29|444:0,1,52.7999983886719,0|0,3:0|0:0,0:0:0:0:
288,62,152768,2,0,P|260:103|202:141,1,105.599996777344,0|0,1:0|0:0,0:0:0:0:
16,117,153113,5,0,3:0:0:0:
132,54,153285,1,2,0:0:0:0:
132,54,153372,1,2,0:0:0:0:
132,54,153458,2,0,L|188:48,1,52.7999983886719,0|0,1:0|0:0,0:0:0:0:
300,218,153630,1,2,0:0:0:0:
300,218,153716,1,2,0:0:0:0:
300,218,153803,2,0,L|244:224,1,52.7999983886719,0|0,3:0|0:0,0:0:0:0:
298,52,153975,6,0,L|304:108,1,52.7999983886719,0|0,1:0|0:0,0:0:0:0:
128,167,154147,1,0,1:0:0:0:
113,216,154234,1,2,0:0:0:0:
134,263,154320,1,2,0:0:0:0:
146,314,154406,1,2,0:0:0:0:
128,363,154492,6,0,P|90:274|-2:319,1,211.199993554688,6|0,3:2|1:0,0:0:0:0:
279,286,155010,1,2,0:0:0:0:
279,286,155096,1,2,0:0:0:0:
279,286,155182,1,2,0:0:0:0:
240,61,155354,2,0,P|215:58|214:83,1,52.7999983886719,0|0,3:0|0:0,0:0:0:0:
431,135,155527,2,0,P|456:138|457:113,1,52.7999983886719,0|0,1:0|0:0,0:0:0:0:
348,54,155699,5,2,0:0:0:0:
348,54,155785,1,2,0:0:0:0:
348,54,155872,2,0,L|306:233,1,158.399995166016,0|0,3:0|0:0,0:0:0:0:
387,232,156216,2,0,L|446:245,1,52.7999983886719,0|0,1:0|0:0,0:0:0:0:
164,172,156389,2,0,L|205:351,1,158.399995166016,2|0,0:0|0:0,0:0:0:0:
125,350,156734,2,0,L|65:363,1,52.7999983886719,0|0,3:0|0:0,0:0:0:0:
18,258,156906,2,0,L|6:206,1,52.7999983886719,0|0,1:0|0:0,0:0:0:0:
32,38,157079,5,2,0:0:0:0:
32,38,157165,1,2,0:0:0:0:
32,38,157251,2,0,B|91:14|130:53|126:59|166:108|235:67,1,211.199993554688,2|0,3:2|1:0,0:0:0:0:
463,24,157768,1,2,0:0:0:0:
463,24,157854,1,2,0:0:0:0:
463,24,157941,1,2,0:0:0:0:
302,196,158113,2,0,L|290:131,1,52.7999983886719,0|0,3:0|0:0,0:0:0:0:
453,116,158285,2,0,L|465:181,1,52.7999983886719,0|0,1:0|0:0,0:0:0:0:
413,327,158458,1,2,0:0:0:0:
413,327,158544,1,2,0:0:0:0:
413,327,158630,6,0,P|401:340|407:320,1,52.7999983886719,2|0,3:2|0:0,0:0:0:0:
99,327,158975,6,0,L|34:315,1,52.7999983886719,0|0,1:0|0:0,0:0:0:0:
137,182,159147,1,2,0:0:0:0:
137,182,159234,1,0,3:0:0:0:
137,182,159320,1,2,0:0:0:0:
21,229,159492,2,0,P|11:203|13:169,1,52.7999983886719,0|0,3:0|0:0,0:0:0:0:
250,118,159665,2,0,P|270:170|266:238,1,105.599996777344,0|2,1:0|0:0,0:0:0:0:
270,219,159923,1,2,0:0:0:0:
270,219,160010,6,0,B|347:230|362:178|360:182|375:126|467:140,1,211.199993554688,6|0,3:2|1:0,0:0:0:0:
337,44,160527,1,2,0:0:0:0:
337,44,160613,1,2,0:0:0:0:
337,44,160699,1,2,0:0:0:0:
434,222,160872,2,0,P|424:245|425:282,1,52.7999983886719,0|0,3:0|0:0,0:0:0:0:
268,304,161044,2,0,P|270:328|290:359,1,52.7999983886719,0|0,1:0|0:0,0:0:0:0:
91,220,161216,5,2,0:0:0:0:
91,220,161303,1,2,0:0:0:0:
91,220,161389,2,0,B|65:273|95:296|100:293|131:313|108:375,1,158.399995166016,2|0,3:2|0:0,0:0:0:0:
33,375,161734,2,0,P|21:347|26:318,1,52.7999983886719,0|0,1:0|0:0,0:0:0:0:
210,149,161906,2,0,B|235:202|205:225|200:222|169:242|192:304,1,158.399995166016,2|0,0:0|0:0,0:0:0:0:
268,304,162251,2,0,P|280:276|275:247,1,52.7999983886719,0|0,3:0|0:0,0:0:0:0:
132,73,162423,2,0,P|120:101|125:130,1,52.7999983886719,0|0,1:0|0:0,0:0:0:0:
326,168,162596,5,2,0:0:0:0:
326,168,162682,1,2,0:0:0:0:
326,168,162768,2,0,P|420:162|495:74,1,211.199993554688,2|0,3:2|1:0,0:0:0:0:
361,18,163285,1,2,0:0:0:0:
361,18,163372,1,2,0:0:0:0:
361,18,163458,1,2,0:0:0:0:
276,82,163630,2,0,L|216:88,1,52.7999983886719,0|0,3:0|0:0,0:0:0:0:
236,302,163803,2,0,L|296:296,1,52.7999983886719,0|0,1:0|0:0,0:0:0:0:
271,198,163975,1,2,0:0:0:0:
271,198,164061,1,2,0:0:0:0:
271,198,164147,6,0,P|250:186|254:203,1,52.7999983886719,2|0,3:2|0:0,0:0:0:0:
457,236,164492,6,0,L|519:260,1,52.7999983886719,0|0,1:0|0:0,0:0:0:0:
377,357,164665,1,2,0:0:0:0:
377,357,164751,1,0,3:0:0:0:
377,357,164837,2,0,L|442:346,1,52.7999983886719,2|0,0:0|0:0,0:0:0:0:
401,136,165010,2,0,L|452:94,1,52.7999983886719,0|0,3:0|0:0,0:0:0:0:
284,106,165182,1,0,1:0:0:0:
252,63,165268,1,2,0:0:0:0:
210,32,165354,1,2,0:0:0:0:
161,14,165441,1,2,0:0:0:0:
108,11,165527,6,0,B|62:44|60:103|56:103|60:164|-5:194,1,211.199993554688,6|0,3:2|1:0,0:0:0:0:
186,242,166044,2,0,P|178:211|177:177,2,52.7999983886719,2|0|0,0:0|0:0|0:0,0:0:0:0:
98,382,166389,1,0,3:0:0:0:
98,382,166475,1,2,0:0:0:0:
98,382,166561,2,0,P|93:329|79:278,1,105.599996777344,0|0,1:0|0:0,0:0:0:0:
297,289,166906,6,0,P|350:219|441:203,1,158.399995166016,2|0,3:2|0:0,0:0:0:0:
415,200,167251,2,0,P|400:227|378:241,1,52.7999983886719,0|0,1:0|0:0,0:0:0:0:
239,103,167423,2,0,P|177:103|131:79,1,105.599996777344,2|2,0:0|0:0,0:0:0:0:
137,84,167682,1,2,0:0:0:0:
137,84,167768,1,0,3:0:0:0:
353,15,167941,2,0,P|345:66|338:126,1,105.599996777344,0|0,1:0|0:0,0:0:0:0:
182,251,168285,5,0,3:0:0:0:
16,152,168458,1,2,0:0:0:0:
14,346,168630,2,0,P|33:288|81:260,1,105.599996777344,0|0,1:0|0:0,0:0:0:0:
232,345,168975,1,2,0:0:0:0:
232,345,169061,1,2,0:0:0:0:
232,345,169147,2,0,L|288:350,1,52.7999983886719,0|0,3:0|0:0,0:0:0:0:
375,265,169320,2,0,P|462:293|504:365,1,158.399995166016,0|0,1:0|0:0,0:0:0:0:
498,345,169665,6,0,B|474:282|500:242|506:243|535:199|500:136,1,211.199993554688,2|0,3:2|1:0,0:0:0:0:
315,43,170182,1,2,0:0:0:0:
381,168,170354,1,2,0:0:0:0:
381,168,170441,1,2,0:0:0:0:
381,168,170527,2,0,P|386:137|407:101,1,52.7999983886719,0|0,3:0|0:0,0:0:0:0:
210,51,170699,2,0,P|200:113|158:185,1,105.599996777344,0|2,1:0|0:0,0:0:0:0:
182,151,170958,1,2,0:0:0:0:
182,151,171044,6,0,B|151:139|129:161|131:164|110:183|82:165,1,105.599996777344,2|0,3:2|0:0,0:0:0:0:
27,292,171389,1,0,1:0:0:0:
79,288,171475,1,2,0:0:0:0:
131,298,171561,1,2,0:0:0:0:
177,322,171647,1,2,0:0:0:0:
216,358,171734,1,2,0:0:0:0:
431,296,171906,2,0,P|433:267|424:232,1,52.7999983886719,0|0,3:0|0:0,0:0:0:0:
248,213,172079,2,0,P|246:242|255:277,1,52.7999983886719,0|0,1:0|0:0,0:0:0:0:
354,152,172251,5,2,0:0:0:0:
354,152,172337,1,2,0:0:0:0:
354,152,172423,2,0,P|439:128|488:17,1,211.199993554688,0|0,3:0|1:0,0:0:0:0:
301,53,172941,1,2,0:0:0:0:
202,79,173113,1,2,0:0:0:0:
202,79,173199,1,2,0:0:0:0:
202,79,173285,2,0,P|209:38|202:11,1,52.7999983886719,0|0,3:0|0:0,0:0:0:0:
22,20,173458,2,0,P|8:102|22:156,1,105.599996777344,0|2,1:0|0:0,0:0:0:0:
11,123,173716,1,2,0:0:0:0:
11,123,173803,6,0,L|120:101,1,105.599996777344,2|0,3:2|0:0,0:0:0:0:
363,172,174147,2,0,L|145:216,1,211.199993554688,0|2,1:0|0:0,0:0:0:0:
164,222,174579,1,2,0:0:0:0:
164,222,174665,2,0,L|175:276,1,52.7999983886719,0|0,3:0|0:0,0:0:0:0:
348,270,174837,2,0,L|325:378,1,105.599996777344,0|2,1:0|0:0,0:0:0:0:
326,373,175096,1,2,0:0:0:0:
326,373,175182,6,0,P|368:337|416:325,1,105.599996777344,2|0,3:2|0:0,0:0:0:0:
186,373,175527,1,0,1:0:0:0:
186,373,175872,5,2,0:0:0:0:
212,315,175958,1,2,0:0:0:0:
209,257,176044,1,2,3:2:0:0:
183,210,176130,1,2,0:0:0:0:
142,184,176216,1,2,1:2:0:0:
112,153,176303,1,2,0:0:0:0:
95,119,176389,1,2,0:0:0:0:
101,87,176475,1,2,0:0:0:0:
118,67,176561,6,0,P|201:76|268:3,1,176,6|0,3:2|1:0,0:0:0:0:
481,38,177079,1,2,0:0:0:0:
481,38,177165,1,2,0:0:0:0:
481,38,177251,2,0,L|486:99,1,44,2|0,0:0|0:0,0:0:0:0:
488,160,177423,1,0,3:0:0:0:
287,125,177596,2,0,L|297:247,1,88,0|2,1:0|0:0,0:0:0:0:
294,212,177854,1,2,0:0:0:0:
294,212,177941,6,0,B|290:261|338:279|334:286|381:302|373:361,1,176,2|0,3:2|1:0,0:0:0:0:
268,329,178458,2,0,B|290:273|339:283|339:275|389:283|410:239,1,176,2|0,0:0|3:0,0:0:0:0:
418,248,178889,1,2,0:0:0:0:
418,248,178975,2,0,L|425:160,1,88,0|0,1:0|0:0,0:0:0:0:
433,19,179320,5,2,3:2:0:0:
79,19,179665,1,0,1:0:0:0:
79,19,180010,1,2,0:0:0:0:
256,65,180182,1,0,3:0:0:0:
134,203,180354,2,0,P|110:181|96:147,1,70.4,0|2,1:0|0:0,0:0:0:0:
97,147,180613,1,2,0:0:0:0:
95,146,180699,1,2,3:2:0:0:
95,146,181044,2,0,P|86:222|74:264,2,105.6,0|0|0,1:0|3:0|3:0,0:0:0:0:
244,123,181734,2,0,P|252:46|265:4,1,105.6,0|0,1:0|0:0,0:0:0:0:
259,19,182079,6,0,P|233:42|187:49,1,70.4,2|0,3:2|0:0,0:0:0:0:
353,135,182423,2,0,P|406:89|498:75,1,140.8,0|0,1:0|0:0,0:0:0:0:
501,162,182941,1,0,3:0:0:0:
314,228,183113,2,0,P|247:204|189:131,2,140.8,0|2|0,1:0|3:2|1:0,0:0:0:0:
408,351,183975,2,0,P|427:284|415:216,1,140.8,2|0,0:0|3:0,0:0:0:0:
164,270,184492,2,0,P|149:320|159:371,1,105.6,0|0,1:0|0:0,0:0:0:0:
159,371,184837,5,2,1:2:0:0:
320,314,185010,1,0,3:0:0:0:
37,281,185354,5,10,0:0:0:0:
164,270,185527,1,0,3:0:0:0:
28,108,185872,5,2,3:2:0:0:
123,130,186044,1,0,3:0:0:0:
123,130,186130,1,0,3:0:0:0:
123,130,186216,1,0,3:0:0:0:
199,85,186389,6,0,P|198:50|205:16,1,70.4,0|0,3:0|3:0,0:0:0:0:
313,299,187079,1,0,3:0:0:0:
313,299,187165,1,0,3:0:0:0:
313,299,187251,2,0,P|314:334|307:368,1,70.4,0|0,3:0|3:0,0:0:0:0:
