osu file format v14

[General]
AudioFilename: audio.mp3
AudioLeadIn: 0
PreviewTime: 104158
Countdown: 0
SampleSet: Soft
StackLeniency: 0.7
Mode: 0
LetterboxInBreaks: 0
WidescreenStoryboard: 1

[Editor]
DistanceSpacing: 0.9
BeatDivisor: 4
GridSize: 16
TimelineZoom: 1

[Metadata]
Title:Frozen Heart
TitleUnicode:Frozen Heart
Artist:ColBreakz & Ramstar
ArtistUnicode:ColBreakz & Ramstar
Creator:pacsu
Version:Normal
Source:
Tags:dubstep electronic english ktc kill the copiright TheKoala
BeatmapID:1678748
BeatmapSetID:783314

[Difficulty]
HPDrainRate:3
CircleSize:3
OverallDifficulty:3
ApproachRate:4
SliderMultiplier:1.2
SliderTickRate:1

[Events]
//Background and Video events
0,0,"ice_heart_by_b_niro.jpg",0,0
//Break Periods
//Storyboard Layer 0 (Background)
//Storyboard Layer 1 (Fail)
//Storyboard Layer 2 (Pass)
//Storyboard Layer 3 (Foreground)
//Storyboard Sound Samples

[TimingPoints]
1912,400,4,2,0,50,1,0
27512,-90.9090909090909,4,2,0,50,0,0
53112,-83.3333333333333,4,2,0,50,0,1
77112,-83.3333333333333,4,2,0,50,0,0
78712,-90.9090909090909,4,2,0,50,0,0
91512,-100,4,2,0,50,0,0
123512,-83.3333333333333,4,2,0,50,0,1
149112,-90.9090909090909,4,2,0,50,0,0
187512,-83.3333333333333,4,2,0,50,0,1
211512,-90.9090909090909,4,2,0,50,0,0

[Colours]
Combo1 : 128,0,255
Combo2 : 0,0,255
Combo3 : 0,128,128

[HitObjects]
112,192,1912,6,0,B|192:176|208:112|208:112|304:112|304:112|320:176|400:192,1,360,6|2,0:0|0:0,0:0:0:0:
445,94,3512,2,0,P|506:171|488:248,1,180,2|2,0:0|0:0,0:0:0:0:
453,284,4312,2,0,L|370:295,2,60,2|0|2,0:0|0:0|0:0,0:0:0:0:
398,191,5112,6,0,L|267:206,1,120,2|2,0:0|0:0,0:0:0:0:
190,267,5912,2,0,P|169:197|198:137,1,120,2|0,0:0|0:0,0:0:0:0:
75,128,6712,5,2,0:0:0:0:
74,127,6912,2,0,P|124:158|203:144,1,120,2|2,0:0|0:0,0:0:0:0:
230,128,7512,2,0,L|230:51,2,60,2|0|2,0:0|0:0|0:0,0:0:0:0:
239,235,8312,6,0,B|291:236|339:186|334:149|332:113|332:113|353:39|429:25|470:37|505:66,1,360,6|2,0:0|0:0,0:0:0:0:
431,147,9912,2,0,P|416:217|331:307,1,180,2|2,0:0|0:0,0:0:0:0:
293,290,10712,2,0,P|262:285|214:290,2,60,2|2|2,0:0|0:0|0:0,0:0:0:0:
237,383,11512,6,0,P|174:372|133:322,1,120,2|2,0:0|0:0,0:0:0:0:
50,267,12312,2,0,P|82:195|135:172,1,120,2|2,0:0|0:0,0:0:0:0:
223,180,13112,6,0,P|190:251|138:275,1,120,2|2,0:0|0:0,0:0:0:0:
101,363,13912,2,0,L|232:352,1,120,2|10,0:0|0:0,0:0:0:0:
274,345,14512,1,8,0:0:0:0:
272,343,14712,5,10,0:0:0:0:
228,243,15112,1,8,0:0:0:0:
335,241,15512,2,0,P|322:193|256:141,1,120,8|10,0:0|0:0,0:0:0:0:
227,116,16112,1,0,0:0:0:0:
182,146,16312,2,0,P|136:185|119:240,1,120,10|8,0:0|0:0,0:0:0:0:
26,183,17112,2,0,P|72:144|89:89,1,120,10|8,0:0|0:0,0:0:0:0:
166,12,17912,6,0,P|232:-7|286:8,1,120,10|8,0:0|0:0,0:0:0:0:
331,98,18712,2,0,P|329:168|362:224,1,120,8|10,0:0|0:0,0:0:0:0:
391,249,19312,1,2,0:0:0:0:
421,293,19512,2,0,L|283:299,1,120,10|8,0:0|0:0,0:0:0:0:
229,216,20312,2,0,L|220:207|216:203|212:199|331:193,1,120,10|8,0:0|0:0,0:0:0:0:
229,216,21112,6,0,P|204:161|223:85,1,120,10|8,0:0|0:0,0:0:0:0:
301,42,21912,2,0,P|325:96|307:173,1,120,8|10,0:0|0:0,0:0:0:0:
280,194,22512,1,2,0:0:0:0:
229,216,22712,2,0,L|91:210,1,120,10|8,0:0|0:0,0:0:0:0:
104,318,23512,2,0,L|242:324,1,120,10|10,0:0|0:0,0:0:0:0:
331,326,24312,6,0,P|286:275|290:207,1,120,10|8,0:0|0:0,0:0:0:0:
296,119,25112,2,0,P|239:133|171:117,1,120,8|2,0:0|0:0,0:0:0:0:
139,85,25712,1,2,0:0:0:0:
172,42,25912,2,0,P|229:28|297:44,1,120,2|2,0:0|0:0,0:0:0:0:
326,77,26512,1,2,0:0:0:0:
296,119,26712,2,0,P|281:166|298:255,1,120,2|0,0:0|0:0,0:0:0:0:
173,205,27512,6,0,L|94:235,1,66.0000020141602,0|0,0:0|0:0,0:0:0:0:
88,283,27912,2,0,P|151:292|190:353,1,132.00000402832,8|0,0:0|0:0,0:0:0:0:
307,344,28712,2,0,P|344:291|407:282,1,132.00000402832,8|0,0:0|0:0,0:0:0:0:
412,163,29512,2,0,P|348:153|311:101,1,132.00000402832,8|0,0:0|0:0,0:0:0:0:
191,97,30312,2,0,P|153:149|90:158,1,132.00000402832,8|0,0:0|0:0,0:0:0:0:
44,119,30912,5,0,0:0:0:0:
44,119,31112,2,0,L|44:255,1,132.00000402832,8|0,0:0|0:0,0:0:0:0:
69,304,31712,1,0,0:0:0:0:
101,353,31912,2,0,L|244:353,1,132.00000402832,8|0,0:0|0:0,0:0:0:0:
354,347,32712,6,0,L|354:196,1,132.00000402832,8|0,0:0|0:0,0:0:0:0:
398,175,33312,1,0,0:0:0:0:
452,152,33512,2,0,L|452:298,1,132.00000402832,8|0,0:0|0:0,0:0:0:0:
354,347,34312,5,8,0:0:0:0:
284,250,34712,2,0,L|370:250,1,66.0000020141602
409,248,35112,1,8,0:0:0:0:
465,143,35512,6,0,L|387:143,1,66.0000020141602
339,143,35912,1,8,0:0:0:0:
295,102,36112,1,0,0:0:0:0:
235,102,36312,2,0,L|93:102,1,132.00000402832,0|8,0:0|0:0,0:0:0:0:
43,102,36912,5,0,0:0:0:0:
43,102,37112,2,0,L|43:238,1,132.00000402832,0|8,0:0|0:0,0:0:0:0:
57,291,37712,1,0,0:0:0:0:
104,326,37912,2,0,P|168:345|252:316,1,132.00000402832,0|8,0:0|0:0,0:0:0:0:
171,226,38712,2,0,L|171:83,2,132.00000402832,0|8|8,0:0|0:0|0:0,0:0:0:0:
223,253,39712,2,0,L|292:253,1,66.0000020141602,8|8,0:0|0:0,0:0:0:0:
343,228,40112,1,8,0:0:0:0:
402,225,40312,6,0,P|462:218|519:156,1,132.00000402832,2|2,0:0|0:0,0:0:0:0:
507,111,40912,1,0,0:0:0:0:
477,59,41112,2,0,P|417:66|360:128,1,132.00000402832,2|2,0:0|0:0,0:0:0:0:
343,228,41912,6,0,P|280:195|249:114,1,132.00000402832,0|2,0:0|0:0,0:0:0:0:
210,100,42512,1,2,0:0:0:0:
161,133,42712,2,0,P|134:192|79:227,1,132.00000402832,2|2,0:0|0:0,0:0:0:0:
85,345,43512,6,0,B|153:332|153:332|234:343,1,132.00000402832,2|2,0:0|0:0,0:0:0:0:
274,349,44112,1,2,0:0:0:0:
332,357,44312,2,0,B|400:370|400:370|481:359,1,132.00000402832,2|2,0:0|0:0,0:0:0:0:
469,242,45112,6,0,B|406:250|406:250|338:237,1,132.00000402832,0|2,0:0|0:0,0:0:0:0:
286,209,45712,1,2,0:0:0:0:
232,182,45912,2,0,L|232:270,2,66.0000020141602,2|0|10,0:0|0:0|0:0,0:0:0:0:
171,79,46712,6,0,P|232:64|307:81,1,132.00000402832,14|2,0:0|0:0,0:0:0:0:
411,40,47512,2,0,P|439:102|431:178,1,132.00000402832,14|2,0:0|0:0,0:0:0:0:
460,280,48312,2,0,P|399:295|324:278,1,132.00000402832,14|2,0:0|0:0,0:0:0:0:
216,308,49112,2,0,P|188:246|196:170,1,132.00000402832,14|2,0:0|0:0,0:0:0:0:
185,64,49912,5,14,0:0:0:0:
303,64,50312,1,14,0:0:0:0:
305,182,50712,1,14,0:0:0:0:
191,183,51112,1,14,0:0:0:0:
185,64,51512,2,0,P|124:82|46:43,2,132.00000402832
301,89,52712,1,0,0:0:0:0:
284,217,53112,6,0,B|232:204|201:231|201:231|142:222|123:196,1,143.999995605469,12|0,0:0|0:0,0:0:0:0:
251,293,53912,2,0,P|300:295|333:279,2,71.9999978027344,10|2|2,0:0|0:0|0:0,0:0:0:0:
121,294,54712,2,0,P|72:296|39:280,2,71.9999978027344,10|2|2,0:0|0:0|0:0,0:0:0:0:
188,183,55512,6,0,B|188:77,1,71.9999978027344,10|2,0:0|0:0,0:0:0:0:
116,111,55912,2,0,L|218:111,1,71.9999978027344,2|2,0:0|0:0,0:0:0:0:
247,85,56312,1,10,0:0:0:0:
376,83,56712,1,4,0:0:0:0:
314,196,57112,6,0,L|314:274,2,71.9999978027344,10|2|2,0:0|0:0|0:0,0:0:0:0:
376,83,57912,2,0,L|376:11,2,71.9999978027344,10|2|2,0:0|0:0|0:0,0:0:0:0:
452,187,58712,2,0,B|452:270|452:270|401:270|401:270|401:356,1,215.999993408203,12|0,0:0|0:0,0:0:0:0:
401,352,59512,1,8,0:0:0:0:
161,251,60312,6,0,P|124:248|77:256,2,71.9999978027344,10|2|2,0:0|0:0|0:0,0:0:0:0:
270,323,61112,2,0,P|307:326|354:318,2,71.9999978027344,10|2|2,0:0|0:0|0:0,0:0:0:0:
161,251,61912,2,0,B|161:296|161:296|168:303|168:303|161:308|161:308|161:370,1,107.999996704102,10|8,0:0|0:0,0:0:0:0:
63,353,62512,1,2,0:0:0:0:
63,353,62712,2,0,L|63:206,1,143.999995605469,10|2,0:0|0:0,0:0:0:0:
20,86,63512,6,0,P|59:77|114:87,1,71.9999978027344,8|2,0:0|0:0,0:0:0:0:
154,89,63912,2,0,P|193:97|248:88,1,71.9999978027344,2|0,0:0|0:0,0:0:0:0:
288,79,64312,2,0,P|327:70|382:80,2,71.9999978027344,10|2|2,0:0|0:0|0:0,0:0:0:0:
271,207,65112,2,0,B|337:233|337:233|428:233,1,143.999995605469,10|2,0:0|0:0,0:0:0:0:
474,232,65712,1,2,0:0:0:0:
474,232,65912,6,0,P|403:159|388:96,1,143.999995605469
311,17,66712,2,0,L|402:-7,2,71.9999978027344,10|2|2,0:0|0:0|0:0,0:0:0:0:
181,18,67512,2,0,L|90:-6,2,71.9999978027344,10|2|2,0:0|0:0|0:0,0:0:0:0:
247,129,68312,6,0,B|247:179|247:179|238:184|238:184|247:193|247:193|247:256,1,107.999996704102,10|0,0:0|0:0,0:0:0:0:
299,310,68912,1,10,0:0:0:0:
299,310,69112,2,0,L|150:310,1,143.999995605469,12|2,0:0|0:0,0:0:0:0:
66,215,69912,2,0,P|68:169|53:123,2,71.9999978027344,8|2|2,0:0|0:0|0:0,0:0:0:0:
155,310,70712,2,0,P|153:264|168:218,2,71.9999978027344,10|2|2,0:0|0:0|0:0,0:0:0:0:
281,337,71512,6,0,L|281:181,1,143.999995605469,10|2,0:0|0:0,0:0:0:0:
279,63,72312,2,0,B|202:78|202:78|132:63,1,143.999995605469,2|2,1:0|1:0,0:0:0:0:
186,184,73112,2,0,L|115:168,2,71.9999978027344,10|2|2,0:0|0:0|0:0,0:0:0:0:
175,313,73912,2,0,L|104:328,2,71.9999978027344,10|2|2,0:0|0:0|0:0,0:0:0:0:
289,252,74712,2,0,L|435:252,2,143.999995605469,10|10|6,0:0|0:0|0:0,0:0:0:0:
287,381,75912,6,0,L|363:381,1,71.9999978027344,10|10,0:0|0:0,0:0:0:0:
423,376,76312,1,2,0:0:0:0:
433,252,76712,2,0,L|337:252,1,71.9999978027344,10|2,0:0|0:0,0:0:0:0:
296,252,77112,1,12,0:0:0:0:
191,89,78712,6,0,P|256:104|321:91,1,132.00000402832,2|0,0:2|0:0,0:0:0:0:
374,68,79312,1,0,0:0:0:0:
368,127,79512,2,0,P|370:181|384:212,2,66.0000020141602,8|0|0,0:0|0:0|0:0,0:0:0:0:
479,86,80312,6,0,P|499:153|486:215,1,132.00000402832,2|0,0:0|0:0,0:0:0:0:
427,212,80912,1,0,0:0:0:0:
373,191,81112,2,0,P|308:190|288:200,2,66.0000020141602,8|0|0,0:0|0:0|0:0,0:0:0:0:
343,305,81912,6,0,L|343:371,2,66.0000020141602,2|0|0,0:0|0:0|0:0,0:0:0:0:
295,268,82512,1,0,0:0:0:0:
295,268,82712,2,0,L|198:268,1,66.0000020141602,8|0,0:0|0:0,0:0:0:0:
169,266,83112,1,0,0:0:0:0:
154,148,83512,6,0,L|289:148,1,132.00000402832,2|0,0:0|0:0,0:0:0:0:
342,127,84112,1,0,0:0:0:0:
398,107,84312,2,0,L|398:258,1,132.00000402832,8|0,0:0|0:0,0:0:0:0:
321,331,85112,6,0,P|235:316|199:265,1,132.00000402832,6|0,0:0|0:0,0:0:0:0:
206,225,85712,1,0,0:0:0:0:
206,165,85912,2,0,L|206:93,2,66.0000020141602,8|0|0,0:0|0:0|0:0,0:0:0:0:
207,285,86712,6,0,P|257:277|286:249,2,66.0000020141602,2|0|0,0:0|0:0|0:0,0:0:0:0:
148,277,87312,1,0,0:0:0:0:
88,273,87512,2,0,P|38:281|9:309,2,66.0000020141602,2|0|0,0:0|0:0|0:0,0:0:0:0:
187,202,88312,6,0,P|257:181|294:128,1,132.00000402832,2|0,0:0|0:0,0:0:0:0:
291,76,88912,1,0,0:0:0:0:
250,32,89112,2,0,L|184:32,2,66.0000020141602,8|0|0,0:0|0:0|0:0,0:0:0:0:
291,135,89912,6,0,P|333:227|319:274,1,132.00000402832,2|0,0:0|0:0,0:0:0:0:
339,311,90512,1,0,0:0:0:0:
386,276,90712,2,0,P|444:193|492:182,1,132.00000402832,8|0,0:0|0:0,0:0:0:0:
495,131,91312,1,0,0:0:0:0:
460,82,91512,6,0,B|388:98|338:52|338:52|246:19|179:62|142:151|222:213|315:212|289:129,1,480,14|0,0:0|0:0,0:0:0:0:
256,192,97912,5,12,0:0:0:0:
256,192,98112,12,0,102712,0:0:0:0:
63,143,104312,6,0,P|126:113|93:186,1,180,6|0,0:0|0:0,0:0:0:0:
110,186,105912,2,0,P|180:168|241:188,1,120,8|0,0:0|0:0,0:0:0:0:
287,267,106712,2,0,P|217:285|156:265,1,120,8|0,0:0|0:0,0:0:0:0:
110,186,107512,2,0,B|110:118|110:118|91:50,2,120,8|0|8,0:0|0:0|0:0,0:0:0:0:
171,274,108712,1,0,0:0:0:0:
243,193,109112,2,0,B|243:125|243:125|262:57,2,120,8|0|10,0:0|0:0|0:0,0:0:0:0:
331,254,110312,1,0,0:0:0:0:
400,336,110712,6,0,P|329:362|272:350,2,120,12|8|8,0:0|0:0|0:0,0:0:0:0:
471,255,111912,2,0,L|471:173,1,60,8|0,0:0|0:0,0:0:0:0:
441,149,112312,2,0,L|441:16,1,120,8|8,0:0|0:0,0:0:0:0:
333,29,113112,6,0,L|333:114,1,60,8|0,0:0|0:0,0:0:0:0:
333,142,113512,2,0,L|333:215,1,60,8|0,0:0|0:0,0:0:0:0:
297,242,113912,2,0,L|170:242,2,120,12|8|8,0:0|0:0|0:0,0:0:0:0:
333,142,115112,6,0,L|251:142,1,60,8|0,0:0|0:0,0:0:0:0:
219,142,115512,1,8,0:0:0:0:
246,356,116312,2,0,L|246:273,2,60,8|0|8,0:0|0:0|0:0,0:0:0:0:
354,356,117112,5,0,0:0:0:0:
461,355,117512,1,0,0:0:0:0:
460,247,117912,1,0,0:0:0:0:
352,248,118312,1,0,0:0:0:0:
354,356,118712,6,0,L|169:356,1,180,12|8,0:0|0:0,0:0:0:0:
124,335,119512,2,0,L|124:251,1,60,8|8,0:0|0:0,0:0:0:0:
125,221,119912,2,0,L|211:221,1,60,8|8,0:0|0:0,0:0:0:0:
238,219,120312,5,8,0:0:0:0:
240,111,120712,1,8,0:0:0:0:
132,107,121112,1,8,0:0:0:0:
36,56,121512,1,8,0:0:0:0:
36,164,121912,1,12,0:0:0:0:
175,205,123512,6,0,P|235:174|317:219,1,143.999995605469,6|6,0:0|0:0,0:0:0:0:
338,253,124112,1,8,0:0:0:0:
377,304,124312,2,0,P|420:317|465:292,2,71.9999978027344,6|2|6,0:0|0:0|0:0,0:0:0:0:
248,324,125112,6,0,L|248:229,1,71.9999978027344,6|8,0:0|0:0,0:0:0:0:
243,187,125512,2,0,L|143:187,1,71.9999978027344,6|8,0:0|0:0,0:0:0:0:
106,187,125912,1,6,0:0:0:0:
104,57,126312,1,6,0:0:0:0:
233,62,126712,6,0,P|269:54|317:67,1,71.9999978027344,6|8,0:0|0:0,0:0:0:0:
308,125,127112,2,0,P|272:133|224:120,1,71.9999978027344,6|8,0:0|0:0,0:0:0:0:
178,99,127512,2,0,L|73:99,1,71.9999978027344,6|2,0:0|0:0,0:0:0:0:
41,102,127912,1,6,0:0:0:0:
45,231,128312,6,0,L|45:314,1,71.9999978027344,6|8,0:0|0:0,0:0:0:0:
84,354,128712,2,0,L|156:354,1,71.9999978027344,6|8,0:0|0:0,0:0:0:0:
220,352,129112,1,6,0:0:0:0:
349,349,129512,6,0,L|349:277,1,71.9999978027344,6|2,0:0|0:0,0:0:0:0:
349,212,129912,2,0,B|292:211|292:211|258:224|258:224|207:224,1,143.999995605469,6|6,0:0|0:0,0:0:0:0:
166,274,130512,1,2,0:0:0:0:
103,257,130713,2,0,P|93:222|99:186,2,71.9999978027344,4|2|6,0:0|0:0|0:0,0:0:0:0:
224,303,131512,6,0,L|300:303,1,71.9999978027344,6|8,0:0|0:0,0:0:0:0:
360,299,131912,2,0,L|360:220,1,71.9999978027344,6|8,0:0|0:0,0:0:0:0:
359,162,132312,2,0,L|454:162,2,71.9999978027344,6|2|6,0:0|0:0|0:0,0:0:0:0:
294,166,132912,1,2,0:0:0:0:
294,166,133112,6,0,P|230:204|210:278,1,143.999995605469,6|6,0:0|0:0,0:0:0:0:
220,331,133712,1,10,0:0:0:0:
284,324,133912,2,0,P|308:287|306:235,2,71.9999978027344,6|2|6,0:0|0:0|0:0,0:0:0:0:
154,327,134712,6,0,P|90:289|70:215,1,143.999995605469,6|6,0:0|0:0,0:0:0:0:
69,160,135312,1,10,0:0:0:0:
108,108,135512,2,0,P|141:137|151:177,1,71.9999978027344,6|2,0:0|0:0,0:0:0:0:
169,224,135912,1,2,0:0:0:0:
280,290,136312,6,0,P|298:228|275:148,1,143.999995605469,6|12,0:0|0:0,0:0:0:0:
225,114,136912,1,0,3:0:0:0:
225,114,137112,2,0,L|312:114,1,71.9999978027344,0|0,3:0|0:0,0:0:0:0:
361,112,137512,1,12,0:0:0:0:
469,182,137912,6,0,P|490:108|470:34,1,143.999995605469,0|12,0:0|0:0,0:0:0:0:
411,35,138512,2,0,P|367:50|263:29,1,143.999995605469,0|0,3:0|3:0,0:0:0:0:
212,9,139112,1,12,0:0:0:0:
83,28,139512,6,0,P|66:87|93:176,1,143.999995605469,0|12,0:0|0:0,0:0:0:0:
113,224,140112,2,0,P|122:267|119:308,2,71.9999978027344,0|0|0,3:0|3:0|3:0,0:0:0:0:
155,174,140712,1,12,0:0:0:0:
261,248,141112,6,0,P|327:224|414:254,2,143.999995605469,0|12|0,0:0|0:0|3:0,0:0:0:0:
332,356,142312,1,12,0:0:0:0:
208,317,142712,6,0,P|176:264|207:183,1,143.999995605469,0|12,0:0|0:0,0:0:0:0:
252,152,143312,1,0,3:0:0:0:
252,152,143512,2,0,L|252:71,1,71.9999978027344,0|0,3:0|0:0,0:0:0:0:
252,15,143912,1,12,0:0:0:0:
343,106,144312,6,0,P|351:173|304:245,1,143.999995605469,0|12,0:0|0:0,0:0:0:0:
258,270,144912,2,0,P|326:248|418:291,1,143.999995605469,0|0,3:0|3:0,0:0:0:0:
447,304,145512,1,12,0:0:0:0:
327,354,145912,6,0,P|259:376|167:333,1,143.999995605469,0|12,0:0|0:0,0:0:0:0:
140,316,146512,2,0,P|87:312|37:328,2,71.9999978027344,0|0|0,3:0|0:0|3:0,0:0:0:0:
198,286,147112,1,12,0:0:0:0:
115,190,147512,1,0,0:0:0:0:
115,190,149112,6,0,B|247:102|354:158|354:158|356:217|228:226,1,396.000012084961,10|0,0:0|0:0,0:0:0:0:
114,189,150712,2,0,B|125:102|70:37|70:37|6:110|23:205,1,330.000010070801,10|0,0:0|0:0,0:0:0:0:
20,191,151912,1,10,0:0:0:0:
38,308,152312,2,0,B|135:208|288:382|422:243,1,396.000012084961,10|0,0:0|0:0,0:0:0:0:
311,191,153912,2,0,P|199:154|316:65,1,330.000010070801,10|0,0:0|0:0,0:0:0:0:
314,63,155112,5,10,0:0:0:0:
310,190,155512,2,0,P|186:197|65:309,1,264.000008056641,10|0,0:0|0:0,0:0:0:0:
80,281,156512,2,0,P|82:230|64:192,2,66.0000020141602,10|0|0,0:0|0:0|0:0,0:0:0:0:
54,334,157112,2,0,P|119:318|203:347,1,132.00000402832,10|0,0:0|0:0,0:0:0:0:
181,333,157712,1,10,0:0:0:0:
260,244,158112,5,2,0:0:0:0:
260,244,158312,2,0,P|307:259|347:246,1,66.0000020141602,10|0,0:0|0:0,0:0:0:0:
380,242,158712,2,0,P|373:313|485:247,1,264.000008056641,10|0,0:0|0:0,0:0:0:0:
493,267,159712,5,10,0:0:0:0:
344,168,160312,2,0,P|255:185|204:152,1,132.00000402832,10|0,0:0|0:0,0:0:0:0:
221,168,160912,1,10,0:0:0:0:
112,120,161312,1,2,0:0:0:0:
112,120,161512,2,0,L|112:215,1,66.0000020141602,6|8,0:0|0:0,0:0:0:0:
112,245,161912,6,0,P|168:230|242:247,1,132.00000402832,4|0,0:0|0:0,0:0:0:0:
285,283,162512,1,0,0:0:0:0:
335,314,162712,2,0,P|371:323|407:317,2,66.0000020141602
229,369,163512,6,0,P|209:310|243:230,1,132.00000402832,8|0,0:0|0:0,0:0:0:0:
269,201,164112,1,0,0:0:0:0:
292,146,164312,2,0,P|300:105|287:62,2,66.0000020141602
173,139,165112,2,0,P|168:106|176:74,2,66.0000020141602,8|0|0,0:0|0:0|0:0,0:0:0:0:
185,197,165712,2,0,P|189:264|142:335,1,132.00000402832
100,311,166312,1,0,0:0:0:0:
53,197,166712,6,0,L|188:197,1,132.00000402832,8|0,0:0|0:0,0:0:0:0:
244,194,167312,1,0,0:0:0:0:
303,193,167512,2,0,L|303:41,1,132.00000402832
386,146,168312,6,0,P|391:227|363:267,1,132.00000402832,8|0,0:0|0:0,0:0:0:0:
304,275,168913,1,0,0:0:0:0:
244,276,169113,2,0,L|244:349,2,66.0000020141602
177,177,169912,6,0,P|141:182|102:210,2,66.0000020141602,8|0|0,0:0|0:0|0:0,0:0:0:0:
236,177,170512,1,0,0:0:0:0:
295,179,170712,2,0,P|330:175|370:146,2,66.0000020141602
206,100,171512,6,0,P|136:99|61:136,1,132.00000402832,8|0,0:0|0:0,0:0:0:0:
35,162,172112,1,0,0:0:0:0:
33,221,172312,2,0,L|33:317,2,66.0000020141602
151,206,173112,6,0,P|193:298|179:345,1,132.00000402832,8|0,0:0|0:0,0:0:0:0:
233,363,173712,1,0,0:0:0:0:
285,335,173912,2,0,P|343:252|391:241,1,132.00000402832
426,232,174512,1,0,0:0:0:0:
426,232,174712,6,0,P|442:187|432:93,1,132.00000402832,10|0,0:0|0:0,0:0:0:0:
393,62,175312,1,2,0:0:0:0:
341,32,175512,2,0,P|297:26|258:37,2,66.0000020141602,2|2|2,0:0|0:0|0:0,0:0:0:0:
306,145,176312,6,0,P|225:147|175:101,1,132.00000402832,10|0,0:0|0:0,0:0:0:0:
159,65,176912,1,2,0:0:0:0:
101,80,177112,2,0,P|90:112|97:153,2,66.0000020141602,2|2|2,0:0|0:0|0:0,0:0:0:0:
3,11,177912,6,0,L|3:159,1,132.00000402832,10|0,0:0|0:0,0:0:0:0:
25,198,178512,1,2,0:0:0:0:
50,251,178712,2,0,L|50:324,2,66.0000020141602,2|2|2,0:0|0:0|0:0,0:0:0:0:
111,148,179512,6,0,P|174:154|227:223,1,132.00000402832,10|0,0:0|0:0,0:0:0:0:
265,239,180112,1,0,0:0:0:0:
324,234,180312,2,0,P|365:228|405:239,1,66.0000020141602,8|8,0:0|0:0,0:0:0:0:
437,266,180712,2,0,P|405:275|351:263,1,66.0000020141602,10|10,0:0|0:0,0:0:0:0:
339,321,181112,6,0,L|198:321,1,132.00000402832,14|2,0:0|0:0,0:0:0:0:
100,268,181912,2,0,L|100:136,1,132.00000402832,14|2,0:0|0:0,0:0:0:0:
189,57,182712,2,0,L|330:57,1,132.00000402832,14|2,0:0|0:0,0:0:0:0:
428,108,183512,2,0,L|428:240,1,132.00000402832,14|2,0:0|0:0,0:0:0:0:
430,359,184312,5,14,0:0:0:0:
311,360,184712,1,14,0:0:0:0:
192,360,185112,1,14,0:0:0:0:
73,361,185512,1,14,0:0:0:0:
134,259,185912,2,0,P|184:222|200:142,2,132.00000402832
62,153,187112,1,0,0:0:0:0:
62,153,187512,6,0,P|132:169|210:153,1,143.999995605469,10|8,0:0|0:0,0:0:0:0:
328,125,188312,2,0,P|318:88|298:58,2,71.9999978027344,10|2|2,0:0|0:0|0:0,0:0:0:0:
457,125,189112,2,0,P|466:88|487:58,2,71.9999978027344,10|2|2,0:0|0:0|0:0,0:0:0:0:
374,224,189912,6,0,P|337:231|279:220,1,71.9999978027344,14|2,0:0|0:0,0:0:0:0:
271,291,190312,2,0,P|291:261|303:227,1,71.9999978027344,10|2,0:0|0:0,0:0:0:0:
269,171,190712,1,10,0:0:0:0:
139,171,191112,1,6,0:0:0:0:
103,295,191512,6,0,P|145:301|202:287,2,71.9999978027344,10|2|2,0:0|0:0|0:0,0:0:0:0:
139,171,192312,2,0,P|97:165|40:179,2,71.9999978027344,10|2|10,0:0|0:0|0:0,0:0:0:0:
259,218,193112,2,0,P|262:132|219:71,1,143.999995605469,12|0,0:0|0:0,0:0:0:0:
360,58,193912,2,0,P|357:144|400:205,1,143.999995605469,12|0,0:0|0:0,0:0:0:0:
465,293,194712,6,0,L|519:357,2,71.9999978027344,10|2|2,0:0|0:0|0:0,0:0:0:0:
335,293,195512,2,0,L|281:357,2,71.9999978027344,10|2|2,0:0|0:0|0:0,0:0:0:0:
388,175,196312,2,0,B|388:129|388:129|399:123|399:123|388:115|388:115|388:63,1,107.999996704102,14|6,0:0|0:0,0:0:0:0:
290,83,196912,1,2,0:0:0:0:
290,83,197112,2,0,L|145:83,1,143.999995605469,10|2,0:0|0:0,0:0:0:0:
66,185,197912,6,0,L|165:185,1,71.9999978027344,10|2,0:0|0:0,0:0:0:0:
202,185,198312,1,2,0:0:0:0:
320,236,198712,2,0,P|332:191|322:149,2,71.9999978027344,10|2|2,0:0|0:0|0:0,0:0:0:0:
438,288,199512,2,0,P|424:232|456:134,1,143.999995605469,10|2,0:0|0:0,0:0:0:0:
492,105,200112,1,2,0:0:0:0:
492,105,200312,2,0,P|421:123|339:90,1,143.999995605469,14|0,0:0|0:0,0:0:0:0:
238,46,201112,6,0,P|187:39|135:54,2,71.9999978027344,10|2|2,0:0|0:0|0:0,0:0:0:0:
367,52,201912,2,0,P|417:45|470:60,2,71.9999978027344,10|2|2,0:0|0:0|0:0,0:0:0:0:
300,163,202712,2,0,B|300:212|300:212|308:220|308:220|300:231|300:231|300:282,1,107.999996704102,14|2,0:0|0:0,0:0:0:0:
302,362,203312,1,2,0:0:0:0:
302,362,203512,2,0,L|145:362,1,143.999995605469,14|10,0:0|0:0,0:0:0:0:
71,265,204312,6,0,P|35:268|0:265,2,71.9999978027344,10|10|2,0:0|0:0|0:0,0:0:0:0:
77,135,205112,2,0,P|41:131|5:134,2,71.9999978027344,10|2|2,0:0|0:0|0:0,0:0:0:0:
184,207,205912,2,0,L|334:207,1,143.999995605469,14|2,0:0|0:0,0:0:0:0:
328,207,206512,1,2,0:0:0:0:
356,265,206712,2,0,P|415:240|443:152,1,143.999995605469,2|2,1:0|1:0,0:0:0:0:
445,40,207512,6,0,P|411:34|359:45,2,71.9999978027344,10|2|2,0:0|0:0|0:0,0:0:0:0:
444,169,208312,2,0,P|408:174|373:168,2,71.9999978027344,10|2|2,0:0|0:0|0:0,0:0:0:0:
444,298,209112,2,0,L|341:298,1,71.9999978027344,10|2,0:0|0:0,0:0:0:0:
322,340,209512,2,0,L|250:340,1,71.9999978027344,2|2,0:0|0:0,0:0:0:0:
185,338,209912,1,14,0:0:0:0:
82,258,210312,6,0,L|82:186,1,71.9999978027344,2|2,0:0|0:0,0:0:0:0:
83,121,210712,1,10,0:0:0:0:
212,123,211112,2,0,L|212:202,1,71.9999978027344,2|2,0:0|0:0,0:0:0:0:
214,254,211512,1,12,0:0:0:0:
321,295,213112,6,0,P|256:280|191:293,1,132.00000402832,2|0,0:0|0:0,0:0:0:0:
137,313,213712,1,0,0:0:0:0:
142,253,213912,2,0,P|140:199|126:168,2,66.0000020141602,8|0|0,0:0|0:0|0:0,0:0:0:0:
27,284,214712,6,0,P|15:196|51:135,1,132.00000402832,2|0,0:0|0:0,0:0:0:0:
91,156,215312,1,0,0:0:0:0:
136,188,215512,2,0,P|201:189|221:179,2,66.0000020141602,8|0|0,0:0|0:0|0:0,0:0:0:0:
166,72,216312,6,0,L|166:6,2,66.0000020141602,2|0|2,0:0|0:0|0:0,0:0:0:0:
216,103,216912,1,0,0:0:0:0:
216,103,217112,2,0,L|313:103,1,66.0000020141602,8|0,0:0|0:0,0:0:0:0:
341,107,217512,1,0,0:0:0:0:
341,225,217912,6,0,L|206:225,1,132.00000402832,2|0,0:0|0:0,0:0:0:0:
159,258,218512,1,0,0:0:0:0:
103,280,218712,2,0,L|103:129,1,132.00000402832,8|0,0:0|0:0,0:0:0:0:
113,29,219512,6,0,P|184:54|218:124,1,132.00000402832,6|0,0:0|0:0,0:0:0:0:
219,158,220112,1,0,0:0:0:0:
264,195,220312,2,0,L|352:195,2,66.0000020141602,8|0|0,0:0|0:0|0:0,0:0:0:0:
190,288,221112,6,0,P|157:284|128:268,2,66.0000020141602,2|0|0,0:0|0:0|0:0,0:0:0:0:
249,288,221712,1,0,0:0:0:0:
308,288,221912,2,0,P|343:292|383:321,2,66.0000020141602,8|0|0,0:0|0:0|0:0,0:0:0:0:
190,288,222712,6,0,P|181:207|220:155,1,132.00000402832,2|0,0:0|0:0,0:0:0:0:
250,123,223312,1,0,0:0:0:0:
309,129,223512,2,0,L|387:129,2,66.0000020141602,8|0|0,0:0|0:0|0:0,0:0:0:0:
287,241,224312,6,0,P|245:149|259:102,1,132.00000402832,2|0,0:0|0:0,0:0:0:0:
204,84,224912,1,0,0:0:0:0:
155,118,225112,2,0,P|97:201|49:212,1,132.00000402832,8|0,0:0|0:0,0:0:0:0:
42,94,225912,5,14,0:0:0:0:
