osu file format v14

[General]
AudioFilename: audio.mp3
AudioLeadIn: 0
PreviewTime: 104158
Countdown: 0
SampleSet: Soft
StackLeniency: 0.7
Mode: 0
LetterboxInBreaks: 0
WidescreenStoryboard: 1

[Editor]
DistanceSpacing: 1.6
BeatDivisor: 4
GridSize: 16
TimelineZoom: 1

[Metadata]
Title:Frozen Heart
TitleUnicode:Frozen Heart
Artist:ColBreakz & Ramstar
ArtistUnicode:ColBreakz & Ramstar
Creator:pacsu
Version:Hard
Source:
Tags:dubstep electronic english ktc kill the copiright TheKoala
BeatmapID:1695412
BeatmapSetID:783314

[Difficulty]
HPDrainRate:5
CircleSize:4
OverallDifficulty:5
ApproachRate:8
SliderMultiplier:1.6
SliderTickRate:1

[Events]
//Background and Video events
0,0,"ice_heart_by_b_niro.jpg",0,0
//Break Periods
2,92112,97162
//Storyboard Layer 0 (Background)
//Storyboard Layer 1 (Fail)
//Storyboard Layer 2 (Pass)
//Storyboard Layer 3 (Foreground)
//Storyboard Sound Samples

[TimingPoints]
1912,400,4,2,0,50,1,0
1912,-200,4,2,0,50,0,0
9912,-133.333333333333,4,2,0,50,0,0
14712,-100,4,2,0,50,0,0
30312,-133.333333333333,4,2,0,50,0,0
33912,-100,4,2,0,50,0,0
46712,-83.3333333333333,4,2,0,50,0,0
53112,-71.4285714285714,4,2,0,50,0,1
53512,-100,4,2,0,50,0,1
53912,-83.3333333333333,4,2,0,50,0,1
77912,-100,4,2,0,50,0,0
104312,-200,4,2,0,50,0,0
108512,-133.333333333333,4,2,0,50,0,0
110712,-100,4,2,0,50,0,0
123512,-71.4285714285714,4,2,0,50,0,1
135912,-133.333333333333,4,2,0,50,0,1
136312,-71.4285714285714,4,2,0,50,0,1
149112,-83.3333333333333,4,2,0,50,0,0
161912,-100,4,2,0,50,0,0
174712,-83.3333333333333,4,2,0,50,0,0
176312,-76.9230769230769,4,2,0,50,0,0
177912,-71.4285714285714,4,2,0,50,0,0
179512,-66.6666666666667,4,2,0,50,0,0
187512,-100,4,2,0,50,0,1
187912,-71.4285714285714,4,2,0,50,0,1
188312,-83.3333333333333,4,2,0,50,0,1
211512,-100,4,2,0,50,0,0

[Colours]
Combo1 : 128,0,255
Combo2 : 0,0,255
Combo3 : 0,128,128

[HitObjects]
10,360,1912,6,0,B|148:357|117:292|246:298,1,240,6|2,0:0|0:0,0:0:0:0:
237,297,3512,2,0,P|279:261|329:298,1,120,2|2,0:0|0:0,0:0:0:0:
326,291,4312,2,0,L|373:272,1,40,2|0,0:0|0:0,0:0:0:0:
440,280,4712,2,0,L|486:260,1,40,2|0,0:0|0:0,0:0:0:0:
389,208,5112,6,0,P|367:202|338:209,1,40,2|0,0:0|0:0,0:0:0:0:
279,199,5512,2,0,P|257:205|228:198,1,40,2|0,0:0|0:0,0:0:0:0:
177,254,5912,2,0,P|163:233|166:170,1,80,2|0,0:0|0:0,0:0:0:0:
75,142,6712,5,2,0:0:0:0:
161,179,6912,2,0,P|216:175|242:155,1,80,2|2,0:0|0:0,0:0:0:0:
296,112,7512,2,0,P|321:107|346:114,1,40,2|0,0:0|0:0,0:0:0:0:
411,83,7912,2,0,P|436:88|461:81,1,40,2|2,0:0|0:0,0:0:0:0:
509,140,8312,2,0,B|478:165|440:167|440:167|476:206|493:243|493:243|473:282|423:291,1,240
439,287,9912,2,0,P|378:244|281:297,1,180.000006866455,2|2,0:0|0:0,0:0:0:0:
238,343,10712,2,0,P|217:318|211:286,1,60.0000022888184,2|2,0:0|0:0,0:0:0:0:
243,221,11112,2,0,P|264:196|270:164,1,60.0000022888184,2|2,0:0|0:0,0:0:0:0:
135,177,11512,6,0,L|215:161,1,60.0000022888184,2|0,0:0|0:0,0:0:0:0:
270,169,11912,2,0,L|350:153,1,60.0000022888184,2|0,0:0|0:0,0:0:0:0:
406,140,12312,1,2,0:0:0:0:
406,140,12712,2,0,P|343:149|288:119,1,120.000004577637,2|2,0:0|0:0,0:0:0:0:
258,57,13512,5,2,0:0:0:0:
148,67,13912,1,2,0:0:0:0:
101,196,14312,1,10,0:0:0:0:
101,196,14512,1,8,0:0:0:0:
228,209,14712,6,0,P|271:212|325:200,1,80,10|0,0:0|0:0,0:0:0:0:
449,268,15112,2,0,P|406:265|352:277,1,80,8|0,0:0|0:0,0:0:0:0:
286,304,15512,1,8,0:0:0:0:
190,354,15912,6,0,P|197:305|186:263,1,80,10|0,0:0|0:0,0:0:0:0:
135,207,16312,1,10,0:0:0:0:
108,380,16712,1,8,0:0:0:0:
190,354,16912,1,2,0:0:0:0:
108,380,17112,2,0,P|63:373|30:345,1,80,10|2,0:0|0:0,0:0:0:0:
178,279,17512,2,0,P|223:286|256:314,1,80,10|2,0:0|0:0,0:0:0:0:
402,339,17912,6,0,P|382:271|411:184,2,160,10|8|8,0:0|0:0|0:0,0:0:0:0:
470,148,19112,2,0,P|435:118|375:124,1,80,10|2,0:0|0:0,0:0:0:0:
289,194,19512,2,0,P|208:201|131:152,1,160,10|8,0:0|0:0,0:0:0:0:
64,185,20112,5,2,0:0:0:0:
141,163,20312,2,0,P|176:155|248:166,1,80,10|2,0:0|0:0,0:0:0:0:
289,194,20712,2,0,P|324:201|396:191,1,80,10|2,0:0|0:0,0:0:0:0:
282,277,21112,6,0,P|213:219|220:156,1,160,10|8,0:0|0:0,0:0:0:0:
219,156,21912,1,8,0:0:0:0:
42,140,22312,2,0,P|80:103|126:100,1,80,10|2,0:0|0:0,0:0:0:0:
185,90,22712,1,10,0:0:0:0:
477,162,23312,5,2,0:0:0:0:
390,176,23512,2,0,P|346:142|336:89,1,80,10|2,0:0|0:0,0:0:0:0:
445,24,23912,2,0,P|489:58|499:111,1,80,10|2,0:0|0:0,0:0:0:0:
390,176,24312,6,0,P|321:152|237:170,1,160,10|8,0:0|0:0,0:0:0:0:
173,229,24912,1,0,0:0:0:0:
262,242,25112,2,0,P|256:197|222:157,1,80,2|2,0:0|0:0,0:0:0:0:
149,156,25512,2,0,P|127:122|124:82,1,80,2|2,0:0|0:0,0:0:0:0:
212,95,25912,2,0,P|233:128|236:168,1,80,2|2,0:0|0:0,0:0:0:0:
338,189,26312,2,0,P|356:153|388:130,1,80,2|2,0:0|0:0,0:0:0:0:
375,17,26712,2,0,P|335:18|299:2,1,80,2|2,0:0|0:0,0:0:0:0:
304,91,27112,1,0,0:0:0:0:
68,189,27512,6,0,P|144:164|228:194,1,160
278,239,28112,1,0,0:0:0:0:
342,285,28312,2,0,P|414:286|487:201,1,160
481,150,28912,5,0,0:0:0:0:
477,230,29112,2,0,P|390:223|322:142,1,160
291,108,29712,1,0,0:0:0:0:
256,179,29912,2,0,P|168:200|96:161,1,160
186,72,30712,6,0,L|263:72,1,60.0000022888184
318,69,31112,2,0,L|353:169,2,90.0000034332277
292,0,31912,1,0,0:0:0:0:
424,49,32312,6,0,L|447:116,1,60.0000022888184
438,177,32712,2,0,L|403:277,2,90.0000034332277
504,149,33512,1,0,0:0:0:0:
468,340,33912,6,0,P|423:333|375:344,1,80
312,363,34312,2,0,P|267:370|219:359,1,80,8|0,0:0|0:0,0:0:0:0:
196,347,34612,1,0,0:0:0:0:
158,331,34712,2,0,P|113:324|65:335,1,80,0|0,0:0|0:0,0:0:0:0:
177,247,35112,2,0,P|222:254|270:243,1,80,8|0,0:0|0:0,0:0:0:0:
315,184,35512,5,0,0:0:0:0:
220,167,35712,1,0,0:0:0:0:
126,188,35912,2,0,B|104:224|104:224|104:263,2,80,8|0|0,0:0|0:0|0:0,0:0:0:0:
198,211,36712,6,0,P|148:205|115:173,1,80,8|0,0:0|0:0,0:0:0:0:
46,281,37112,2,0,P|96:287|129:319,1,80,0|0,0:0|0:0,0:0:0:0:
309,247,37512,2,0,P|259:234|206:246,1,80,8|0,0:0|0:0,0:0:0:0:
196,256,37812,1,0,0:0:0:0:
170,225,37912,2,0,P|137:204|91:197,1,80,0|0,0:0|0:0,0:0:0:0:
91,116,38312,2,0,P|130:108|163:87,1,80,8|0,0:0|0:0,0:0:0:0:
211,23,38712,1,0,0:0:0:0:
248,131,38912,5,0,0:0:0:0:
313,56,39112,1,8,0:0:0:0:
211,23,39312,1,8,0:0:0:0:
349,144,39512,5,8,0:0:0:0:
349,144,39612,1,8,0:0:0:0:
349,144,39712,2,0,P|391:133|437:143,1,80,8|8,0:0|0:0,0:0:0:0:
504,158,40112,1,8,0:0:0:0:
415,255,40312,6,0,P|411:283|421:318,3,40,2|0|0|0,0:0|0:0|0:0|0:0,0:0:0:0:
346,183,40712,2,0,P|350:155|340:120,3,40,2|0|0|0,0:0|0:0|0:0|0:0,0:0:0:0:
321,264,41112,5,2,0:0:0:0:
297,279,41212,1,0,0:0:0:0:
269,286,41312,1,2,0:0:0:0:
241,281,41412,1,0,0:0:0:0:
217,266,41512,2,0,P|202:236|203:204,3,40,2|0|2|0,0:0|0:0|0:0|0:0,0:0:0:0:
200,201,41912,5,0,0:0:0:0:
207,174,42012,1,0,0:0:0:0:
229,157,42112,1,2,0:0:0:0:
256,152,42212,1,0,0:0:0:0:
283,150,42312,2,0,P|309:143|348:123,3,40,2|0|2|0,0:0|0:0|0:0|0:0,0:0:0:0:
344,121,42712,5,2,0:0:0:0:
352,94,42812,1,0,0:0:0:0:
340,68,42912,1,0,0:0:0:0:
313,60,43012,1,0,0:0:0:0:
285,61,43112,2,0,P|256:70|230:86,3,40,2|0|2|0,0:0|0:0|0:0|0:0,0:0:0:0:
248,167,43512,6,0,P|217:165|178:148,3,40,2|0|0|0,0:0|0:0|0:0|0:0,0:0:0:0:
318,227,43912,2,0,P|348:228|388:246,3,40,2|0|2|0,0:0|0:0|0:0|0:0,0:0:0:0:
230,249,44312,5,2,0:0:0:0:
203,258,44412,1,0,0:0:0:0:
181,276,44512,1,2,0:0:0:0:
159,293,44612,1,0,0:0:0:0:
132,302,44712,2,0,P|108:300|76:287,3,40,2|0|2|0,0:0|0:0|0:0|0:0,0:0:0:0:
72,282,45112,5,0,0:0:0:0:
55,259,45212,1,0,0:0:0:0:
53,231,45312,1,2,0:0:0:0:
66,206,45412,1,0,0:0:0:0:
89,190,45512,2,0,P|119:185|149:197,3,40,2|0|2|0,0:0|0:0|0:0|0:0,0:0:0:0:
154,194,45912,6,0,B|197:202|197:202|242:195,1,80,2|0,0:0|0:0,0:0:0:0:
340,297,46312,2,0,B|297:289|297:289|252:296,1,80,10|10,0:0|0:0,0:0:0:0:
414,343,46712,6,0,P|426:314|425:280,7,47.9999985351563,14|2|2|2|2|2|2|2,0:0|0:0|0:0|0:0|0:0|0:0|0:0|0:0,0:0:0:0:
474,229,47512,2,0,P|445:217|411:218,7,47.9999985351563,14|6|2|2|2|2|2|2,0:0|0:0|0:0|0:0|0:0|0:0|0:0|0:0,0:0:0:0:
357,173,48312,2,0,P|345:202|346:236,7,47.9999985351563,14|2|2|2|2|2|2|2,0:0|0:0|0:0|0:0|0:0|0:0|0:0|0:0,0:0:0:0:
297,286,49112,2,0,P|326:298|360:297,7,47.9999985351563,14|2|2|2|2|2|2|2,0:0|0:0|0:0|0:0|0:0|0:0|0:0|0:0,0:0:0:0:
417,344,49912,6,0,P|431:307|430:265,3,47.9999985351563,14|2|2|2,0:0|0:0|0:0|0:0,0:0:0:0:
482,228,50312,2,0,P|445:213|403:214,3,47.9999985351563,14|2|2|2,0:0|0:0|0:0|0:0,0:0:0:0:
367,160,50712,2,0,P|352:196|353:238,3,47.9999985351563,14|2|2|2,0:0|0:0|0:0|0:0,0:0:0:0:
300,275,51112,2,0,P|336:289|378:288,3,47.9999985351563,14|2|2|0,0:0|0:0|0:0|0:0,0:0:0:0:
256,192,51512,12,0,52712,3:0:0:0:
52,293,53112,6,0,P|114:272|146:177,1,167.999994873047,12|0,0:0|0:0,0:0:0:0:
248,141,53512,2,0,P|182:145|144:186,1,120
223,221,53912,5,10,0:0:0:0:
299,211,54112,1,2,0:0:0:0:
332,142,54312,1,2,0:0:0:0:
451,220,54512,2,0,L|506:233,2,47.9999985351563
376,201,54912,1,2,0:0:0:0:
422,139,55112,1,2,0:0:0:0:
440,292,55312,5,0,0:0:0:0:
440,292,55412,1,0,0:0:0:0:
440,292,55512,2,0,P|381:281|329:304,1,95.9999970703126,10|2,0:0|0:0,0:0:0:0:
265,333,55912,2,0,P|206:344|154:321,1,95.9999970703126,2|2,0:0|0:0,0:0:0:0:
90,295,56312,1,10,0:0:0:0:
184,248,56512,2,0,B|230:259|230:259|281:231,2,95.9999970703126,0|4|0,0:0|0:0|2:0,0:0:0:0:
83,208,57112,5,10,0:0:0:0:
152,174,57312,1,2,0:0:0:0:
222,142,57512,1,2,0:0:0:0:
114,108,57712,2,0,L|89:62,2,47.9999985351563
152,174,58112,1,2,0:0:0:0:
222,142,58312,1,2,0:0:0:0:
344,236,58512,5,0,0:0:0:0:
344,236,58612,1,0,0:0:0:0:
344,236,58712,2,0,B|307:149|329:100|358:55|358:55|401:38|459:83,1,287.999991210938,12|0,0:0|0:0,0:0:0:0:
448,75,59512,2,0,B|402:39|342:45|301:70|301:70|226:105|167:63,1,287.999991210938,8|0,0:0|0:0,0:0:0:0:
103,17,60312,5,10,0:0:0:0:
101,93,60512,1,2,0:0:0:0:
46,147,60712,1,2,0:0:0:0:
163,244,60912,2,0,L|164:313,2,47.9999985351563
162,167,61312,1,2,0:0:0:0:
216,113,61512,1,2,0:0:0:0:
280,199,61712,5,0,0:0:0:0:
280,199,61812,1,0,0:0:0:0:
280,199,61912,2,0,L|211:191,1,47.9999985351563,10|0,0:0|0:0,0:0:0:0:
162,167,62212,2,0,P|138:74|98:56,1,143.999995605469,8|2,0:0|0:0,0:0:0:0:
10,149,62712,2,0,P|100:110|165:202,1,191.999994140625,10|2,0:0|0:0,0:0:0:0:
161,166,63312,5,2,0:0:0:0:
223,221,63512,2,0,P|168:249|124:235,1,95.9999970703126,8|2,0:0|0:0,0:0:0:0:
82,192,63912,1,2,0:0:0:0:
235,154,64112,5,0,0:0:0:0:
235,154,64212,1,0,0:0:0:0:
235,154,64312,1,10,0:0:0:0:
266,224,64512,1,2,0:0:0:0:
262,300,64712,2,0,P|326:273|344:223,1,95.9999970703126,2|0,0:0|0:0,0:0:0:0:
338,213,65012,1,0,0:0:0:0:
323,177,65112,2,0,P|309:121|383:31,1,143.999995605469,10|0,0:0|0:0,0:0:0:0:
439,63,65512,1,2,0:0:0:0:
439,63,65712,1,2,0:0:0:0:
441,149,65912,6,0,B|417:152|350:132|347:79|347:48|347:48|263:36|188:85,1,287.999991210938,12|0,0:0|0:0,0:0:0:0:
141,98,66712,5,10,0:0:0:0:
142,174,66912,1,2,0:0:0:0:
142,250,67112,1,2,0:0:0:0:
219,140,67312,2,0,L|219:81,2,47.9999985351563
220,216,67712,1,2,0:0:0:0:
218,292,67912,1,2,0:0:0:0:
307,215,68112,2,0,L|240:215,1,47.9999985351563
220,216,68312,5,10,0:0:0:0:
220,216,68612,2,0,P|254:268|230:357,1,143.999995605469,0|10,0:0|0:0,0:0:0:0:
77,233,69112,2,0,L|257:211,1,143.999995605469,12|0,0:0|0:0,0:0:0:0:
237,173,69512,5,2,0:0:0:0:
289,228,69712,1,2,0:0:0:0:
336,167,69912,2,0,P|329:126|285:85,1,95.9999970703126,8|2,0:0|0:0,0:0:0:0:
384,37,70312,2,0,P|391:78|433:120,1,95.9999970703126,2|0,0:0|0:0,0:0:0:0:
461,134,70612,1,0,0:0:0:0:
496,149,70712,6,0,P|473:203|487:260,1,95.9999970703126
410,275,71112,2,0,P|371:234|299:227,1,95.9999970703126,2|0,0:0|0:0,0:0:0:0:
298,236,71412,1,0,0:0:0:0:
259,247,71512,2,0,P|191:235|136:174,1,143.999995605469,10|0,0:0|0:0,0:0:0:0:
138,144,71912,1,2,0:0:0:0:
138,144,72112,1,2,0:0:0:0:
220,151,72312,6,0,B|274:160|274:160|347:144,1,95.9999970703126,2|0,1:0|0:0,0:0:0:0:
397,230,72712,2,0,B|343:221|343:221|270:237,1,95.9999970703126,2|0,1:0|0:0,0:0:0:0:
344,294,73112,5,10,0:0:0:0:
397,230,73312,1,2,0:0:0:0:
449,173,73512,1,2,0:0:0:0:
352,68,73712,2,0,L|392:22,2,47.9999985351563
301,126,74112,1,2,0:0:0:0:
254,186,74312,1,2,0:0:0:0:
167,299,74512,1,0,0:0:0:0:
167,299,74612,1,0,0:0:0:0:
167,299,74712,6,0,P|167:231|134:193,1,95.9999970703126,10|10,0:0|0:0,0:0:0:0:
224,144,75112,2,0,P|282:178|332:168,1,95.9999970703126,10|10,0:0|0:0,0:0:0:0:
337,268,75512,2,0,P|278:302|261:349,1,95.9999970703126,6|0,0:0|0:0,0:0:0:0:
355,359,75912,5,10,0:0:0:0:
405,301,76112,1,10,0:0:0:0:
454,242,76312,1,2,0:0:0:0:
470,347,76512,2,0,L|515:379,2,47.9999985351563
405,301,76912,1,2,0:0:0:0:
344,254,77112,1,12,0:0:0:0:
505,116,77912,6,0,P|458:135|414:124,1,80,0|2,0:0|0:0,0:0:0:0:
281,91,78312,2,0,P|316:73|355:75,1,80,8|2,0:0|0:0,0:0:0:0:
275,189,78712,6,0,P|220:168|197:55,1,160,2|0,0:2|0:0,0:0:0:0:
232,10,79312,1,0,0:0:0:0:
188,78,79512,2,0,P|144:86|83:58,1,80,8|0,0:0|0:0,0:0:0:0:
4,145,79912,2,0,P|48:137|109:165,1,80,0|0,0:0|0:0,0:0:0:0:
157,170,80312,6,0,B|197:177|197:177|244:165,2,80,2|0|0,0:0|0:0|0:0,0:0:0:0:
81,145,80912,1,0,0:0:0:0:
81,225,81112,2,0,P|77:269|42:319,1,80,8|0,0:0|0:0,0:0:0:0:
136,360,81512,2,0,P|139:315|175:266,1,80,0|0,0:0|0:0,0:0:0:0:
224,242,81912,5,2,0:0:0:0:
303,240,82112,1,0,0:0:0:0:
367,287,82312,1,0,0:0:0:0:
445,300,82512,1,0,0:0:0:0:
504,246,82712,2,0,P|519:205|498:145,1,80,8|0,0:0|0:0,0:0:0:0:
438,198,83112,2,0,L|334:188,1,80,0|0,0:0|0:0,0:0:0:0:
279,179,83512,1,2,0:0:0:0:
306,253,83712,5,0,0:0:0:0:
226,247,83912,2,0,P|195:190|196:160,1,80,0|0,0:0|0:0,0:0:0:0:
247,108,84312,2,0,P|278:165|277:195,1,80,8|0,0:0|0:0,0:0:0:0:
226,247,84712,1,0,0:0:0:0:
226,247,84912,1,0,0:0:0:0:
305,259,85112,6,0,P|368:241|413:136,1,160,6|0,0:0|0:0,0:0:0:0:
407,83,85712,1,0,0:0:0:0:
413,163,85912,2,0,P|372:159|329:106,1,80,8|0,0:0|0:0,0:0:0:0:
336,55,86312,2,0,P|377:59|420:112,1,80,0|0,0:0|0:0,0:0:0:0:
342,135,86712,5,2,0:0:0:0:
410,176,86912,1,0,0:0:0:0:
391,253,87112,1,0,0:0:0:0:
313,273,87312,1,0,0:0:0:0:
236,249,87512,2,0,P|199:218|186:187,1,80,8|0,0:0|0:0,0:0:0:0:
61,170,87912,2,0,P|98:201|111:232,1,80,0|0,0:0|0:0,0:0:0:0:
56,359,88312,6,0,P|48:299|124:225,1,160,2|0,0:0|0:0,0:0:0:0:
189,219,88912,1,0,0:0:0:0:
265,243,89112,2,0,P|319:233|359:199,1,80,8|0,0:0|0:0,0:0:0:0:
419,211,89512,2,0,P|404:169|372:144,1,80,0|0,0:0|0:0,0:0:0:0:
243,209,89912,2,0,P|311:205|387:121,1,160,2|0,0:0|0:0,0:0:0:0:
413,74,90512,5,0,0:0:0:0:
377,146,90712,2,0,P|328:146|264:124,1,80,8|0,0:0|0:0,0:0:0:0:
220,119,91112,1,0,0:0:0:0:
220,119,91312,1,0,0:0:0:0:
245,196,91512,2,0,P|215:256|199:192,1,160,14|0,0:0|0:0,0:0:0:0:
256,192,97912,5,12,0:0:0:0:
256,192,98112,12,0,103512,0:0:0:0:
130,169,104312,6,0,L|276:233,1,160,6|0,0:0|0:0,0:0:0:0:
343,264,105312,2,0,L|362:220,2,40,0|0|0,0:0|0:0|0:0,0:0:0:0:
313,329,105912,1,8,0:0:0:0:
198,330,106512,5,0,0:0:0:0:
168,264,106712,2,0,L|152:227,1,40,8|0,0:0|0:0,0:0:0:0:
85,255,107112,2,0,L|100:291,1,40,0|0,0:0|0:0,0:0:0:0:
135,354,107512,2,0,L|288:286,1,160,8|8,0:0|0:0,0:0:0:0:
378,240,108512,5,0,0:0:0:0:
326,145,108712,2,0,L|265:172,1,60.0000022888184
224,70,109112,2,0,L|278:45,1,60.0000022888184,8|0,0:0|0:0,0:0:0:0:
376,6,109512,5,0,0:0:0:0:
326,144,109712,2,0,L|340:179,2,30.0000011444092,0|0|10,0:0|0:0|0:0,0:0:0:0:
278,45,110112,1,2,0:0:0:0:
243,147,110312,2,0,L|268:206,1,60.0000022888184,0|0,0:0|0:0,0:0:0:0:
266,202,110712,6,0,P|202:178|106:208,2,160,12|8|8,0:0|0:0|0:0,0:0:0:0:
266,202,111712,1,0,0:0:0:0:
278,312,111912,2,0,P|232:323|173:295,1,80,8|0,0:0|0:0,0:0:0:0:
50,313,112312,6,0,P|125:289|200:314,1,160,8|8,0:0|0:0,0:0:0:0:
278,312,112912,1,0,0:0:0:0:
200,314,113112,2,0,P|206:276|239:243,1,80,8|0,0:0|0:0,0:0:0:0:
311,240,113512,1,8,0:0:0:0:
268,175,113712,2,0,L|268:140,2,20,0|0|0,0:0|0:0|0:0,0:0:0:0:
268,175,113912,6,0,P|332:201|422:174,2,160,12|8|8,0:0|0:0|0:0,0:0:0:0:
203,127,114912,1,0,0:0:0:0:
194,207,115112,2,0,L|100:201,1,80,8|0,0:0|0:0,0:0:0:0:
45,242,115512,2,0,P|37:177|109:123,1,160,8|8,0:0|0:0,0:0:0:0:
183,145,116112,5,0,0:0:0:0:
250,187,116312,2,0,P|299:193|352:168,1,80,8|0,0:0|0:0,0:0:0:0:
377,112,116712,1,8,0:0:0:0:
422,188,116912,2,0,L|422:220,2,20
422,188,117112,6,0,L|537:188,1,80,12|8,0:0|0:0,0:0:0:0:
457,112,117512,2,0,L|345:112,1,80,8|8,0:0|0:0,0:0:0:0:
297,32,117912,2,0,L|297:139,1,80,8|8,0:0|0:0,0:0:0:0:
216,124,118312,2,0,L|216:27,1,80,8|8,0:0|0:0,0:0:0:0:
170,189,118712,6,0,P|216:201|269:183,1,80,12|0,0:0|0:0,0:0:0:0:
240,287,119112,2,0,P|194:275|141:293,1,80,8|8,0:0|0:0,0:0:0:0:
84,268,119512,2,0,P|96:222|78:169,1,80,8|8,0:0|0:0,0:0:0:0:
176,111,119912,2,0,P|164:157|182:210,1,80,8|8,0:0|0:0,0:0:0:0:
240,287,120312,6,0,P|262:285|291:289,7,40,8|8|8|8|8|8|8|8,0:0|0:0|0:0|0:0|0:0|0:0|0:0|0:0,0:0:0:0:
167,323,121112,2,0,P|144:324|116:321,7,40,8|8|8|8|8|8|8|8,0:0|0:0|0:0|0:0|0:0|0:0|0:0|0:0,0:0:0:0:
235,365,121912,1,12,0:0:0:0:
415,157,123512,6,0,P|361:176|279:130,1,111.999996582031,6|8,0:0|0:0,0:0:0:0:
154,228,123912,2,0,P|208:209|290:255,1,111.999996582031,6|8,0:0|0:0,0:0:0:0:
415,157,124312,1,6,0:0:0:0:
415,157,124512,1,2,0:0:0:0:
309,118,124712,1,6,0:0:0:0:
309,118,124912,1,8,0:0:0:0:
336,229,125112,6,0,P|384:203|417:147,1,111.999996582031,6|8,0:0|0:0,0:0:0:0:
387,45,125512,2,0,P|338:70|306:127,1,111.999996582031,6|8,0:0|0:0,0:0:0:0:
203,117,125912,2,0,P|174:70|125:45,1,111.999996582031,6|2,0:0|0:0,0:0:0:0:
97,155,126313,2,0,P|127:202|176:229,1,111.999996582031,6|0,0:0|0:0,0:0:0:0:
287,225,126712,5,6,0:0:0:0:
73,292,127112,1,6,0:0:0:0:
296,311,127512,2,0,P|247:302|204:236,1,111.999996582031,6|2,0:0|0:0,0:0:0:0:
280,170,127912,2,0,L|152:164,1,111.999996582031,6|0,0:0|0:0,0:0:0:0:
96,251,128312,6,0,L|224:257,1,111.999996582031,6|8,0:0|0:0,0:0:0:0:
280,170,128712,2,0,L|285:58,2,111.999996582031,6|8|6,0:0|0:0|0:0,0:0:0:0:
346,259,129312,1,0,0:0:0:0:
263,334,129512,2,0,P|208:317|141:345,1,111.999996582031,6|2,0:0|0:0,0:0:0:0:
81,248,129912,6,0,P|98:193|70:126,1,111.999996582031,6|8,0:0|0:0,0:0:0:0:
195,138,130312,2,0,P|178:193|206:260,1,111.999996582031,6|2,0:0|0:0,0:0:0:0:
288,302,130712,1,4,0:0:0:0:
288,302,130912,1,2,0:0:0:0:
359,215,131112,1,6,0:0:0:0:
359,215,131312,1,0,0:0:0:0:
423,123,131512,6,0,L|300:109,1,111.999996582031,6|8,0:0|0:0,0:0:0:0:
311,248,131912,2,0,L|422:235,1,111.999996582031,6|8,0:0|0:0,0:0:0:0:
199,111,132312,2,0,L|87:123,1,111.999996582031,6|2,0:0|0:0,0:0:0:0:
87,235,132712,2,0,L|198:247,1,111.999996582031,6|2,0:0|0:0,0:0:0:0:
322,142,133112,6,0,P|300:201|320:263,1,111.999996582031,6|8,0:0|0:0,0:0:0:0:
387,327,133512,1,6,0:0:0:0:
387,327,133712,1,10,0:0:0:0:
275,328,133912,2,0,B|210:328|210:328|158:358,1,111.999996582031,6|2,0:0|0:0,0:0:0:0:
58,288,134312,2,0,B|123:288|123:288|175:258,1,111.999996582031,6|2,0:0|0:0,0:0:0:0:
248,175,134712,6,0,P|170:153|183:272,1,223.999993164063,6|6,0:0|0:0,0:0:0:0:
274,279,135312,1,10,0:0:0:0:
274,279,135512,1,6,0:0:0:0:
159,340,135712,1,2,0:0:0:0:
310,376,135912,2,0,P|344:355|390:374,1,90.0000034332277,2|0,0:0|0:0,0:0:0:0:
387,371,136312,6,0,P|417:316|403:258,1,111.999996582031,6|0,0:0|0:0,0:0:0:0:
495,128,136712,2,0,P|465:183|479:241,1,111.999996582031,12|0,0:0|3:0,0:0:0:0:
498,266,137012,1,0,3:0:0:0:
510,308,137112,2,0,P|510:342|498:369,2,55.9999982910157,0|0|0,3:0|3:0|0:0,0:0:0:0:
435,326,137512,2,0,L|314:307,1,111.999996582031,12|0,0:0|0:0,0:0:0:0:
268,237,137912,6,0,P|237:285|240:339,1,111.999996582031,0|0,0:0|0:0,0:0:0:0:
324,308,138312,1,12,0:0:0:0:
357,227,138512,2,0,P|327:154|340:63,1,167.999994873047,0|0,3:0|3:0,0:0:0:0:
359,27,138912,1,0,3:0:0:0:
222,72,139112,1,12,0:0:0:0:
281,256,139512,6,0,P|228:241|159:266,1,111.999996582031,0|0,0:0|0:0,0:0:0:0:
166,148,139912,2,0,P|218:162|288:138,1,111.999996582031,12|0,0:0|3:0,0:0:0:0:
310,123,140212,2,0,P|360:107|429:123,1,111.999996582031,0|0,3:0|3:0,0:0:0:0:
457,137,140512,1,0,3:0:0:0:
409,5,140712,1,12,0:0:0:0:
409,5,141112,5,0,0:0:0:0:
103,5,141512,2,0,P|164:43|265:23,1,167.999994873047,12|0,0:0|3:0,0:0:0:0:
292,3,141912,2,0,P|259:64|290:165,1,167.999994873047,0|0,3:0|3:0,0:0:0:0:
315,185,142312,1,12,0:0:0:0:
376,270,142712,6,0,P|325:290|239:250,1,111.999996582031,0|0,0:0|0:0,0:0:0:0:
90,341,143112,2,0,P|141:321|227:361,1,111.999996582031,12|0,0:0|3:0,0:0:0:0:
236,351,143412,1,0,3:0:0:0:
277,368,143512,2,0,P|308:375|350:361,2,55.9999982910157,0|0|0,3:0|3:0|0:0,0:0:0:0:
305,296,143912,2,0,P|297:228|266:184,1,111.999996582031,12|0,0:0|0:0,0:0:0:0:
189,169,144312,6,0,L|64:161,1,111.999996582031,0|0,0:0|0:0,0:0:0:0:
24,89,144712,1,12,0:0:0:0:
108,58,144912,2,0,L|282:70,1,167.999994873047,0|0,3:0|3:0,0:0:0:0:
320,72,145312,1,0,3:0:0:0:
189,169,145512,1,12,0:0:0:0:
189,169,145912,5,0,0:0:0:0:
398,317,146312,2,0,P|363:249|368:206,1,111.999996582031,12|0,0:0|3:0,0:0:0:0:
385,175,146612,2,0,P|424:101|416:55,1,111.999996582031,0|0,0:0|3:0,0:0:0:0:
407,32,146912,1,12,0:0:0:0:
457,239,147112,1,0,0:0:0:0:
208,158,147512,1,0,0:0:0:0:
250,163,149112,6,0,P|340:205|378:50,1,287.999991210938,10|0,0:0|0:0,0:0:0:0:
271,39,149912,2,0,L|330:125,1,95.9999970703126,0|0,0:0|0:0,0:0:0:0:
195,83,150312,2,0,L|254:169,1,95.9999970703126,0|0,0:0|0:0,0:0:0:0:
113,56,150712,6,0,P|153:8|211:1,1,95.9999970703126,10|0,0:0|0:0,0:0:0:0:
129,138,151112,2,0,P|67:127|32:80,1,95.9999970703126,0|0,0:0|0:0,0:0:0:0:
195,83,151512,2,0,P|216:141|193:195,1,95.9999970703126,0|0,0:0|0:0,0:0:0:0:
138,226,151912,2,0,L|253:271,1,95.9999970703126,10|2,0:0|0:0,0:0:0:0:
372,230,152312,6,0,L|257:185,2,95.9999970703126,10|0|0,0:0|0:0|0:0,0:0:0:0:
351,383,152912,2,0,P|313:315|400:225,1,191.999994140625,0|0,0:0|0:0,0:0:0:0:
451,216,153512,2,0,L|336:171,1,95.9999970703126,0|0,0:0|0:0,0:0:0:0:
218,239,153912,2,0,P|307:254|361:180,2,191.999994140625,10|0|0,0:0|0:0|0:0,0:0:0:0:
361,180,155112,5,10,0:0:0:0:
218,239,155512,2,0,P|128:223|122:381,1,287.999991210938,10|0,0:0|0:0,0:0:0:0:
162,304,156312,1,0,0:0:0:0:
162,304,156512,2,0,L|54:222,2,95.9999970703126,10|0|0,0:0|0:0|0:0,0:0:0:0:
218,239,157112,6,0,L|326:157,1,95.9999970703126,10|0,0:0|0:0,0:0:0:0:
343,241,157512,1,0,0:0:0:0:
294,180,157712,2,0,L|402:98,1,95.9999970703126,10|0,0:0|0:0,0:0:0:0:
451,60,158112,1,2,0:0:0:0:
451,60,158312,1,10,0:0:0:0:
434,201,158512,1,0,0:0:0:0:
370,121,158712,6,0,P|299:91|190:128,1,191.999994140625,10|0,0:0|0:0,0:0:0:0:
118,177,159312,1,0,0:0:0:0:
109,84,159512,1,0,0:0:0:0:
193,124,159712,6,0,P|152:167|103:178,2,95.9999970703126,10|0|0,0:0|0:0|0:0,0:0:0:0:
193,124,160312,2,0,P|280:89|369:120,1,191.999994140625,10|0,0:0|0:0,0:0:0:0:
369,120,160912,1,10,0:0:0:0:
283,210,161112,1,0,0:0:0:0:
283,210,161312,5,2,0:0:0:0:
407,296,161512,1,6,0:0:0:0:
504,165,161712,1,8,0:0:0:0:
478,321,161912,6,0,P|416:371|357:241,1,240,4|0,0:0|0:0,0:0:0:0:
407,296,162712,2,0,P|359:288|329:245,1,80,0|0,0:0|0:0,0:0:0:0:
214,240,163112,2,0,P|253:236|283:210,1,80,0|0,0:0|0:0,0:0:0:0:
401,222,163512,6,0,L|365:134,1,80,8|0,0:0|0:0,0:0:0:0:
252,136,163912,2,0,L|282:210,1,80,0|0,0:0|0:0,0:0:0:0:
370,147,164312,2,0,L|334:59,1,80,0|0,0:0|0:0,0:0:0:0:
221,61,164712,2,0,L|251:135,1,80,0|0,0:0|0:0,0:0:0:0:
230,220,165112,6,0,P|197:204|166:145,2,80,8|0|0,0:0|0:0|0:0,0:0:0:0:
364,260,165712,2,0,P|319:213|229:220,1,160,0|0,0:0|0:0,0:0:0:0:
164,278,166312,2,0,P|109:286|44:245,1,120,0|0,0:0|0:0,0:0:0:0:
37,215,166712,6,0,L|27:326,1,80,8|0,0:0|0:0,0:0:0:0:
124,201,167112,2,0,L|131:121,1,80,0|0,0:0|0:0,0:0:0:0:
51,114,167512,2,0,L|162:124,1,80,0|0,0:0|0:0,0:0:0:0:
203,208,167912,2,0,L|123:200,1,80,0|0,0:0|0:0,0:0:0:0:
211,126,168312,6,0,P|272:162|211:292,1,240,8|0,0:0|0:0,0:0:0:0:
139,286,169112,2,0,P|180:280|220:293,1,80,0|0,0:0|0:0,0:0:0:0:
369,341,169512,2,0,P|327:335|288:348,1,80,0|0,0:0|0:0,0:0:0:0:
193,367,169912,6,0,L|219:278,1,80,8|0,0:0|0:0,0:0:0:0:
314,269,170312,2,0,L|291:345,1,80,0|0,0:0|0:0,0:0:0:0:
138,267,170712,2,0,L|227:293,1,80,0|0,0:0|0:0,0:0:0:0:
207,196,171112,2,0,L|130:173,1,80,0|0,0:0|0:0,0:0:0:0:
214,289,171512,6,0,P|267:265|290:143,1,160,8|0,0:0|0:0,0:0:0:0:
257,97,172112,1,0,0:0:0:0:
300,174,172312,2,0,P|333:177|381:152,1,80,0|0,0:0|0:0,0:0:0:0:
495,204,172712,2,0,P|462:201|414:226,1,80,0|0,0:0|0:0,0:0:0:0:
469,361,173112,6,0,P|469:288|399:208,1,160,8|0,0:0|0:0,0:0:0:0:
334,194,173712,1,0,0:0:0:0:
256,235,173912,2,0,P|211:243|152:214,1,80,0|0,0:0|0:0,0:0:0:0:
180,145,174312,2,0,P|224:136|284:166,1,80,0|0,0:0|0:0,0:0:0:0:
334,194,174712,6,0,P|357:199|390:193,7,47.9999985351563,10|0|0|0|0|0|2|0,0:0|0:0|0:0|0:0|0:0|0:0|0:0|0:0,0:0:0:0:
257,145,175512,2,0,P|233:139|201:146,3,47.9999985351563,2|0|2|0,0:0|0:0|0:0|0:0,0:0:0:0:
138,196,175912,2,0,P|114:199|91:193,3,47.9999985351563,2|0|2|0,0:0|0:0|0:0|0:0,0:0:0:0:
55,105,176312,6,0,P|58:81|51:53,7,51.999997619629,10|0|0|0|0|0|2|0,0:0|0:0|0:0|0:0|0:0|0:0|0:0|0:0,0:0:0:0:
91,193,177112,2,0,L|91:248,3,51.999997619629,2|0|2|0,0:0|0:0|0:0|0:0,0:0:0:0:
134,106,177512,2,0,P|130:82|139:54,3,51.999997619629,2|0|2|0,0:0|0:0|0:0|0:0,0:0:0:0:
182,203,177912,6,0,P|221:207|254:193,7,55.9999982910157,10|0|0|0|0|0|2|0,0:0|0:0|0:0|0:0|0:0|0:0|0:0|0:0,0:0:0:0:
285,270,178712,2,0,P|312:266|340:271,3,55.9999982910157,2|0|2|0,0:0|0:0|0:0|0:0,0:0:0:0:
236,202,179112,2,0,P|209:207|182:203,3,55.9999982910157,2|0|2|0,0:0|0:0|0:0|0:0,0:0:0:0:
334,173,179512,6,0,P|324:145|282:110,7,60.0000022888184,10|0|0|0|0|0|0|0,0:0|0:0|0:0|0:0|0:0|0:0|0:0|0:0,0:0:0:0:
324,274,180312,2,0,B|272:256|272:256|233:197,1,120.000004577637,8|8,0:0|0:0,0:0:0:0:
112,217,180712,2,0,B|164:235|164:235|203:294,1,120.000004577637,10|10,0:0|0:0,0:0:0:0:
347,356,181112,6,0,P|378:340|402:309,7,60.0000022888184,14|2|2|2|2|2|2|2,0:0|0:0|0:0|0:0|0:0|0:0|0:0|0:0,0:0:0:0:
392,224,181912,2,0,P|371:202|344:189,7,60.0000022888184,14|2|2|2|2|2|2|2,0:0|0:0|0:0|0:0|0:0|0:0|0:0|0:0,0:0:0:0:
248,189,182712,2,0,P|221:201|200:223,7,60.0000022888184,14|2|2|2|2|2|2|2,0:0|0:0|0:0|0:0|0:0|0:0|0:0|0:0,0:0:0:0:
201,320,183513,2,0,P|221:341|248:354,7,60.0000022888184,14|2|2|2|2|2|2|2,0:0|0:0|0:0|0:0|0:0|0:0|0:0|0:0,0:0:0:0:
347,356,184312,6,0,P|378:340|402:309,3,60.0000022888184,14|2|2|2,0:0|0:0|0:0|0:0,0:0:0:0:
471,262,184712,2,0,P|450:240|423:227,3,60.0000022888184,14|2|2|2,0:0|0:0|0:0|0:0,0:0:0:0:
384,139,185112,2,0,P|357:151|336:173,3,60.0000022888184,14|2|2|2,0:0|0:0|0:0|0:0,0:0:0:0:
257,229,185512,2,0,P|277:250|304:263,3,60.0000022888184,14|2|2|0,0:0|0:0|0:0|0:0,0:0:0:0:
256,192,185912,12,4,187112,0:0:0:0:
256,192,187512,6,0,P|297:152|336:208,1,120,10|0,0:0|0:0,0:0:0:0:
337,185,187912,2,0,P|291:128|254:194,1,167.999994873047,8|0,0:0|0:0,0:0:0:0:
292,252,188312,5,10,0:0:0:0:
215,257,188512,1,2,0:0:0:0:
173,192,188712,1,2,0:0:0:0:
175,321,188912,2,0,L|142:372,2,47.9999985351563
215,257,189312,1,2,0:0:0:0:
173,192,189512,1,2,0:0:0:0:
258,326,189712,5,0,0:0:0:0:
258,326,189812,1,0,0:0:0:0:
258,326,189912,2,0,P|305:304|367:313,1,95.9999970703126,14|2,0:0|0:0,0:0:0:0:
457,298,190312,2,0,P|414:268|391:210,1,95.9999970703126,10|2,0:0|0:0,0:0:0:0:
381,153,190712,1,10,0:0:0:0:
394,229,190912,2,0,L|504:229,2,95.9999970703126,2|6|0,0:0|0:0|0:0,0:0:0:0:
317,227,191512,5,10,0:0:0:0:
262,172,191712,1,2,0:0:0:0:
206,118,191912,1,2,0:0:0:0:
359,75,192112,2,0,L|372:15,2,47.9999985351563
339,154,192512,1,2,0:0:0:0:
283,100,192712,1,10,0:0:0:0:
413,130,192912,5,0,0:0:0:0:
413,130,193012,1,0,0:0:0:0:
413,130,193112,2,0,B|374:231|374:231|338:151,1,191.999994140625,12|0,0:0|0:0,0:0:0:0:
309,79,193712,1,0,0:0:0:0:
275,192,193912,2,0,B|324:307|324:307|413:307,1,191.999994140625,14|0,0:0|0:0,0:0:0:0:
413,130,194712,5,10,0:0:0:0:
342,161,194912,1,2,0:0:0:0:
275,192,195112,1,2,0:0:0:0:
348,326,195312,2,0,L|369:369,2,47.9999985351563
306,259,195712,1,2,0:0:0:0:
239,296,195912,1,2,0:0:0:0:
375,224,196112,5,0,0:0:0:0:
375,224,196212,1,0,0:0:0:0:
375,224,196312,2,0,L|323:131,1,95.9999970703126,14|0,0:0|0:0,0:0:0:0:
305,109,196612,2,0,P|247:131|148:91,1,143.999995605469,6|2,0:0|0:0,0:0:0:0:
132,43,197112,2,0,B|122:119|149:167|132:241,1,191.999994140625,10|2,0:0|0:0,0:0:0:0:
133,234,197712,5,2,0:0:0:0:
220,194,197912,2,0,P|264:179|334:196,1,95.9999970703126,10|2,0:0|0:0,0:0:0:0:
399,227,198312,1,2,0:0:0:0:
284,278,198512,5,0,0:0:0:0:
284,278,198612,1,0,0:0:0:0:
284,278,198712,1,10,0:0:0:0:
370,318,198912,1,2,0:0:0:0:
283,360,199112,2,0,P|239:349|202:301,1,95.9999970703126,2|0,0:0|0:0,0:0:0:0:
199,269,199412,1,0,0:0:0:0:
191,226,199512,2,0,P|177:170|107:126,1,143.999995605469,10|0,0:0|0:0,0:0:0:0:
97,225,199912,1,2,0:0:0:0:
97,225,200112,1,2,0:0:0:0:
161,331,200312,6,0,P|236:322|247:131,1,287.999991210938,14|0,0:0|0:0,0:0:0:0:
189,118,201112,1,10,0:0:0:0:
202,193,201312,1,2,0:0:0:0:
262,143,201512,1,2,0:0:0:0:
148,250,201712,2,0,L|93:307,2,47.9999985351563
202,193,202112,1,2,0:0:0:0:
222,266,202312,1,2,0:0:0:0:
74,222,202512,6,0,L|17:204,1,47.9999985351563,0|0,0:0|0:0,0:0:0:0:
0,195,202712,1,14,0:0:0:0:
84,309,203012,2,0,L|255:254,1,143.999995605469,2|2,0:0|0:0,0:0:0:0:
307,290,203512,2,0,P|246:286|206:233,1,95.9999970703126,14|0,0:0|0:0,0:0:0:0:
283,214,203912,5,10,0:0:0:0:
356,235,204112,1,2,0:0:0:0:
337,160,204312,2,0,P|361:100|413:72,1,95.9999970703126,10|10,0:0|0:0,0:0:0:0:
318,6,204712,2,0,P|294:66|242:94,1,95.9999970703126,2|0,0:0|0:0,0:0:0:0:
232,91,205012,1,0,0:0:0:0:
193,90,205112,6,0,P|152:63|136:5,1,95.9999970703126
49,42,205512,2,0,P|72:113|56:166,1,95.9999970703126,2|0,0:0|0:0,0:0:0:0:
51,167,205812,1,0,0:0:0:0:
36,202,205912,2,0,P|39:278|125:338,1,143.999995605469,14|0,0:0|0:0,0:0:0:0:
130,235,206312,1,2,0:0:0:0:
130,235,206512,1,2,0:0:0:0:
182,319,206712,6,0,B|237:311|237:311|291:276,1,95.9999970703126,2|0,1:0|0:0,0:0:0:0:
380,335,207112,2,0,B|325:343|325:343|271:378,1,95.9999970703126,2|0,1:0|0:0,0:0:0:0:
454,332,207512,5,10,0:0:0:0:
414,265,207712,1,2,0:0:0:0:
367,203,207912,1,2,0:0:0:0:
475,219,208112,2,0,L|512:190,2,47.9999985351563
414,265,208512,1,2,0:0:0:0:
367,203,208712,1,2,0:0:0:0:
446,63,208912,5,0,0:0:0:0:
446,63,209012,1,0,0:0:0:0:
446,63,209112,2,0,P|388:70|334:52,1,95.9999970703126,10|2,0:0|0:0,0:0:0:0:
281,30,209512,2,0,P|223:23|169:41,1,95.9999970703126,2|2,0:0|0:0,0:0:0:0:
117,64,209912,2,0,P|59:71|5:53,1,95.9999970703126,14|0,0:0|0:0,0:0:0:0:
21,142,210312,5,2,0:0:0:0:
73,197,210512,1,2,0:0:0:0:
133,149,210712,1,10,0:0:0:0:
206,277,210912,2,0,L|259:334,2,47.9999985351563
152,222,211312,1,2,0:0:0:0:
226,203,211512,1,12,0:0:0:0:
396,191,212512,5,2,0:0:0:0:
244,145,212712,2,0,L|278:238,1,80,0|2,0:0|0:0,0:0:0:0:
302,291,213112,2,0,P|314:230|397:192,1,160,2|0,0:0|0:0,0:0:0:0:
387,275,213712,1,0,0:0:0:0:
302,291,213912,2,0,P|251:296|209:275,1,80,8|0,0:0|0:0,0:0:0:0:
108,345,214312,2,0,P|159:340|201:361,1,80,0|0,0:0|0:0,0:0:0:0:
254,369,214712,5,2,0:0:0:0:
211,310,214912,1,0,0:0:0:0:
207,238,215112,1,0,0:0:0:0:
242,175,215312,1,0,0:0:0:0:
306,142,215512,2,0,P|313:184|297:223,1,80,8|0,0:0|0:0,0:0:0:0:
201,314,215912,2,0,P|194:272|210:233,1,80,0|0,0:0|0:0,0:0:0:0:
300,218,216312,6,0,L|385:218,2,80,2|0|2,0:0|0:0|0:0,0:0:0:0:
264,280,216912,1,0,0:0:0:0:
426,287,217112,2,0,P|460:224|417:146,2,160,8|0|2,0:0|0:0|0:0,0:0:0:0:
356,296,218112,5,0,0:0:0:0:
285,294,218312,2,0,P|240:321|224:352,1,80,0|0,0:0|0:0,0:0:0:0:
153,326,218712,2,0,P|152:273|133:244,1,80,8|0,0:0|0:0,0:0:0:0:
193,198,219112,2,0,P|238:223|273:221,1,80,0|0,0:0|0:0,0:0:0:0:
285,294,219512,6,0,P|196:288|120:227,1,160,6|0,0:0|0:0,0:0:0:0:
106,185,220112,1,0,0:0:0:0:
138,250,220312,2,0,P|138:300|114:343,1,80,8|0,0:0|0:0,0:0:0:0:
21,264,220712,2,0,P|21:214|45:171,1,80,0|0,0:0|0:0,0:0:0:0:
87,140,221112,5,2,0:0:0:0:
158,139,221312,1,0,0:0:0:0:
121,76,221512,1,0,0:0:0:0:
87,140,221712,1,0,0:0:0:0:
122,202,221912,2,0,P|173:210|222:174,1,80,8|0,0:0|0:0,0:0:0:0:
330,242,222312,2,0,P|279:234|230:270,1,80,0|0,0:0|0:0,0:0:0:0:
373,312,222712,6,0,P|407:269|374:174,1,160,2|0,0:0|0:0,0:0:0:0:
308,157,223312,1,0,0:0:0:0:
377,176,223512,2,0,L|479:201,1,80,8|0,0:0|0:0,0:0:0:0:
330,242,223912,2,0,L|252:222,1,80,0|0,0:0|0:0,0:0:0:0:
196,164,224312,6,0,P|180:207|63:246,1,160,2|0,0:0|0:0,0:0:0:0:
17,203,224912,1,0,0:0:0:0:
44,323,225112,2,0,B|106:341|160:319|160:319|195:344|218:345|218:345|246:331|281:331,1,240,8|0,0:0|0:0,0:0:0:0:
338,285,225912,2,0,P|358:228|300:258,1,160,14|0,0:0|0:0,0:0:0:0:
