osu file format v14

[General]
AudioFilename: audio.mp3
AudioLeadIn: 0
PreviewTime: 104158
Countdown: 0
SampleSet: Soft
StackLeniency: 0.3
Mode: 0
LetterboxInBreaks: 0
WidescreenStoryboard: 0

[Editor]
DistanceSpacing: 1.2
BeatDivisor: 4
GridSize: 16
TimelineZoom: 1

[Metadata]
Title:Frozen Heart
TitleUnicode:Frozen Heart
Artist:ColBreakz & Ramstar
ArtistUnicode:ColBreakz & Ramstar
Creator:pacsu
Version:Extreme
Source:
Tags:dubstep electronic english ktc kill the copiright TheKoala
BeatmapID:1644786
BeatmapSetID:783314

[Difficulty]
HPDrainRate:7
CircleSize:4
OverallDifficulty:8
ApproachRate:9.4
SliderMultiplier:2
SliderTickRate:1

[Events]
//Background and Video events
0,0,"ice_heart_by_b_niro.jpg",0,0
//Break Periods
2,91712,97372
//Storyboard Layer 0 (Background)
//Storyboard Layer 1 (Fail)
//Storyboard Layer 2 (Pass)
//Storyboard Layer 3 (Foreground)
//Storyboard Sound Samples

[TimingPoints]
1912,400,4,2,0,50,1,0
1912,-200,4,2,0,50,0,0
3912,-200,4,2,0,5,0,0
4012,-200,4,2,0,50,0,0
5112,-133.333333333333,4,2,0,50,0,0
8312,-200,4,2,0,50,0,0
9512,-133.333333333333,4,2,0,50,0,0
12612,-133.333333333333,4,2,0,5,0,0
12712,-200,4,2,0,50,0,0
13112,-153.846153846154,4,2,0,50,0,0
14712,-133.333333333333,4,2,0,50,0,0
24312,-117.647058823529,4,2,0,50,0,0
27512,-100,4,2,0,50,0,0
28712,-80,4,2,0,50,0,0
29512,-133.333333333333,4,2,0,50,0,0
31112,-166.666666666667,4,2,0,50,0,0
33912,-133.333333333333,4,2,0,50,0,0
35512,-100,4,2,0,50,0,0
46312,-66.6666666666667,4,2,0,50,0,0
47512,-66.6666666666667,4,2,0,55,0,0
48312,-66.6666666666667,4,2,0,65,0,0
49112,-66.6666666666667,4,2,0,70,0,0
49912,-66.6666666666667,4,2,0,75,0,0
51512,-100,4,2,0,50,0,0
53112,-66.6666666666667,4,2,0,50,0,1
53512,-133.333333333333,4,2,0,50,0,1
53912,-66.6666666666667,4,2,0,50,0,1
55712,-100,4,2,0,50,0,1
55812,-100,4,2,0,5,0,1
55912,-100,4,2,0,50,0,1
56012,-100,4,2,0,5,0,1
56112,-100,4,2,0,50,0,1
56212,-100,4,2,0,5,0,1
56312,-66.6666666666667,4,2,0,50,0,1
56912,-133.333333333333,4,2,0,50,0,1
57012,-133.333333333333,4,2,0,5,0,1
57112,-66.6666666666667,4,2,0,50,0,1
62112,-133.333333333333,4,2,0,50,0,1
62312,-66.6666666666667,4,2,0,50,0,1
63712,-80,4,2,0,50,0,1
64312,-66.6666666666667,4,2,0,50,0,1
64712,-57.1428571428571,4,2,0,50,0,1
65112,-100,4,2,0,50,0,1
65512,-66.6666666666667,4,2,0,50,0,1
71912,-133.333333333333,4,2,0,50,0,1
72112,-66.6666666666667,4,2,0,50,0,1
77112,-100,4,2,0,50,0,0
78712,-83.3333333333333,4,2,0,50,0,0
80412,-83.3333333333333,4,2,0,5,0,0
80512,-83.3333333333333,4,2,0,50,0,0
80812,-83.3333333333333,4,2,0,5,0,0
80912,-83.3333333333333,4,2,0,50,0,0
86812,-83.3333333333333,4,2,0,5,0,0
86912,-83.3333333333333,4,2,0,50,0,0
87212,-83.3333333333333,4,2,0,5,0,0
87312,-83.3333333333333,4,2,0,50,0,0
88812,-83.3333333333333,4,2,0,5,0,0
88912,-83.3333333333333,4,2,0,50,0,0
104312,-200,4,2,0,50,0,0
105912,-200,4,2,0,30,0,0
107512,-133.333333333333,4,2,0,50,0,0
108612,-133.333333333333,4,2,0,5,0,0
108712,-200,4,2,0,50,0,0
109112,-133.333333333333,4,2,0,50,0,0
110712,-100,4,2,0,50,0,0
121112,-83.3333333333333,4,2,0,50,0,0
121912,-100,4,2,0,50,0,0
123512,-66.6666666666667,4,2,0,50,0,1
123612,-66.6666666666667,4,2,0,5,0,1
123712,-66.6666666666667,4,2,0,50,0,1
124012,-66.6666666666667,4,2,0,5,0,1
124112,-66.6666666666667,4,2,0,50,0,1
125312,-100,4,2,0,50,0,1
125512,-66.6666666666667,4,2,0,50,0,1
125712,-100,4,2,0,50,0,1
125912,-66.6666666666667,4,2,0,50,0,1
127512,-100,4,2,0,50,0,1
127712,-66.6666666666667,4,2,0,50,0,1
127912,-100,4,2,0,50,0,1
128312,-66.6666666666667,4,2,0,50,0,1
131712,-100,4,2,0,50,0,1
131912,-66.6666666666667,4,2,0,50,0,1
132112,-100,4,2,0,50,0,1
132312,-66.6666666666667,4,2,0,50,0,1
135912,-133.333333333333,4,2,0,50,0,1
136312,-66.6666666666667,4,2,0,50,0,1
141912,-80,4,2,0,50,0,1
142712,-66.6666666666667,4,2,0,50,0,1
144512,-100,4,2,0,50,0,1
144712,-66.6666666666667,4,2,0,50,0,1
149112,-100,4,1,0,50,0,0
161912,-133.333333333333,4,2,0,50,0,0
174712,-100,4,2,0,50,0,0
180712,-66.6666666666667,4,2,0,50,0,0
181912,-66.6666666666667,4,2,0,55,0,0
182712,-66.6666666666667,4,2,0,65,0,0
183512,-66.6666666666667,4,2,0,70,0,0
184312,-66.6666666666667,4,2,0,75,0,0
185912,-100,4,2,0,50,0,0
187512,-80,4,2,0,50,0,1
187912,-50,4,2,0,50,0,1
188312,-66.6666666666667,4,2,0,50,0,1
193112,-100,4,2,0,50,0,1
193912,-66.6666666666667,4,2,0,50,0,1
205912,-100,4,2,0,50,0,1
206312,-66.6666666666667,4,2,0,50,0,1
211512,-100,4,2,0,50,0,0
213112,-80,4,2,0,50,0,0
214812,-80,4,2,0,5,0,0
214912,-80,4,2,0,50,0,0
215212,-80,4,2,0,5,0,0
215312,-80,4,2,0,50,0,0
221212,-80,4,2,0,5,0,0
221312,-80,4,2,0,50,0,0
221612,-80,4,2,0,5,0,0
221712,-80,4,2,0,50,0,0
223212,-80,4,2,0,5,0,0
223312,-80,4,2,0,50,0,0

[Colours]
Combo1 : 128,0,255
Combo2 : 0,0,255
Combo3 : 0,128,128

[HitObjects]
260,148,1912,6,0,B|239:110|248:41|248:41|226:68|211:146|256:233,1,300,6|2,0:0|0:0,0:0:0:0:
328,250,3312,1,2,0:0:0:0:
251,223,3512,2,0,P|204:227|161:266,1,100,2|0,0:0|0:0,0:0:0:0:
164,259,4112,5,2,0:0:0:0:
220,353,4312,2,0,P|238:323|241:292,1,50,2|0,0:0|0:0,0:0:0:0:
319,280,4712,2,0,P|300:250|274:232,1,50,2|0,0:0|0:0,0:0:0:0:
89,259,5112,6,0,L|167:259,1,75.0000028610231,2|0,0:0|0:0,0:0:0:0:
81,272,5512,2,0,L|156:272,1,75.0000028610231,2|0,0:0|0:0,0:0:0:0:
146,282,5912,2,0,B|106:282|106:282|74:298|74:298|42:282|42:282|3:282,1,150.000005722046,2|0,0:0|0:0,0:0:0:0:
4,282,6712,5,2,0:0:0:0:
146,281,6912,2,2,P|187:258|305:293,1,150.000005722046
284,274,7512,2,0,P|291:236|284:199,2,75.0000028610231,2|0|2,0:0|0:0|0:0,0:0:0:0:
223,357,8112,1,2,0:0:0:0:
380,241,8312,6,0,B|437:229|475:290|475:290|397:351|397:351|397:300,1,250,6|0,0:0|0:0,0:0:0:0:
397,314,9512,2,2,P|348:310|321:289,2,75.0000028610231
397,314,10512,1,2,0:0:0:0:
299,357,10712,2,2,P|257:349|208:361,1,75.0000028610231
127,316,11112,2,2,P|85:324|36:312,1,75.0000028610231
165,227,11512,6,0,P|204:257|219:300,1,75.0000028610231,2|0,0:0|0:0,0:0:0:0:
178,212,11912,2,0,P|217:242|232:285,1,75.0000028610231,2|0,0:0|0:0,0:0:0:0:
370,322,12312,2,0,P|325:291|312:223,1,112.500004291535,2|0,0:0|0:0,0:0:0:0:
299,164,12712,2,0,P|268:175|247:202,1,50,2|0,0:0|0:0,0:0:0:0:
388,243,13112,6,0,P|420:236|447:206,1,64.9999970245363,2|0,0:0|0:0,0:0:0:0:
442,128,13512,2,0,P|420:111|361:115,1,64.9999970245363,2|0,0:0|0:0,0:0:0:0:
310,171,13912,2,0,L|221:171,1,64.9999970245363,2|0,0:0|0:0,0:0:0:0:
39,311,14312,1,10,0:0:0:0:
157,239,14512,1,8,0:0:0:0:
211,377,14712,6,8,P|236:303|301:318,1,150.000005722046,10|8,0:0|0:0,0:0:0:0:
294,311,15312,2,0,P|259:285|246:235,1,75.0000028610231,0|8,0:0|0:0,0:0:0:0:
250,169,15712,1,0,0:0:0:0:
294,311,15912,6,0,L|393:319,1,75.0000028610231,10|0,0:0|0:0,0:0:0:0:
400,184,16312,2,8,L|234:168,1,150.000005722046,10|8,0:0|0:0,0:0:0:0:
226,251,16912,1,2,0:0:0:0:
178,179,17112,2,2,P|220:166|266:174,1,75.0000028610231,10|2,0:0|0:0,0:0:0:0:
332,82,17512,2,2,P|290:95|244:87,1,75.0000028610231,10|2,0:0|0:0,0:0:0:0:
250,168,17912,6,8,P|216:168|126:242,1,150.000005722046,10|8,0:0|0:0,0:0:0:0:
128,236,18512,2,0,P|156:232|200:248,1,75.0000028610231,0|8,0:0|0:0,0:0:0:0:
259,319,18912,1,0,0:0:0:0:
164,311,19112,6,2,P|173:276|200:246,1,75.0000028610231,10|2,0:0|0:0,0:0:0:0:
381,374,19512,2,8,P|315:375|255:309,1,150.000005722046,10|8,0:0|0:0,0:0:0:0:
258,318,20112,1,2,0:0:0:0:
144,313,20312,2,2,P|98:309|58:281,1,75.0000028610231,10|2,0:0|0:0,0:0:0:0:
139,203,20712,2,2,P|185:207|225:235,1,75.0000028610231,10|2,0:0|0:0,0:0:0:0:
258,318,21112,6,8,P|311:247|299:171,1,150.000005722046,10|8,0:0|0:0,0:0:0:0:
258,318,21712,2,0,P|317:327|362:310,1,75.0000028610231,0|8,0:0|0:0,0:0:0:0:
307,189,22112,1,0,0:0:0:0:
331,324,22312,6,2,P|372:308|402:275,1,75.0000028610231,10|2,0:0|0:0,0:0:0:0:
403,110,22712,1,10,0:0:0:0:
403,110,23112,1,8,0:0:0:0:
413,206,23312,1,2,0:0:0:0:
350,280,23512,2,2,P|319:295|258:295,1,75.0000028610231,10|2,0:0|0:0,0:0:0:0:
388,353,23912,2,2,P|422:336|479:340,1,75.0000028610231,10|2,0:0|0:0,0:0:0:0:
212,352,24312,6,8,P|197:280|276:215,1,170.000003242493,10|8,0:0|0:0,0:0:0:0:
285,139,24912,2,0,P|282:184|244:228,1,85.0000016212464,0|8,0:0|0:0,0:0:0:0:
184,151,25312,1,2,0:0:0:0:
276,298,25512,6,0,P|327:291|380:307,1,85.0000016212464,2|2,0:0|0:0,0:0:0:0:
464,210,25912,2,0,P|413:217|360:201,1,85.0000016212464,2|2,0:0|0:0,0:0:0:0:
287,112,26312,2,0,P|294:163|278:216,1,85.0000016212464,2|2,0:0|0:0,0:0:0:0:
176,274,26712,2,0,P|169:223|185:170,1,85.0000016212464,2|2,0:0|0:0,0:0:0:0:
295,359,27112,6,0,P|280:357|256:359,6,21.2500004053116
393,348,27512,5,0,0:0:0:0:
393,348,27612,1,0,0:0:0:0:
393,348,27712,1,0,0:0:0:0:
295,359,27912,2,0,P|344:345|424:358,1,100,8|0,0:0|0:0,0:0:0:0:
482,299,28212,5,0,0:0:0:0:
482,299,28312,1,0,0:0:0:0:
482,299,28412,1,0,0:0:0:0:
482,299,28512,1,0,0:0:0:0:
482,299,28612,1,0,0:0:0:0:
482,299,28712,2,0,P|424:258|352:264,1,125,8|0,0:0|0:0,0:0:0:0:
298,189,29012,5,0,0:0:0:0:
298,189,29112,1,0,0:0:0:0:
298,189,29212,1,0,0:0:0:0:
298,189,29312,1,0,0:0:0:0:
298,189,29412,1,0,0:0:0:0:
298,189,29512,2,0,P|336:169|396:176,1,75.0000028610231,8|0,0:0|0:0,0:0:0:0:
448,122,29812,5,0,0:0:0:0:
448,122,29912,1,0,0:0:0:0:
448,122,30012,1,0,0:0:0:0:
448,122,30112,1,0,0:0:0:0:
448,122,30212,1,0,0:0:0:0:
448,122,30312,2,0,P|458:175|438:217,1,75.0000028610231,8|0,0:0|0:0,0:0:0:0:
400,259,30612,5,0,0:0:0:0:
400,259,30712,1,0,0:0:0:0:
400,259,30812,1,0,0:0:0:0:
400,259,30912,1,0,0:0:0:0:
458,266,31112,2,0,P|414:257|378:264,1,59.9999981689454,8|0,0:0|0:0,0:0:0:0:
336,297,31412,5,0,0:0:0:0:
336,297,31512,1,0,0:0:0:0:
336,297,31612,1,0,0:0:0:0:
336,297,31712,1,0,0:0:0:0:
344,381,31912,2,0,P|353:337|322:284,1,89.9999972534181,8|0,0:0|0:0,0:0:0:0:
291,235,32312,5,0,0:0:0:0:
135,295,32512,1,0,0:0:0:0:
202,234,32712,1,8,0:0:0:0:
75,360,32912,1,0,0:0:0:0:
75,360,33012,2,0,P|110:380|150:381,1,59.9999981689454
280,346,33312,1,0,0:0:0:0:
135,295,33512,1,8,0:0:0:0:
371,350,33912,5,0,0:0:0:0:
336,204,34112,1,0,0:0:0:0:
226,306,34312,1,8,0:0:0:0:
81,262,34512,1,0,0:0:0:0:
81,262,34612,1,0,0:0:0:0:
191,160,34812,1,0,0:0:0:0:
191,160,34912,1,0,0:0:0:0:
336,204,35112,1,8,0:0:0:0:
226,306,35312,2,0,L|226:355,2,37.5000014305115
91,148,35712,5,0,0:0:0:0:
291,148,35912,1,8,0:0:0:0:
93,176,36112,1,0,0:0:0:0:
292,173,36312,1,0,0:0:0:0:
396,250,36512,2,0,L|457:250,1,50
311,252,36712,2,0,L|182:237,1,100,8|0,0:0|0:0,0:0:0:0:
361,332,37112,6,0,P|319:289|312:237,1,100
211,240,37512,2,0,P|253:197|260:145,1,100,8|0,0:0|0:0,0:0:0:0:
344,114,37812,1,0,0:0:0:0:
344,114,37912,2,0,L|446:93,1,100
308,260,38312,6,0,L|206:239,1,100,8|0,0:0|0:0,0:0:0:0:
129,171,38612,1,0,0:0:0:0:
129,171,38712,2,0,L|235:143,1,100
344,114,39112,1,8,0:0:0:0:
129,284,39312,1,8,0:0:0:0:
296,338,39512,6,8,L|217:315,1,50
129,284,39712,2,0,L|192:260,1,50,8|0,0:0|0:0,0:0:0:0:
300,226,39912,2,0,L|221:203,1,50,8|0,0:0|0:0,0:0:0:0:
150,172,40112,1,8,0:0:0:0:
287,307,40312,6,0,P|321:307|362:272,1,50,2|0,0:0|0:0,0:0:0:0:
384,237,40512,1,0,0:0:0:0:
410,206,40612,1,0,0:0:0:0:
443,184,40712,2,0,P|465:174|509:179,1,50,2|0,0:0|0:0,0:0:0:0:
475,273,40912,1,0,0:0:0:0:
446,301,41012,1,0,0:0:0:0:
411,321,41112,6,0,P|378:327|323:302,1,50,2|0,0:0|0:0,0:0:0:0:
207,231,41312,2,0,P|238:222|284:234,1,50,2|0,0:0|0:0,0:0:0:0:
373,120,41512,2,0,P|342:125|292:119,1,50,2|0,0:0|0:0,0:0:0:0:
199,83,41712,1,2,0:0:0:0:
212,126,41812,1,0,0:0:0:0:
206,170,41912,1,0,0:0:0:0:
180,207,42012,1,0,0:0:0:0:
136,216,42112,6,0,L|71:216,1,50,2|0,0:0|0:0,0:0:0:0:
200,285,42312,2,0,L|270:285,1,50,2|0,0:0|0:0,0:0:0:0:
320,353,42512,2,0,L|366:305,1,50,2|0,0:0|0:0,0:0:0:0:
456,329,42712,2,0,L|456:255,1,50,2|0,0:0|0:0,0:0:0:0:
464,139,42912,1,0,0:0:0:0:
423,168,43012,1,0,0:0:0:0:
373,166,43112,2,0,P|346:160|315:142,1,50,2|0,0:0|0:0,0:0:0:0:
245,102,43312,2,0,P|207:93|164:101,1,50,2|0,0:0|0:0,0:0:0:0:
172,268,43512,5,2,0:0:0:0:
215,292,43612,1,0,0:0:0:0:
264,300,43712,1,0,0:0:0:0:
312,288,43812,1,0,0:0:0:0:
361,296,43912,2,0,P|392:304|420:333,1,50,2|0,0:0|0:0,0:0:0:0:
258,209,44112,2,0,P|235:205|206:183,1,50,2|0,0:0|0:0,0:0:0:0:
292,108,44312,6,0,L|358:108,1,50,2|0,0:0|0:0,0:0:0:0:
452,109,44512,2,0,L|452:168,1,50,2|0,0:0|0:0,0:0:0:0:
452,270,44712,2,0,L|379:270,1,50,2|0,0:0|0:0,0:0:0:0:
292,273,44912,2,0,L|292:197,1,50,2|0,0:0|0:0,0:0:0:0:
293,109,45112,1,0,0:0:0:0:
255,61,45212,1,0,0:0:0:0:
198,40,45312,6,0,P|170:34|137:40,1,50,2|0,0:0|0:0,0:0:0:0:
46,11,45512,2,0,P|40:39|46:72,1,50,2|0,0:0|0:0,0:0:0:0:
17,163,45712,2,0,P|45:169|78:163,1,50,2|0,0:0|0:0,0:0:0:0:
167,191,45912,2,0,P|173:163|167:130,2,50,2|0|0,0:0|0:0|0:0,0:0:0:0:
109,290,46212,1,8,0:0:0:0:
263,223,46312,6,0,B|308:212|308:212|374:233,1,75.0000028610231,10|0,0:0|0:0,0:0:0:0:
383,294,46512,2,0,B|338:305|338:305|272:284,1,75.0000028610231,10|0,0:0|0:0,0:0:0:0:
106,223,46712,5,14,0:0:0:0:
126,158,46812,1,2,0:0:0:0:
183,123,46912,1,2,0:0:0:0:
250,116,47012,1,2,0:0:0:0:
313,138,47112,1,2,0:0:0:0:
363,183,47212,1,2,0:0:0:0:
429,195,47312,2,0,P|475:180|501:146,1,75.0000028610231
416,109,47512,5,2,0:0:0:0:
383,167,47612,1,2,0:0:0:0:
320,192,47712,1,2,0:0:0:0:
253,183,47812,1,2,0:0:0:0:
207,133,47912,1,2,0:0:0:0:
208,65,48012,1,2,0:0:0:0:
251,13,48112,2,2,P|282:0|324:-1,1,75.0000028610231,14|2,0:0|0:0,0:0:0:0:
299,98,48312,5,2,0:0:0:0:
293,165,48412,1,2,0:0:0:0:
287,232,48512,1,2,0:0:0:0:
279,299,48612,1,2,0:0:0:0:
217,326,48712,1,2,0:0:0:0:
224,258,48812,1,2,0:0:0:0:
230,190,48912,2,2,L|239:80,1,75.0000028610231,14|2,0:0|0:0,0:0:0:0:
343,134,49112,5,2,0:0:0:0:
340,201,49212,1,2,0:0:0:0:
336,268,49312,1,2,0:0:0:0:
332,335,49412,1,2,0:0:0:0:
275,371,49512,1,2,0:0:0:0:
220,333,49612,1,2,0:0:0:0:
163,295,49712,2,2,L|63:295,1,75.0000028610231,14|2,0:0|0:0,0:0:0:0:
10,152,49912,5,2,0:0:0:0:
10,152,50012,1,2,0:0:0:0:
10,152,50112,2,2,L|107:152,1,75.0000028610231,14|2,0:0|0:0,0:0:0:0:
217,67,50312,1,2,0:0:0:0:
217,67,50412,1,2,0:0:0:0:
217,67,50512,2,2,L|279:140,1,75.0000028610231,14|2,0:0|0:0,0:0:0:0:
291,286,50712,5,2,0:0:0:0:
291,286,50812,1,2,0:0:0:0:
291,286,50912,2,2,L|242:228,1,75.0000028610231,14|2,0:0|0:0,0:0:0:0:
288,13,51112,1,2,0:0:0:0:
288,13,51212,1,2,0:0:0:0:
288,13,51312,2,2,L|350:86,1,75.0000028610231,14|2,0:0|0:0,0:0:0:0:
419,89,51512,6,0,L|460:83,2,25,0|0|0,3:0|3:0|3:0,3:0:0:0:
428,182,51712,2,0,L|482:177,1,50,0|0,3:0|3:0,3:0:0:0:
411,265,51912,2,0,L|451:290,2,25,0|0|0,3:0|3:0|3:0,3:0:0:0:
348,322,52112,2,0,L|373:375,1,50,0|0,3:0|3:0,3:0:0:0:
256,320,52312,2,0,L|210:320,2,25,0|0|0,3:0|3:0|3:0,3:0:0:0:
316,234,52512,2,0,L|352:234,2,25,0|0|0,3:0|3:0|3:0,3:0:0:0:
151,176,52712,2,0,L|111:176,4,25,0|0|0|0|0,3:0|3:0|3:0|3:0|3:0,3:0:0:0:
422,198,53112,6,0,B|457:193|491:204|491:204|480:149|420:137|323:148,1,225.000008583069,12|0,0:0|0:0,0:0:0:0:
151,176,53512,2,0,P|113:210|162:223,1,112.500004291535
91,297,53912,6,0,P|42:243|37:194,1,75.0000028610231,10|0,0:0|0:0,0:0:0:0:
92,111,54112,2,0,P|43:165|38:214,1,75.0000028610231,2|0,0:0|0:0,0:0:0:0:
42,351,54312,2,0,P|71:328|91:296,1,75.0000028610231,2|0,0:0|0:0,0:0:0:0:
111,210,54512,1,0,0:0:0:0:
111,210,54612,1,0,0:0:0:0:
111,210,54712,6,0,L|209:210,1,75.0000028610231,10|0,0:0|0:0,0:0:0:0:
372,250,54912,2,0,L|251:250,1,75.0000028610231,2|0,0:0|0:0,0:0:0:0:
110,292,55112,2,0,L|217:292,1,75.0000028610231,2|0,0:0|0:0,0:0:0:0:
271,159,55312,1,0,0:0:0:0:
271,136,55412,1,0,0:0:0:0:
144,119,55512,5,10,0:0:0:0:
144,119,55712,2,0,L|196:166,1,50,2|0,0:0|0:0,0:0:0:0:
272,296,55912,2,0,L|272:216,1,50,2|0,0:0|0:0,0:0:0:0:
389,113,56112,2,0,L|337:160,1,50,2|0,0:0|0:0,0:0:0:0:
271,84,56312,6,0,L|271:171,1,75.0000028610231,10|0,0:0|0:0,0:0:0:0:
272,296,56512,1,0,0:0:0:0:
128,296,56712,1,4,0:0:0:0:
400,296,56912,2,0,L|451:296,1,37.5000014305115,0|2,2:0|0:0,0:0:0:0:
272,296,57112,6,0,L|272:191,1,75.0000028610231,10|0,0:0|0:0,0:0:0:0:
180,64,57312,2,0,L|180:169,1,75.0000028610231,2|0,0:0|0:0,0:0:0:0:
292,297,57512,2,0,L|292:200,1,75.0000028610231,2|0,0:0|0:0,0:0:0:0:
292,37,57712,1,0,0:0:0:0:
292,37,57812,1,0,0:0:0:0:
292,37,57912,6,0,P|336:47|381:41,1,75.0000028610231,10|0,0:0|0:0,0:0:0:0:
253,131,58112,2,0,P|209:141|164:135,1,75.0000028610231,2|0,0:0|0:0,0:0:0:0:
291,221,58312,2,0,P|335:231|380:225,1,75.0000028610231,2|0,0:0|0:0,0:0:0:0:
435,144,58512,1,0,0:0:0:0:
435,130,58612,1,0,0:0:0:0:
502,237,58712,6,0,P|441:258|352:215,1,150.000005722046,12|0,0:0|0:0,0:0:0:0:
341,142,59112,1,0,0:0:0:0:
341,142,59312,1,0,0:0:0:0:
322,368,59512,6,0,B|357:376|389:328|389:328|357:296|293:280|261:328|261:328|229:376|165:360|136:325|136:325|165:280|211:290,1,450.000017166138,8|0,0:0|0:0,0:0:0:0:
364,227,60312,2,0,L|289:227,1,75.0000028610231
145,149,60512,2,0,L|220:149,1,75.0000028610231
361,73,60712,2,0,L|286:73,1,75.0000028610231
105,234,60912,1,0,0:0:0:0:
105,234,61012,1,0,0:0:0:0:
105,234,61112,6,0,P|149:243|215:225,1,75.0000028610231,10|0,0:0|0:0,0:0:0:0:
416,245,61312,2,0,P|372:236|306:254,1,75.0000028610231,2|0,0:0|0:0,0:0:0:0:
112,263,61512,2,0,P|156:272|222:254,1,75.0000028610231,2|0,0:0|0:0,0:0:0:0:
254,171,61712,1,0,0:0:0:0:
267,151,61812,1,0,0:0:0:0:
185,268,61912,6,0,B|185:295|185:295|191:310|191:310|185:325|185:325|185:371,2,75.0000028610231,10|0|10,0:0|0:0|0:0,0:0:0:0:
209,61,62212,1,8,0:0:0:0:
209,61,62312,2,0,P|158:64|95:51,1,75.0000028610231,10|0,0:0|0:0,0:0:0:0:
29,158,62512,2,0,P|80:155|143:168,1,75.0000028610231,2|0,0:0|0:0,0:0:0:0:
420,326,62712,6,0,P|367:330|284:263,1,150.000005722046,10|0,0:0|0:0,0:0:0:0:
290,276,63112,2,0,P|348:271|380:248,1,75.0000028610231,2|0,0:0|0:0,0:0:0:0:
444,245,63312,2,0,P|428:207|385:181,1,75.0000028610231,2|0,0:0|0:0,0:0:0:0:
403,108,63512,5,8,0:0:0:0:
219,236,63712,2,0,P|211:278|228:328,1,62.5,2|0,0:0|0:0,0:0:0:0:
124,300,63912,2,0,P|132:258|115:208,1,62.5,2|0,0:0|0:0,0:0:0:0:
88,163,64112,1,0,0:0:0:0:
88,163,64212,1,0,0:0:0:0:
88,163,64312,6,0,P|133:154|164:162,1,75.0000028610231,10|0,0:0|0:0,0:0:0:0:
410,159,64512,2,0,P|365:168|334:160,1,75.0000028610231,2|0,0:0|0:0,0:0:0:0:
293,267,64712,2,0,P|378:248|480:276,1,175.00000166893,2|0,0:0|0:0,0:0:0:0:
464,362,65012,1,0,0:0:0:0:
464,362,65112,6,0,P|451:304|471:251,1,100,10|0,0:0|0:0,0:0:0:0:
471,43,65512,2,0,P|432:50|385:43,1,75.0000028610231,2|0,0:0|0:0,0:0:0:0:
217,243,65712,2,0,P|256:236|303:243,1,75.0000028610231,2|0,0:0|0:0,0:0:0:0:
342,132,65912,6,0,B|250:178|175:166|91:102|13:162|13:162|26:262|138:194|126:272|133:342,1,525.000020027161,12|0,0:0|0:0,0:0:0:0:
128,291,66712,6,0,P|129:245|167:179,1,75.0000028610231,10|0,0:0|0:0,0:0:0:0:
215,10,66912,2,0,P|213:55|176:122,1,75.0000028610231,2|0,0:0|0:0,0:0:0:0:
128,291,67112,2,0,P|160:255|207:240,1,75.0000028610231,2|0,0:0|0:0,0:0:0:0:
394,172,67312,1,0,0:0:0:0:
394,172,67412,1,0,0:0:0:0:
394,172,67512,6,0,P|428:154|479:152,1,75.0000028610231,10|0,0:0|0:0,0:0:0:0:
464,242,67712,2,0,P|470:288|452:336,1,75.0000028610231,2|0,0:0|0:0,0:0:0:0:
394,172,67912,2,0,P|388:126|406:78,1,75.0000028610231,2|0,0:0|0:0,0:0:0:0:
479,82,68112,1,0,0:0:0:0:
496,79,68212,1,0,0:0:0:0:
464,242,68312,6,0,P|424:225|250:263,2,225.000008583069,10|0|10,0:0|0:0|0:0,0:0:0:0:
181,120,69112,6,0,B|154:141|108:141|108:141|154:141|207:174,1,150.000005722046,12|0,0:0|0:0,0:0:0:0:
331,120,69512,2,0,B|358:141|404:141|404:141|358:141,1,75.0000028610231,2|0,0:0|0:0,0:0:0:0:
316,192,69712,2,0,P|319:147|335:113,1,75.0000028610231,2|0,0:0|0:0,0:0:0:0:
415,322,69912,5,8,0:0:0:0:
141,248,70112,2,0,P|175:237|212:244,1,75.0000028610231,2|0,0:0|0:0,0:0:0:0:
212,257,70312,2,0,P|175:249|140:260,1,75.0000028610231,2|0,0:0|0:0,0:0:0:0:
193,353,70512,1,0,0:0:0:0:
193,353,70612,1,0,0:0:0:0:
193,353,70712,6,0,B|234:341|234:341|283:345,1,75.0000028610231,10|0,0:0|0:0,0:0:0:0:
510,272,70912,2,0,B|469:284|469:284|420:280,1,75.0000028610231,2|0,0:0|0:0,0:0:0:0:
351,356,71112,2,0,L|351:262,1,75.0000028610231,2|0,0:0|0:0,0:0:0:0:
414,90,71312,1,0,0:0:0:0:
419,75,71412,1,0,0:0:0:0:
280,93,71512,6,0,P|356:120|430:61,1,150.000005722046,10|0,0:0|0:0,0:0:0:0:
88,106,71912,2,0,P|103:74|101:45,1,37.5000014305115,2|0,0:0|0:0,0:0:0:0:
15,121,72112,2,0,P|80:105|142:127,1,75.0000028610231,2|0,0:0|0:0,0:0:0:0:
218,196,72312,6,0,P|194:248|193:189,1,150.000005722046,2|0,1:0|0:0,0:0:0:0:
384,102,72712,2,0,P|359:50|348:107,1,150.000005722046,2|0,1:0|0:0,0:0:0:0:
218,196,73112,6,0,P|270:184|309:204,1,75.0000028610231,10|0,0:0|0:0,0:0:0:0:
449,189,73312,2,0,P|397:177|358:197,1,75.0000028610231,2|0,0:0|0:0,0:0:0:0:
300,267,73512,2,0,P|345:256|381:272,1,75.0000028610231,2|0,0:0|0:0,0:0:0:0:
345,340,73712,1,0,0:0:0:0:
345,340,73812,1,0,0:0:0:0:
345,340,73912,6,0,L|237:358,1,75.0000028610231,10|0,0:0|0:0,0:0:0:0:
15,226,74112,2,0,L|88:213,1,75.0000028610231,2|0,0:0|0:0,0:0:0:0:
300,267,74312,2,0,L|192:285,1,75.0000028610231,2|0,0:0|0:0,0:0:0:0:
118,295,74512,1,0,0:0:0:0:
95,298,74612,1,0,0:0:0:0:
263,355,74712,6,10,P|337:351|392:255,1,150.000005722046
334,107,75112,2,10,P|366:189|469:183,1,150.000005722046
423,119,75512,6,0,L|207:119,1,150.000005722046,6|0,0:0|0:0,0:0:0:0:
91,140,75912,2,0,L|108:246,1,75.0000028610231,10|0,0:0|0:0,0:0:0:0:
172,334,76112,2,0,L|189:228,1,75.0000028610231,10|0,0:0|0:0,0:0:0:0:
241,125,76312,6,0,L|259:243,1,75.0000028610231,2|0,0:0|0:0,0:0:0:0:
271,298,76512,1,0,0:0:0:0:
282,311,76612,1,0,0:0:0:0:
94,290,76712,2,0,P|59:277|30:237,1,75.0000028610231,10|0,0:0|0:0,0:0:0:0:
24,114,76912,2,0,P|60:138|82:213,1,75.0000028610231,2|0,0:0|0:0,0:0:0:0:
242,225,77112,6,0,B|282:206|349:230|349:230|333:166|349:102|349:102|285:134|237:106,1,350,12|0,0:0|0:0,0:0:0:0:
242,109,77912,1,0,0:0:0:0:
73,193,78112,1,2,0:0:0:0:
321,333,78312,1,8,0:0:0:0:
73,216,78512,1,2,0:0:0:0:
40,318,78712,6,0,P|109:317|155:285,1,119.999996337891,2|0,0:2|0:2,0:2:0:0:
343,223,79112,2,0,P|315:149|227:128,1,119.999996337891
242,226,79512,1,8,0:0:0:0:
430,187,79712,1,0,0:0:0:0:
244,252,79912,1,0,0:0:0:0:
437,211,80112,1,0,0:0:0:0:
177,319,80312,6,0,P|151:277|151:220,1,59.9999981689454,2|0,0:0|0:0,0:0:0:0:
174,174,80512,1,0,0:0:0:0:
43,328,80712,2,0,P|36:287|52:249,1,59.9999981689454
74,197,80912,1,0,0:0:0:0:
298,341,81112,6,0,B|339:318|339:318|357:226,1,119.999996337891,8|0,0:0|0:0,0:0:0:0:
74,197,81512,2,0,B|83:234|83:234|176:269,1,119.999996337891
273,270,81912,5,2,0:0:0:0:
150,104,82112,1,0,0:0:0:0:
159,262,82312,1,0,0:0:0:0:
259,89,82512,1,0,0:0:0:0:
431,196,82712,6,0,P|364:201|298:148,1,119.999996337891,8|0,0:0|0:0,0:0:0:0:
439,81,83112,2,0,P|420:133|449:224,1,119.999996337891
484,283,83512,5,2,0:0:0:0:
279,223,83712,1,0,0:0:0:0:
229,321,83912,2,0,P|273:279|273:208,1,119.999996337891
392,219,84312,2,0,P|348:235|246:196,1,119.999996337891,8|0,0:0|0:0,0:0:0:0:
188,114,84712,1,0,0:0:0:0:
334,129,84912,1,0,0:0:0:0:
82,205,85112,6,0,P|101:265|163:301,1,119.999996337891,6|0,0:0|0:0,0:0:0:0:
297,343,85512,2,0,P|335:298|321:205,1,119.999996337891
305,138,85912,1,8,0:0:0:0:
243,264,86112,1,0,0:0:0:0:
392,143,86312,1,0,0:0:0:0:
221,176,86512,1,0,0:0:0:0:
393,291,86712,6,0,P|409:247|402:202,1,59.9999981689454,2|0,0:0|0:0,0:0:0:0:
392,143,86912,1,0,0:0:0:0:
506,235,87112,2,0,P|496:185|452:147,1,59.9999981689454
461,90,87312,1,0,0:0:0:0:
236,342,87512,6,0,B|151:307|151:307|128:240,1,119.999996337891,8|0,0:0|0:0,0:0:0:0:
27,290,87912,2,0,B|73:302|73:302|178:270,1,119.999996337891
415,231,88312,6,0,P|348:221|296:132,1,119.999996337891,2|0,0:0|0:0,0:0:0:0:
221,155,88712,2,0,P|216:197|230:231,1,59.9999981689454
280,284,88912,1,0,0:0:0:0:
48,262,89112,5,8,0:0:0:0:
220,213,89312,1,0,0:0:0:0:
13,161,89512,1,0,0:0:0:0:
170,97,89712,1,0,0:0:0:0:
101,310,89912,6,0,P|160:326|256:288,1,119.999996337891,2|0,0:0|0:0,0:0:0:0:
248,166,90312,1,0,0:0:0:0:
105,167,90512,1,0,0:0:0:0:
101,310,90712,1,8,0:0:0:0:
265,145,90912,5,0,0:0:0:0:
87,145,91112,1,0,0:0:0:0:
87,332,91312,1,0,0:0:0:0:
270,332,91512,1,14,0:0:0:0:
256,192,97912,5,12,0:0:0:0:
256,192,98112,12,0,104112,0:0:0:0:
161,219,104312,6,0,B|144:193|105:195|105:195|151:120|234:137|261:217|218:267,1,300,6|0,0:0|0:0,0:0:0:0:
220,263,105912,2,0,P|240:256|277:265,1,50,8|0,0:0|0:0,0:0:0:0:
412,301,106312,2,0,P|435:308|460:304,1,50
457,154,106712,2,0,P|437:147|400:156,1,50,8|0,0:0|0:0,0:0:0:0:
260,178,107112,2,0,P|240:185|203:176,1,50
88,51,107512,6,0,B|131:38|131:38|185:56,1,75.0000028610231,8|0,0:0|0:0,0:0:0:0:
16,47,107912,2,0,B|59:60|59:60|113:42,1,75.0000028610231
35,299,108312,2,0,P|78:246|73:188,1,112.500004291535,8|0,0:0|0:0,0:0:0:0:
49,132,108712,2,0,L|118:132,1,50
231,109,109112,6,0,P|272:100|329:118,1,75.0000028610231,8|0,0:0|0:0,0:0:0:0:
272,211,109512,2,0,P|257:252|270:295,1,75.0000028610231
343,256,109812,1,0,0:0:0:0:
343,256,109912,2,0,L|362:201,1,37.5000014305115,10|0,0:0|0:0,0:0:0:0:
362,58,110112,2,0,L|343:113,1,37.5000014305115,2|0,0:0|0:0,0:0:0:0:
285,164,110312,1,0,0:0:0:0:
419,155,110512,1,0,0:0:0:0:
187,289,110712,6,0,L|72:273,1,100,12|0,0:0|0:0,0:0:0:0:
1,195,111112,2,0,L|115:184,1,100,8|0,0:0|0:0,0:0:0:0:
242,174,111512,1,8,0:0:0:0:
249,316,111712,5,0,0:0:0:0:
323,221,111912,2,0,P|338:171|316:115,1,100,8|0,0:0|0:0,0:0:0:0:
372,300,112312,2,8,P|452:281|508:169,1,200
376,165,112912,5,0,0:0:0:0:
287,255,113112,2,0,P|313:283|377:299,1,100,8|0,0:0|0:0,0:0:0:0:
183,284,113512,1,8,0:0:0:0:
79,155,113712,2,0,L|37:155,3,25
77,238,113912,6,0,P|135:222|163:162,1,100,12|0,0:0|0:0,0:0:0:0:
126,75,114312,2,0,L|236:67,1,100,8|0,0:0|0:0,0:0:0:0:
293,103,114712,2,0,L|159:87,1,100,8|0,0:0|0:0,0:0:0:0:
225,235,115112,5,8,0:0:0:0:
416,194,115312,1,0,0:0:0:0:
438,379,115512,2,8,P|397:297|426:177,1,200
415,193,116112,5,0,0:0:0:0:
279,225,116312,2,0,P|225:215|159:233,1,100,8|0,0:0|0:0,0:0:0:0:
90,330,116712,1,8,0:0:0:0:
229,336,116912,2,0,P|229:311|225:292,3,25
300,374,117112,6,0,P|342:361|408:369,1,100,12|8,0:0|0:0,0:0:0:0:
468,192,117512,2,8,P|426:205|360:197,1,100
325,123,117912,1,8,0:0:0:0:
404,286,118112,1,8,0:0:0:0:
252,362,118312,1,8,0:0:0:0:
246,192,118512,1,8,0:0:0:0:
456,177,118712,6,0,P|405:192|341:169,1,100,12|8,0:0|0:0,0:0:0:0:
177,106,119112,2,0,P|228:91|292:114,1,100,12|8,0:0|0:0,0:0:0:0:
228,169,119512,1,8,0:0:0:0:
155,29,119712,1,8,0:0:0:0:
228,169,119912,1,8,0:0:0:0:
306,28,120112,1,8,0:0:0:0:
234,291,120312,6,8,P|205:291|165:265,1,50
228,169,120512,2,8,P|257:169|297:195,1,50
343,297,120712,2,8,P|320:269|309:216,1,50
324,113,120912,2,8,P|347:141|358:194,1,50
152,288,121112,5,8,0:0:0:0:
93,246,121212,1,8,0:0:0:0:
86,174,121312,1,8,0:0:0:0:
135,121,121412,1,8,0:0:0:0:
206,116,121512,1,8,0:0:0:0:
274,139,121612,1,8,0:0:0:0:
341,163,121712,1,8,0:0:0:0:
412,159,121812,1,8,0:0:0:0:
477,130,121912,6,0,B|497:45|456:8|456:8|365:87|425:184,1,300,12|8,0:0|0:0,0:0:0:0:
411,158,122712,2,8,P|374:178|307:167,1,100
352,83,123112,2,8,P|387:105|411:168,1,100
248,231,123512,6,0,P|298:223|353:246,1,75.0000028610231,6|0,0:0|0:0,0:0:0:0:
427,252,123712,1,8,0:0:0:0:
356,384,123912,2,0,P|346:340|367:288,1,75.0000028610231,6|0,0:0|0:0,0:0:0:0:
392,168,124112,1,8,0:0:0:0:
241,318,124312,1,6,0:0:0:0:
145,156,124512,2,0,B|137:148|94:128|53:125,1,75.0000028610231,2|0,0:0|0:0,0:0:0:0:
145,156,124712,2,0,P|114:133|93:103,1,75.0000028610231,6|0,0:0|0:0,0:0:0:0:
392,168,124912,1,8,0:0:0:0:
218,274,125112,6,0,P|183:248|136:248,1,75.0000028610231,6|0,0:0|0:0,0:0:0:0:
13,281,125312,2,0,P|45:277|88:287,1,50,8|0,0:0|0:0,0:0:0:0:
157,314,125512,2,0,P|197:296|220:255,1,75.0000028610231,6|0,0:0|0:0,0:0:0:0:
257,133,125712,2,0,P|243:163|214:194,1,50,8|0,0:0|0:0,0:0:0:0:
151,243,125912,2,0,P|145:286|169:327,1,75.0000028610231,6|0,0:0|0:0,0:0:0:0:
252,345,126112,2,0,P|286:331|310:303,1,75.0000028610231,2|0,0:0|0:0,0:0:0:0:
298,205,126312,2,0,P|263:179|216:179,1,75.0000028610231,6|0,0:0|0:0,0:0:0:0:
234,262,126512,1,0,0:0:0:0:
232,175,126712,6,0,P|272:140|361:170,1,150.000005722046,6|8,0:0|0:0,0:0:0:0:
152,288,127112,2,0,P|112:253|23:283,1,150.000005722046,6|8,0:0|0:0,0:0:0:0:
86,320,127512,2,0,L|88:370,1,50,6|0,0:0|0:0,0:0:0:0:
45,183,127712,2,0,P|95:177|140:189,1,75.0000028610231,2|0,0:0|0:0,0:0:0:0:
311,281,127912,2,0,P|351:282|312:220,1,150,6|0,0:0|0:0,0:0:0:0:
236,252,128312,6,0,P|186:258|141:246,1,75.0000028610231,6|0,0:0|0:0,0:0:0:0:
45,183,128512,1,8,0:0:0:0:
236,252,128712,2,0,P|278:308|250:385,1,150.000005722046,6|8,0:0|0:0,0:0:0:0:
54,342,129112,2,0,P|124:319|215:327,1,150.000005722046,6|0,0:0|0:0,0:0:0:0:
356,343,129512,2,0,P|392:323|441:309,1,75.0000028610231,6|0,0:0|0:0,0:0:0:0:
482,257,129712,2,0,P|484:212|494:175,1,75.0000028610231,2|0,0:0|0:0,0:0:0:0:
423,312,129912,6,0,P|360:287|302:293,1,75.0000028610231,6|0,0:0|0:0,0:0:0:0:
239,245,130112,1,8,0:0:0:0:
201,309,130312,2,0,P|227:269|243:231,1,75.0000028610231,6|0,0:0|0:0,0:0:0:0:
262,87,130512,2,0,P|235:126|220:165,1,75.0000028610231,2|8,0:0|0:0,0:0:0:0:
343,276,130712,1,4,0:0:0:0:
73,163,130912,2,0,B|65:155|18:164|-15:186,1,75.0000028610231,2|0,0:0|0:0,0:0:0:0:
73,163,131112,2,0,P|35:162|0:151,1,75.0000028610231,6|0,0:0|0:0,0:0:0:0:
188,19,131312,1,0,0:0:0:0:
190,194,131512,6,0,P|222:211|260:213,1,75.0000028610231,6|0,0:0|0:0,0:0:0:0:
388,257,131712,2,0,P|364:248|340:247,1,50,8|0,0:0|0:0,0:0:0:0:
310,161,131912,2,0,P|278:181|259:213,1,75.0000028610231,6|0,0:0|0:0,0:0:0:0:
158,307,132112,2,0,P|177:291|192:271,1,50,8|0,0:0|0:0,0:0:0:0:
277,281,132312,2,0,P|276:244|259:212,1,75.0000028610231,6|0,0:0|0:0,0:0:0:0:
120,175,132512,2,0,P|152:192|189:193,1,75.0000028610231,2|0,0:0|0:0,0:0:0:0:
362,110,132712,2,0,P|330:129|310:161,1,75.0000028610231,6|0,0:0|0:0,0:0:0:0:
296,351,132912,2,0,P|294:313|277:281,1,75.0000028610231,2|0,0:0|0:0,0:0:0:0:
329,354,133112,6,0,P|314:284|221:184,1,150.000005722046,6|8,0:0|0:0,0:0:0:0:
24,191,133512,2,0,P|65:192|127:178,1,75.0000028610231,6|0,0:0|0:0,0:0:0:0:
270,219,133712,2,0,P|309:212|352:218,1,75.0000028610231,10|0,0:0|0:0,0:0:0:0:
502,328,133912,2,0,P|463:335|420:329,1,75.0000028610231,6|0,0:0|0:0,0:0:0:0:
500,349,134112,2,0,P|461:356|418:350,1,75.0000028610231,2|0,0:0|0:0,0:0:0:0:
270,249,134312,2,0,P|309:242|352:248,1,75.0000028610231,6|0,0:0|0:0,0:0:0:0:
500,349,134512,2,0,P|461:356|418:350,1,75.0000028610231,2|0,0:0|0:0,0:0:0:0:
191,294,134712,6,0,P|180:228|237:168,1,150.000005722046,6|8,0:0|0:0,0:0:0:0:
270,249,135112,1,6,0:0:0:0:
405,95,135312,1,10,0:0:0:0:
405,95,135512,1,6,0:0:0:0:
453,271,135712,1,2,0:0:0:0:
194,198,135912,2,0,B|134:211|133:188|76:198,1,112.500004291535,2|0,0:0|0:0,0:0:0:0:
110,304,136312,6,0,P|173:269|172:147,1,150.000005722046,6|0,0:0|0:0,0:0:0:0:
156,26,136712,1,12,0:0:0:0:
176,271,136912,1,0,3:0:0:0:
219,257,137012,1,0,3:0:0:0:
252,218,137112,1,0,3:0:0:0:
245,181,137212,1,0,3:0:0:0:
221,166,137312,2,0,L|117:166,1,75.0000028610231
263,338,137512,2,0,P|335:308|366:238,1,150.000005722046,12|0,0:0|0:0,0:0:0:0:
439,245,137912,6,0,P|389:240|337:259,1,75.0000028610231
182,295,138112,2,0,P|140:300|85:285,1,75.0000028610231
158,111,138312,1,12,0:0:0:0:
301,111,138512,2,0,P|245:131|148:104,1,150.000005722046,0|0,3:0|3:0,3:0:0:0:
35,193,138812,1,0,3:0:0:0:
44,213,138912,2,0,P|90:207|163:229,1,75.0000028610231,0|0,3:0|3:0,3:0:0:0:
303,252,139112,2,0,P|281:196|310:99,1,150.000005722046,12|0,0:0|0:0,0:0:0:0:
300,110,139512,6,0,P|191:161|178:323,1,225.000008583069
192,365,139912,2,0,P|225:334|284:323,1,75.0000028610231,12|0,0:0|0:0,0:0:0:0:
418,264,140112,1,0,3:0:0:0:
436,255,140212,2,0,P|367:245|323:196,1,75.0000028610231,0|0,3:0|3:0,3:0:0:0:
179,269,140412,1,0,3:0:0:0:
160,256,140512,2,0,P|162:206|197:159,1,75.0000028610231,0|0,3:0|3:0,3:0:0:0:
363,243,140712,2,0,P|278:288|153:250,1,225.000008583069,12|0,0:0|0:0,0:0:0:0:
109,202,141112,6,0,P|155:245|158:304,1,75.0000028610231
54,295,141312,1,0,0:0:0:0:
304,371,141512,2,0,P|344:333|352:212,1,150.000005722046,12|0,0:0|0:0,0:0:0:0:
226,144,141812,1,0,3:0:0:0:
229,162,141912,2,0,L|371:147,1,125,0|0,3:0|3:0,3:0:0:0:
490,238,142212,1,0,3:0:0:0:
486,254,142312,2,0,L|342:240,1,125,12|0,0:0|0:0,0:0:0:0:
288,351,142712,6,0,P|295:286|392:244,1,150.000005722046
432,365,143112,2,0,L|363:320,1,75.0000028610231,12|0,0:0|0:0,0:0:0:0:
94,379,143312,1,0,3:0:0:0:
134,360,143412,1,0,3:0:0:0:
165,340,143512,1,0,3:0:0:0:
186,319,143612,1,0,3:0:0:0:
199,305,143712,2,0,P|236:294|301:306,1,75.0000028610231
432,365,143912,2,0,P|402:329|402:209,1,150.000005722046,12|0,0:0|0:0,0:0:0:0:
474,69,144312,5,0,0:0:0:0:
393,229,144512,2,0,P|355:216|321:185,1,50
379,72,144712,2,0,P|401:128|399:193,1,75.0000028610231,12|0,0:0|0:0,0:0:0:0:
250,302,144912,2,0,P|270:243|352:211,1,150.000005722046,0|0,3:0|3:0,3:0:0:0:
338,299,145212,1,0,3:0:0:0:
354,313,145312,2,0,P|306:285|230:315,1,75.0000028610231,0|0,3:0|3:0,3:0:0:0:
103,356,145512,2,0,P|145:326|172:276,1,75.0000028610231,12|0,0:0|0:0,0:0:0:0:
241,108,145712,2,0,L|241:197,1,75.0000028610231
262,336,145912,6,0,P|286:364|399:351,1,150.000005722046
370,211,146312,1,12,0:0:0:0:
334,303,146512,1,0,3:0:0:0:
356,307,146612,2,0,P|420:291|462:209,1,150.000005722046,0|0,3:0|3:0,3:0:0:0:
410,151,146912,2,0,P|378:186|372:245,1,75.0000028610231,0|0,3:0|3:0,3:0:0:0:
256,287,147112,2,0,P|284:238|319:222,1,75.0000028610231,12|0,0:0|0:0,0:0:0:0:
370,211,147312,1,0,0:0:0:0:
224,365,147512,6,0,P|185:333|202:222,1,150.000005722046
309,118,147912,1,8,0:0:0:0:
77,160,148112,1,8,0:0:0:0:
77,160,148312,1,8,0:0:0:0:
171,17,148512,1,8,0:0:0:0:
210,249,148712,1,8,0:0:0:0:
210,249,148912,1,8,0:0:0:0:
22,321,149112,6,0,B|53:310|53:310|111:318,1,50,10|0,0:0|0:0,0:0:0:0:
177,328,149312,1,0,0:0:0:0:
227,349,149412,1,0,0:0:0:0:
281,357,149512,1,0,0:0:0:0:
334,344,149612,1,0,0:0:0:0:
374,306,149712,1,0,0:0:0:0:
319,306,149812,1,0,0:0:0:0:
280,267,149912,1,0,0:0:0:0:
262,214,150012,1,0,0:0:0:0:
276,161,150112,1,0,0:0:0:0:
316,123,150212,1,0,0:0:0:0:
370,115,150312,1,0,0:0:0:0:
417,143,150412,1,0,0:0:0:0:
415,197,150512,1,0,0:0:0:0:
135,291,150712,6,0,B|103:285|103:285|62:251,1,50,10|0,0:0|0:0,0:0:0:0:
77,152,150912,2,0,P|111:167|136:196,1,50
216,255,151112,2,0,P|244:268|292:267,1,50
384,296,151312,2,0,P|416:288|450:261,1,50
393,158,151512,2,0,P|367:163|326:193,1,50
262,271,151712,2,0,P|288:266|329:236,1,50
393,158,151912,1,10,0:0:0:0:
91,274,152112,1,2,0:0:0:0:
411,338,152312,6,0,B|379:328|379:328|338:282,1,50,10|0,0:0|0:0,0:0:0:0:
299,212,152512,1,0,0:0:0:0:
290,157,152612,1,0,0:0:0:0:
309,105,152712,1,0,0:0:0:0:
356,77,152812,1,0,0:0:0:0:
410,74,152912,1,0,0:0:0:0:
358,92,153012,1,0,0:0:0:0:
307,69,153112,1,0,0:0:0:0:
255,48,153212,1,0,0:0:0:0:
201,37,153312,1,0,0:0:0:0:
146,47,153412,1,0,0:0:0:0:
101,79,153512,2,0,P|78:113|62:162,1,50
33,184,153712,2,0,P|32:218|36:256,1,50
124,354,153912,6,0,B|148:331|148:331|196:317,1,50,10|0,0:0|0:0,0:0:0:0:
317,278,154112,1,0,0:0:0:0:
371,274,154212,1,0,0:0:0:0:
421,295,154312,1,0,0:0:0:0:
366,295,154412,1,0,0:0:0:0:
345,243,154512,1,0,0:0:0:0:
336,188,154612,1,0,0:0:0:0:
299,147,154712,1,0,0:0:0:0:
244,148,154812,1,0,0:0:0:0:
206,188,154912,1,0,0:0:0:0:
216,242,155012,1,0,0:0:0:0:
263,269,155112,2,0,B|297:256|297:256|338:224,1,50,10|0,0:0|0:0,0:0:0:0:
142,227,155312,2,0,P|108:240|67:272,1,50
243,313,155512,6,0,B|261:283|261:283|268:226,1,50,10|0,0:0|0:0,0:0:0:0:
313,117,155712,1,0,0:0:0:0:
342,70,155812,1,0,0:0:0:0:
397,71,155912,1,0,0:0:0:0:
424,119,156012,1,0,0:0:0:0:
396,166,156112,1,0,0:0:0:0:
340,165,156212,1,0,0:0:0:0:
291,139,156312,2,0,P|257:124|197:121,1,50
64,210,156512,2,0,B|98:216|98:216|138:248,1,50,10|0,0:0|0:0,0:0:0:0:
234,320,156712,1,0,0:0:0:0:
288,327,156812,1,0,0:0:0:0:
342,317,156912,1,0,0:0:0:0:
390,291,157012,1,0,0:0:0:0:
424,248,157112,6,0,B|436:218|436:218|434:176,1,50,10|0,0:0|0:0,0:0:0:0:
500,146,157312,2,0,P|460:118|426:112,1,50
450,32,157512,2,0,P|403:46|377:74,1,50
236,153,157712,2,0,B|262:164|262:164|300:160,1,50,10|0,0:0|0:0,0:0:0:0:
335,217,157912,2,0,P|355:194|354:151,1,50
176,107,158112,2,0,B|162:129|162:129|157:182,1,50,2|0,0:0|0:0,0:0:0:0:
242,288,158312,2,0,B|256:266|256:266|261:213,1,50,2|0,0:0|0:0,0:0:0:0:
335,217,158512,2,0,P|313:179|271:162,1,50
493,242,158712,6,0,B|468:229|468:229|419:222,1,50,10|0,0:0|0:0,0:0:0:0:
335,217,158912,1,0,0:0:0:0:
281,228,159012,1,0,0:0:0:0:
226,236,159112,1,0,0:0:0:0:
173,218,159212,1,0,0:0:0:0:
146,171,159312,1,0,0:0:0:0:
150,115,159412,1,0,0:0:0:0:
177,163,159512,1,0,0:0:0:0:
146,208,159612,1,0,0:0:0:0:
95,230,159712,2,0,B|67:237|67:237|7:223,1,50,10|0,0:0|0:0,0:0:0:0:
59,326,159912,1,0,0:0:0:0:
113,316,160012,1,0,0:0:0:0:
167,319,160112,1,0,0:0:0:0:
220,333,160212,1,0,0:0:0:0:
273,343,160312,6,0,B|308:341|308:341|357:323,1,50,10|0,0:0|0:0,0:0:0:0:
433,292,160512,1,0,0:0:0:0:
465,247,160612,1,0,0:0:0:0:
480,194,160712,1,0,0:0:0:0:
460,142,160812,1,0,0:0:0:0:
423,100,160912,2,0,B|393:85|393:85|347:84,1,50,10|0,0:0|0:0,0:0:0:0:
301,152,161112,2,0,P|266:154|212:146,1,50
106,51,161312,2,0,B|118:80|118:80|117:136,1,50,2|0,0:0|0:0,0:0:0:0:
111,265,161512,5,6,0:0:0:0:
237,52,161712,1,8,0:0:0:0:
310,244,161912,6,0,B|318:297|300:337|300:337|253:309|252:283,1,150.000005722046,4|0,0:0|0:0,0:0:0:0:
236,210,162512,1,0,0:0:0:0:
258,301,162712,2,0,P|228:334|177:343,1,75.0000028610231
109,339,163112,2,0,P|74:325|51:296,1,75.0000028610231
75,31,163512,5,8,0:0:0:0:
6,89,163712,1,0,0:0:0:0:
91,117,163912,1,0,0:0:0:0:
161,61,164112,1,0,0:0:0:0:
183,148,164312,2,0,P|210:118|252:106,1,75.0000028610231
331,101,164712,2,0,P|365:114|389:142,1,75.0000028610231
282,314,165112,6,0,L|282:234,2,75.0000028610231,8|0|0,0:0|0:0|0:0,0:0:0:0:
354,343,165712,2,0,P|357:295|270:240,1,150.000005722046
191,238,166312,2,0,P|147:239|95:202,1,75.0000028610231
133,80,166712,6,0,P|127:118|90:153,1,75.0000028610231,8|0,0:0|0:0,0:0:0:0:
49,235,167112,2,0,P|84:221|133:235,1,75.0000028610231
225,232,167512,2,0,P|195:207|183:158,1,75.0000028610231
265,163,167912,1,0,0:0:0:0:
268,298,168112,1,0,0:0:0:0:
483,209,168312,6,0,P|499:167|453:67,1,150.000005722046,8|0,0:0|0:0,0:0:0:0:
360,48,168912,1,0,0:0:0:0:
260,81,169112,2,0,P|228:109|214:152,1,75.0000028610231
261,233,169512,2,0,P|292:204|307:162,1,75.0000028610231
142,328,169912,6,0,L|231:341,1,75.0000028610231,8|0,0:0|0:0,0:0:0:0:
330,376,170312,2,0,L|404:365,1,75.0000028610231
476,268,170712,2,0,P|439:249|380:252,1,75.0000028610231
295,293,171112,2,0,P|282:243|291:206,1,75.0000028610231
484,52,171512,6,0,P|456:61|320:33,1,150.000005722046,8|0,0:0|0:0,0:0:0:0:
245,0,172112,1,0,0:0:0:0:
205,113,172312,2,0,P|249:118|289:110,1,75.0000028610231
284,233,172712,2,0,P|239:227|200:236,1,75.0000028610231
19,359,173112,6,0,P|40:320|47:254,1,75.0000028610231,8|0,0:0|0:0,0:0:0:0:
34,163,173512,1,0,0:0:0:0:
137,237,173712,1,0,0:0:0:0:
112,362,173912,1,0,0:0:0:0:
36,136,174112,1,0,0:0:0:0:
159,224,174312,1,0,0:0:0:0:
120,376,174512,1,0,0:0:0:0:
279,319,174712,6,0,P|312:309|350:277,1,50,10|0,0:0|0:0,0:0:0:0:
384,238,174912,1,0,0:0:0:0:
412,210,175012,1,0,0:0:0:0:
450,200,175112,1,0,0:0:0:0:
485,218,175212,1,0,0:0:0:0:
501,254,175312,1,2,0:0:0:0:
486,291,175412,1,0,0:0:0:0:
453,313,175512,6,0,P|420:319|365:294,1,50,2|0,0:0|0:0,0:0:0:0:
248,249,175712,2,0,P|279:240|325:252,1,50,2|0,0:0|0:0,0:0:0:0:
382,134,175912,2,0,P|351:139|301:133,1,50,2|0,0:0|0:0,0:0:0:0:
217,58,176112,2,0,P|248:49|294:61,1,50,2|0,0:0|0:0,0:0:0:0:
251,146,176312,5,10,0:0:0:0:
220,172,176412,1,0,0:0:0:0:
181,182,176512,1,0,0:0:0:0:
141,173,176612,1,0,0:0:0:0:
106,153,176712,1,0,0:0:0:0:
91,115,176812,1,0,0:0:0:0:
94,75,176912,6,0,P|107:41|134:16,1,50,2|0,0:0|0:0,0:0:0:0:
272,101,177112,2,0,P|258:134|232:160,1,50,2|0,0:0|0:0,0:0:0:0:
186,82,177312,2,0,P|199:48|226:23,1,50,2|0,0:0|0:0,0:0:0:0:
364,108,177512,2,0,P|350:141|324:167,1,50,2|0,0:0|0:0,0:0:0:0:
176,169,177712,2,0,P|145:163|113:122,1,50,2|0,0:0|0:0,0:0:0:0:
172,269,177912,5,10,0:0:0:0:
215,293,178012,1,0,0:0:0:0:
264,301,178112,1,0,0:0:0:0:
312,289,178212,1,0,0:0:0:0:
357,267,178312,1,0,0:0:0:0:
406,264,178412,1,0,0:0:0:0:
455,271,178512,6,0,L|455:193,1,50,2|0,0:0|0:0,0:0:0:0:
453,96,178712,2,0,L|371:96,1,50,2|0,0:0|0:0,0:0:0:0:
278,97,178912,2,0,L|279:166,1,50,2|0,0:0|0:0,0:0:0:0:
280,271,179112,2,0,L|345:271,1,50,2|0,0:0|0:0,0:0:0:0:
455,271,179312,2,0,L|455:221,1,50,2|0,0:0|0:0,0:0:0:0:
276,360,179512,5,10,0:0:0:0:
214,337,179612,1,0,0:0:0:0:
187,277,179712,1,0,0:0:0:0:
207,215,179812,1,0,0:0:0:0:
261,180,179912,1,0,0:0:0:0:
313,157,180012,1,0,0:0:0:0:
345,123,180112,1,0,0:0:0:0:
347,195,180212,1,0,0:0:0:0:
347,269,180312,6,0,L|347:339,2,50,8|0|8,0:0|0:0|0:0,0:0:0:0:
347,195,180612,1,8,0:0:0:0:
220,222,180712,2,0,B|179:222|179:222|132:206,1,75.0000028610231,10|0,0:0|0:0,0:0:0:0:
106,118,180912,2,0,B|147:118|147:118|194:134,1,75.0000028610231,10|0,0:0|0:0,0:0:0:0:
306,302,181112,5,14,0:0:0:0:
371,318,181212,1,2,0:0:0:0:
435,296,181312,1,2,0:0:0:0:
464,235,181412,1,2,0:0:0:0:
438,172,181512,1,2,0:0:0:0:
371,184,181612,1,2,0:0:0:0:
303,184,181712,2,0,P|254:161|231:129,1,75.0000028610231
328,85,181912,5,2,0:0:0:0:
301,146,182012,1,2,0:0:0:0:
238,172,182112,1,2,0:0:0:0:
171,163,182212,1,2,0:0:0:0:
125,112,182312,1,2,0:0:0:0:
100,175,182412,1,2,0:0:0:0:
133,233,182512,2,2,P|164:260|213:273,1,75.0000028610231,14|2,0:0|0:0,0:0:0:0:
217,171,182712,5,2,0:0:0:0:
178,115,182812,1,2,0:0:0:0:
111,103,182912,1,2,0:0:0:0:
50,133,183012,1,2,0:0:0:0:
24,195,183112,1,2,0:0:0:0:
32,261,183212,1,2,0:0:0:0:
76,309,183312,2,2,P|114:324|159:323,1,75.0000028610231,14|2,0:0|0:0,0:0:0:0:
136,221,183512,5,2,0:0:0:0:
68,213,183612,1,2,0:0:0:0:
10,248,183712,1,2,0:0:0:0:
1,314,183812,1,2,0:0:0:0:
43,366,183912,1,2,0:0:0:0:
110,367,184012,1,2,0:0:0:0:
153,314,184112,2,2,P|185:306|233:311,1,75.0000028610231,14|2,0:0|0:0,0:0:0:0:
319,346,184312,5,2,0:0:0:0:
319,346,184412,1,2,0:0:0:0:
319,346,184512,2,2,L|352:257,1,75.0000028610231,14|2,0:0|0:0,0:0:0:0:
292,115,184712,1,2,0:0:0:0:
292,115,184812,1,2,0:0:0:0:
292,115,184912,2,2,L|352:188,1,75.0000028610231,14|2,0:0|0:0,0:0:0:0:
506,210,185112,1,2,0:0:0:0:
506,210,185212,1,2,0:0:0:0:
506,210,185312,2,2,L|412:225,1,75.0000028610231,14|2,0:0|0:0,0:0:0:0:
319,346,185512,1,2,0:0:0:0:
319,346,185612,1,2,0:0:0:0:
319,346,185712,2,2,L|219:339,1,75.0000028610231,14|2,0:0|0:0,0:0:0:0:
107,331,185912,6,0,L|66:337,2,25,0|0|0,3:0|3:0|3:0,3:0:0:0:
98,238,186112,2,0,L|44:243,1,50,0|0,3:0|3:0,3:0:0:0:
115,155,186312,2,0,L|75:130,2,25,0|0|0,3:0|3:0|3:0,3:0:0:0:
178,98,186512,2,0,L|153:45,1,50,0|0,3:0|3:0,3:0:0:0:
270,100,186712,2,0,L|316:100,2,25,0|0|0,3:0|3:0|3:0,3:0:0:0:
210,186,186912,2,0,L|174:186,2,25,0|0|0,3:0|3:0|3:0,3:0:0:0:
393,205,187112,2,0,B|428:220|457:185|457:185|425:148|387:160,1,150,4|0,0:0|0:0,0:0:0:0:
287,274,187512,6,0,B|268:300|253:332|253:332|230:274|282:217,1,187.5,10|0,0:0|0:0,0:0:0:0:
278,221,187912,2,0,B|311:152|311:152|281:296,1,200,8|8,0:0|0:0,0:0:0:0:
253,332,188312,6,0,P|290:340|328:326,1,75.0000028610231,10|0,0:0|0:0,0:0:0:0:
497,284,188512,2,0,P|485:247|454:222,1,75.0000028610231,2|0,0:0|0:0,0:0:0:0:
328,107,188712,2,0,P|302:135|295:174,1,75.0000028610231,2|0,0:0|0:0,0:0:0:0:
355,249,188912,5,0,0:0:0:0:
355,249,189012,1,0,0:0:0:0:
355,249,189112,6,0,P|311:263|260:255,1,75.0000028610231,10|0,0:0|0:0,0:0:0:0:
159,88,189312,2,0,P|177:127|172:184,1,75.0000028610231,2|0,0:0|0:0,0:0:0:0:
98,341,189512,2,0,P|80:302|85:245,1,75.0000028610231,2|0,0:0|0:0,0:0:0:0:
179,159,189712,5,0,0:0:0:0:
194,146,189812,1,0,0:0:0:0:
169,285,189912,6,0,P|217:281|250:263,1,75.0000028610231,14|0,0:0|0:0,0:0:0:0:
343,86,190112,2,0,P|319:125|323:187,1,75.0000028610231,2|0,0:0|0:0,0:0:0:0:
300,329,190312,2,0,P|323:289|320:228,1,75.0000028610231,10|0,0:0|0:0,0:0:0:0:
318,336,190512,2,0,P|341:296|338:235,1,75.0000028610231,2|0,0:0|0:0,0:0:0:0:
315,153,190712,6,0,L|434:160,1,75.0000028610231,10|0,0:0|0:0,0:0:0:0:
512,227,190912,2,0,L|393:234,1,75.0000028610231,2|0,0:0|0:0,0:0:0:0:
184,222,191112,2,0,L|160:88,1,75.0000028610231,6|0,0:0|0:0,0:0:0:0:
58,19,191312,1,0,0:0:0:0:
112,239,191512,6,0,P|158:234|216:184,1,75.0000028610231,10|0,0:0|0:0,0:0:0:0:
397,280,191712,2,0,P|376:244|343:223,1,75.0000028610231,2|0,0:0|0:0,0:0:0:0:
498,266,191912,2,0,P|455:252|398:262,1,75.0000028610231,2|0,0:0|0:0,0:0:0:0:
236,313,192112,1,0,0:0:0:0:
236,313,192212,1,0,0:0:0:0:
236,313,192312,6,0,P|285:302|334:316,1,75.0000028610231,10|0,0:0|0:0,0:0:0:0:
502,248,192512,2,0,P|459:234|402:244,1,75.0000028610231,2|0,0:0|0:0,0:0:0:0:
212,159,192712,2,0,P|261:148|310:162,1,75.0000028610231,10|0,0:0|0:0,0:0:0:0:
379,139,192912,1,0,0:0:0:0:
393,127,193012,1,0,0:0:0:0:
308,304,193112,6,0,B|365:259|342:219|342:219|302:247|346:314,1,200,12|0,0:0|0:0,0:0:0:0:
408,361,193712,1,0,0:0:0:0:
341,308,193912,6,0,B|283:200|357:100|357:100|413:212|302:310,1,450.000017166138,14|0,0:0|0:0,0:0:0:0:
195,309,194712,6,0,L|74:331,1,75.0000028610231,10|0,0:0|0:0,0:0:0:0:
48,173,194912,2,0,L|121:159,1,75.0000028610231,2|0,0:0|0:0,0:0:0:0:
121,322,195112,2,0,L|0:344,1,75.0000028610231,2|0,0:0|0:0,0:0:0:0:
195,144,195312,1,0,0:0:0:0:
195,144,195412,1,0,0:0:0:0:
195,144,195512,6,0,L|122:158,1,75.0000028610231,10|0,0:0|0:0,0:0:0:0:
195,309,195712,2,0,L|268:295,1,75.0000028610231,2|0,0:0|0:0,0:0:0:0:
268,129,195912,2,0,L|195:143,1,75.0000028610231,2|0,0:0|0:0,0:0:0:0:
195,309,196112,5,0,0:0:0:0:
209,321,196212,1,0,0:0:0:0:
94,220,196312,6,2,P|73:158|173:23,2,225.000008583069,14|6|2,0:0|0:0|0:0,0:0:0:0:
221,221,197112,6,0,B|245:201|295:192|295:192|232:192|194:166,1,150.000005722046,10|0,0:0|0:0,0:0:0:0:
128,296,197512,2,0,P|175:289|226:301,1,75.0000028610231,2|0,0:0|0:0,0:0:0:0:
282,317,197712,2,0,P|235:324|184:312,1,75.0000028610231,2|0,0:0|0:0,0:0:0:0:
14,201,197912,6,0,P|72:209|124:267,1,75.0000028610231,10|0,0:0|0:0,0:0:0:0:
17,349,198112,2,0,L|37:270,1,75.0000028610231,2|0,0:0|0:0,0:0:0:0:
130,101,198312,2,0,L|148:186,1,75.0000028610231,2|0,0:0|0:0,0:0:0:0:
185,304,198512,1,0,0:0:0:0:
185,304,198612,1,0,0:0:0:0:
185,304,198712,6,0,L|63:304,1,75.0000028610231,10|0,0:0|0:0,0:0:0:0:
2,142,198912,2,0,L|77:142,1,75.0000028610231,2|0,0:0|0:0,0:0:0:0:
110,304,199112,2,0,P|148:265|122:146,1,150.000005722046,2|0,0:0|0:0,0:0:0:0:
67,222,199412,1,0,0:0:0:0:
110,304,199512,6,0,P|156:287|304:344,1,150.000005722046,10|0,0:0|0:0,0:0:0:0:
312,345,199912,2,0,P|278:327|253:300,1,75.0000028610231,2|0,0:0|0:0,0:0:0:0:
189,127,200112,2,0,P|222:144|247:171,1,75.0000028610231,2|0,0:0|0:0,0:0:0:0:
253,300,200312,6,0,B|361:316|409:260|409:260|501:234|409:212|409:212|361:156|249:172,1,450.000017166138,14|0,0:0|0:0,0:0:0:0:
448,235,201112,6,0,L|361:235,1,75.0000028610231,10|0,0:0|0:0,0:0:0:0:
150,236,201312,2,0,L|238:236,1,75.0000028610231,2|0,0:0|0:0,0:0:0:0:
450,252,201512,2,0,L|344:252,1,75.0000028610231,2|0,0:0|0:0,0:0:0:0:
159,252,201712,1,0,0:0:0:0:
159,252,201812,1,0,0:0:0:0:
159,252,201912,6,0,P|160:198|135:155,1,75.0000028610231,10|0,0:0|0:0,0:0:0:0:
135,88,202112,2,0,P|100:102|74:129,1,75.0000028610231,2|0,0:0|0:0,0:0:0:0:
6,189,202312,2,0,P|36:212|73:220,1,75.0000028610231,2|0,0:0|0:0,0:0:0:0:
159,252,202512,1,0,0:0:0:0:
159,270,202612,1,0,0:0:0:0:
316,217,202712,6,0,P|345:169|310:80,1,150.000005722046,14|0,0:0|0:0,0:0:0:0:
243,231,203012,2,0,P|284:218|340:220,1,75.0000028610231,2|0,0:0|0:0,0:0:0:0:
412,243,203312,2,0,P|325:228|271:240,1,75.0000028610231,2|0,0:0|0:0,0:0:0:0:
364,376,203512,6,0,P|372:293|453:224,1,150.000005722046,14|0,0:0|0:0,0:0:0:0:
364,376,203912,2,0,P|308:371|279:352,1,75.0000028610231,10|0,0:0|0:0,0:0:0:0:
198,215,204112,2,0,P|231:245|238:280,1,75.0000028610231,2|0,0:0|0:0,0:0:0:0:
161,284,204312,5,10,0:0:0:0:
349,183,204512,2,0,L|459:172,1,75.0000028610231,10|0,0:0|0:0,0:0:0:0:
243,145,204712,2,0,L|99:125,1,75.0000028610231,2|0,0:0|0:0,0:0:0:0:
428,202,204912,1,0,0:0:0:0:
428,202,205012,1,0,0:0:0:0:
428,202,205112,6,0,L|354:210,1,75.0000028610231,10|0,0:0|0:0,0:0:0:0:
240,166,205312,2,0,L|96:146,1,75.0000028610231,2|0,0:0|0:0,0:0:0:0:
364,297,205512,2,0,L|474:286,1,75.0000028610231,2|0,0:0|0:0,0:0:0:0:
502,245,205712,1,0,0:0:0:0:
512,234,205812,1,0,0:0:0:0:
268,304,205912,6,0,P|231:233|250:145,1,150,14|0,0:0|0:0,0:0:0:0:
315,117,206312,2,0,P|352:126|387:118,1,75.0000028610231,2|0,0:0|0:0,0:0:0:0:
402,220,206512,2,0,P|365:211|330:219,1,75.0000028610231,2|0,0:0|0:0,0:0:0:0:
268,304,206712,6,0,B|230:286|230:286|267:310|262:366|262:366|271:310|348:289,1,225.000008583069,2|0,1:0|0:0,0:0:0:0:
478,145,207112,2,0,B|515:162|515:162|479:139|484:83|484:83|475:139|398:160,1,225.000008583069,2|0,1:0|0:0,0:0:0:0:
276,227,207512,6,0,P|245:207|163:203,1,75.0000028610231,10|0,0:0|0:0,0:0:0:0:
19,230,207712,2,0,P|58:223|106:235,1,75.0000028610231,2|0,0:0|0:0,0:0:0:0:
290,210,207912,2,0,P|259:190|177:186,1,75.0000028610231,2|0,0:0|0:0,0:0:0:0:
27,208,208112,1,0,0:0:0:0:
27,208,208212,1,0,0:0:0:0:
27,208,208312,6,0,P|67:188|91:153,1,75.0000028610231,10|0,0:0|0:0,0:0:0:0:
277,48,208512,2,0,P|246:75|234:146,1,75.0000028610231,2|0,0:0|0:0,0:0:0:0:
293,270,208712,2,0,P|317:241|351:227,1,75.0000028610231,2|0,0:0|0:0,0:0:0:0:
441,224,208912,1,0,0:0:0:0:
457,218,209012,1,0,0:0:0:0:
249,331,209112,6,0,P|225:303|220:257,1,75.0000028610231,10|0,0:0|0:0,0:0:0:0:
93,174,209312,2,0,P|129:167|171:185,1,75.0000028610231,2|0,0:0|0:0,0:0:0:0:
312,124,209512,2,0,P|299:158|262:186,1,75.0000028610231,2|0,0:0|0:0,0:0:0:0:
249,331,209712,2,0,P|225:303|220:257,1,75.0000028610231,2|0,0:0|0:0,0:0:0:0:
218,116,209912,6,0,L|218:277,1,150.000005722046,14|0,0:0|0:0,0:0:0:0:
19,246,210312,2,0,P|76:241|131:264,1,75.0000028610231,2|0,0:0|0:0,0:0:0:0:
147,144,210512,2,0,P|90:149|35:126,1,75.0000028610231,2|0,0:0|0:0,0:0:0:0:
29,54,210712,6,0,P|86:49|141:72,1,75.0000028610231,10|0,0:0|0:0,0:0:0:0:
225,59,210912,1,0,0:0:0:0:
245,56,211012,1,0,0:0:0:0:
147,144,211112,2,0,P|141:182|148:218,1,75.0000028610231,2|0,0:0|0:0,0:0:0:0:
245,298,211312,2,0,P|251:260|244:224,1,75.0000028610231,2|0,0:0|0:0,0:0:0:0:
245,95,211512,6,0,B|302:78|350:94|350:94|310:157|350:222|350:222|302:238|242:224,1,350,12|0,0:0|0:0,0:0:0:0:
243,224,212312,1,0,0:0:0:0:
212,328,212512,1,2,0:0:0:0:
92,341,212712,1,0,0:0:0:0:
243,224,212912,1,2,0:0:0:0:
92,341,213112,6,0,P|149:322|223:332,1,125,2|0,0:0|0:0,0:0:0:0:
321,360,213512,2,0,P|383:372|470:349,1,125
279,173,213912,1,8,0:0:0:0:
321,360,214112,1,0,0:0:0:0:
296,170,214312,1,0,0:0:0:0:
212,328,214512,1,0,0:0:0:0:
384,196,214712,6,0,P|388:160|377:125,1,62.5,2|0,0:0|0:0,0:0:0:0:
325,69,214912,1,0,0:0:0:0:
302,238,215112,2,0,P|298:202|309:167,1,62.5
381,134,215312,1,0,0:0:0:0:
249,317,215512,2,0,P|235:298|214:184,1,125,8|0,0:0|0:0,0:0:0:0:
118,63,215912,2,0,P|199:42|280:69,1,125
396,145,216312,6,0,P|363:195|363:268,2,125,2|0|2,0:0|0:0|0:0,0:0:0:0:
396,145,216912,1,0,0:0:0:0:
360,258,217112,2,0,L|210:230,1,125,8|0,0:0|0:0,0:0:0:0:
217,344,217512,2,0,P|315:327|360:257,1,187.5
382,177,217912,5,2,0:0:0:0:
454,323,218112,1,0,0:0:0:0:
252,202,218312,1,0,0:0:0:0:
359,257,218512,1,0,0:0:0:0:
178,272,218712,6,0,P|154:233|175:140,1,125,8|0,0:0|0:0,0:0:0:0:
271,202,219112,2,0,P|249:241|158:270,1,125
0,356,219512,2,0,P|69:306|231:351,1,250,6|0,0:0|0:0,0:0:0:0:
271,202,220112,1,0,0:0:0:0:
512,356,220312,6,0,P|432:336|395:355,1,125,8|0,0:0|0:0,0:0:0:0:
271,202,220712,2,0,P|351:222|388:203,1,125
480,43,221112,6,0,B|453:75|455:131,1,62.5,2|0,0:0|0:0,0:0:0:0:
457,193,221312,1,0,0:0:0:0:
389,323,221512,2,0,B|394:284|379:248,1,62.5
330,176,221712,1,0,0:0:0:0:
477,301,221912,5,8,0:0:0:0:
292,334,222112,1,0,0:0:0:0:
330,176,222312,1,0,0:0:0:0:
508,117,222512,1,0,0:0:0:0:
241,237,222712,6,0,L|83:202,1,125,2|0,0:0|0:0,0:0:0:0:
72,317,223112,2,0,L|147:284,1,62.5
241,237,223312,1,0,0:0:0:0:
50,194,223512,1,8,0:0:0:0:
263,60,223712,1,0,0:0:0:0:
55,223,223912,1,0,0:0:0:0:
256,37,224112,1,0,0:0:0:0:
169,247,224312,6,0,P|227:307|313:252,1,187.5,2|0,0:0|0:0,0:0:0:0:
314,153,224712,1,0,0:0:0:0:
440,300,224912,1,0,0:0:0:0:
241,234,225112,1,8,0:0:0:0:
264,338,225312,1,0,0:0:0:0:
318,308,225412,1,0,0:0:0:0:
348,254,225512,1,0,0:0:0:0:
344,193,225612,1,0,0:0:0:0:
308,143,225712,1,0,0:0:0:0:
250,121,225812,1,0,0:0:0:0:
183,155,225912,6,0,P|151:161|128:157,5,41.6666666666667
