osu file format v14

[General]
AudioFilename: audio.mp3
AudioLeadIn: 0
PreviewTime: 37231
Countdown: 0
SampleSet: Soft
StackLeniency: 0.3
Mode: 0
LetterboxInBreaks: 0
WidescreenStoryboard: 0

[Editor]
Bookmarks: 18620
DistanceSpacing: 1
BeatDivisor: 4
GridSize: 8
TimelineZoom: 1

[Metadata]
Title:From a Flock of Crows
TitleUnicode:From a Flock of Crows
Artist:Coeur de pirate
ArtistUnicode:Cœur de pirate
Creator:celerih
Version:Easy
Source:Child of Light
Tags:Original Soundtrack Piano Beatrice Béatrice Martin MBomb Magic Bomb Ultima Fox Ubisoft
BeatmapID:1137680
BeatmapSetID:536563

[Difficulty]
HPDrainRate:2
CircleSize:2.5
OverallDifficulty:3
ApproachRate:3
SliderMultiplier:1
SliderTickRate:1

[Events]
//Background and Video events
0,0,"child-of-light-wallpaper-2.jpg",0,0
//Break Periods
2,33293,35791
//Storyboard Layer 0 (Background)
//Storyboard Layer 1 (Fail)
//Storyboard Layer 2 (Pass)
//Storyboard Layer 3 (Foreground)
//Storyboard Sound Samples

[TimingPoints]
2058,517.241379310345,4,2,2,20,1,0
3610,-100,4,2,4,20,0,0
3869,-100,4,2,2,20,0,0
4127,-100,4,2,3,20,0,0
5162,-100,4,2,4,20,0,0
6196,-100,4,2,5,20,0,0
7748,-100,4,2,7,20,0,0
8007,-100,4,2,5,20,0,0
8265,-100,4,2,6,20,0,0
8783,-100,4,2,5,20,0,0
9300,-100,4,2,4,20,0,0
10334,-100,4,2,2,20,0,0
11886,-100,4,2,4,20,0,0
12145,-100,4,2,2,20,0,0
12403,-100,4,2,3,20,0,0
13438,-100,4,2,4,20,0,0
14472,-100,4,2,5,20,0,0
16024,-100,4,2,2,20,0,0
16283,-100,4,2,3,20,0,0
16541,-100,4,2,8,20,0,0
18610,-100,4,2,12,20,0,0
20679,-100,4,2,11,20,0,0
21455,-100,4,2,10,20,0,0
21714,-100,4,2,9,20,0,0
22748,-100,4,2,10,20,0,0
23524,-100,4,2,9,20,0,0
23783,-100,4,2,15,20,0,0
24300,-100,4,2,8,20,0,0
24817,-100,4,2,2,20,0,0
25593,-100,4,2,3,20,0,0
25852,-100,4,2,8,20,0,0
26886,-100,4,2,12,20,0,0
28955,-100,4,2,11,20,0,0
29472,-100,4,2,10,20,0,0
29990,-100,4,2,9,20,0,0
31024,-100,4,2,10,20,0,0
31541,-100,4,2,15,20,0,0
32576,-100,4,2,2,20,0,0
32834,-100,4,2,3,20,0,0
33093,-100,4,2,8,20,0,0
37231,-100,4,2,2,20,0,0
38783,-100,4,2,4,20,0,0
39041,-100,4,2,2,20,0,0
39300,-100,4,2,3,20,0,0
40334,-100,4,2,4,20,0,0
41369,-100,4,2,5,20,0,0
42921,-100,4,2,7,20,0,0
43179,-100,4,2,5,20,0,0
43438,-100,4,2,6,20,0,0
43955,-100,4,2,5,20,0,0
44472,-100,4,2,4,20,0,0
45507,-100,4,2,2,20,0,0
47058,-100,4,2,4,20,0,0
47317,-100,4,2,2,20,0,0
47576,-100,4,2,3,20,0,0
47834,-100,4,2,2,20,0,0
48093,-100,4,2,3,20,0,0
48610,-100,4,2,4,20,0,0
49645,-100,4,2,5,20,0,0
50162,-100,4,2,2,20,0,0
50679,-100,4,2,3,20,0,0
51714,-100,4,2,8,20,0,0
52231,-100,4,2,12,20,0,0
52748,-100,4,2,8,20,0,0
53265,-100,4,2,4,20,0,0
53786,-100,4,2,1,15,0,0
54300,-100,4,2,1,10,0,0
55855,-100,4,2,1,30,0,0
57924,-100,4,2,1,20,0,0
58441,-100,4,2,1,15,0,0
58958,-100,4,2,1,10,0,0
59472,-100,4,2,69,5,0,0

[Colours]
Combo1 : 118,116,153
Combo2 : 90,170,255
Combo3 : 204,108,53
Combo4 : 60,53,204
Combo5 : 48,185,40

[HitObjects]
78,271,2058,6,0,P|128:283|190:267,1,100,10|8,0:0|0:0,0:0:0:0:
257,208,3093,1,10,0:0:0:0:
324,134,3610,2,0,P|356:131|384:137,2,50,10|8|8,0:0|0:0|0:0,0:0:0:0:
224,119,4645,2,0,P|163:128|113:115,1,100,10|12,0:0|0:0,0:0:0:0:
287,30,6196,6,0,L|396:41,1,100,10|8,0:0|0:0,0:0:0:0:
466,100,7231,1,10,0:0:0:0:
394,169,7748,2,0,L|322:176,2,50,10|8|8,0:0|0:0|0:0,0:0:0:0:
483,214,8783,2,0,P|470:272|433:312,1,100,10|12,0:0|0:0,0:0:0:0:
270,315,10334,6,0,P|213:307|156:323,1,100,10|8,0:0|0:0,0:0:0:0:
80,356,11369,1,10,0:0:0:0:
31,268,11886,2,0,L|25:217,2,50,8|8|8,0:0|0:0|0:0,0:0:0:0:
131,269,12921,2,0,P|181:275|236:257,1,100,10|8,0:0|0:0,0:0:0:0:
309,78,14472,6,0,P|359:69|410:84,1,100,10|8,0:0|0:0,0:0:0:0:
475,153,15507,1,10,0:0:0:0:
465,252,16024,2,0,L|460:301,2,50,10|8|12,0:0|0:0|0:0,0:0:0:0:
437,122,18610,6,0,P|399:167|345:183,1,100,10|8,0:0|0:0,0:0:0:0:
263,166,19645,2,0,P|218:186|188:225,1,100,10|8,0:0|0:0,0:0:0:0:
280,267,20679,1,10,0:0:0:0:
350,196,21196,2,0,P|381:192|413:199,2,50,10|8|8,0:0|0:0|0:0,0:0:0:0:
167,118,22748,5,10,0:0:0:0:
228,197,23265,2,0,P|200:214|166:216,2,50,10|8|8,0:0|0:0|0:0,0:0:0:0:
274,107,24300,1,10,0:0:0:0:
358,161,24817,1,10,0:0:0:0:
305,245,25334,2,0,P|306:278|320:314,2,50,10|8|8,0:0|0:0|0:0,0:0:0:0:
377,58,26886,6,0,P|439:65|481:98,1,100,10|8,0:0|0:0,0:0:0:0:
490,183,27921,2,0,P|441:180|398:155,1,100,10|8,0:0|0:0,0:0:0:0:
351,66,28955,1,10,0:0:0:0:
254,40,29472,1,10,0:0:0:0:
162,81,29990,1,10,0:0:0:0:
226,269,31023,6,0,L|219:328,2,50,10|0|10,0:0|0:0|0:0,0:0:0:0:
233,169,32058,1,8,0:0:0:0:
315,114,32576,2,0,P|344:116|375:126,2,50,10|8|8,0:0|0:0|0:0,0:0:0:0:
115,195,37231,6,0,P|165:209|225:192,1,100,10|8,0:0|0:0,0:0:0:0:
294,143,38265,1,10,0:0:0:0:
247,54,38783,2,0,L|262:3,2,50,10|8|8,0:0|0:0|0:0,0:0:0:0:
197,142,39817,2,0,P|251:153|300:139,1,100,10|12,0:0|0:0,0:0:0:0:
432,110,41369,6,0,P|449:168|439:216,1,100,10|8,0:0|0:0,0:0:0:0:
398,295,42403,1,10,0:0:0:0:
314,240,42921,2,8,L|306:173,2,50,10|8|8,0:0|0:0|0:0,0:0:0:0:
279,333,43955,2,0,P|231:303|213:249,1,100,10|8,0:0|0:0,0:0:0:0:
239,53,45507,6,0,P|183:43|125:59,1,100,10|8,0:0|0:0,0:0:0:0:
110,151,46541,1,10,0:0:0:0:
163,235,47058,1,10,0:0:0:0:
210,150,47576,2,0,P|226:125|252:104,2,50,10|8|8,0:0|0:0|0:0,0:0:0:0:
301,189,48610,1,12,0:0:0:0:
437,43,49645,6,0,P|375:37|328:42,1,100,10|8,0:0|0:0,0:0:0:0:
243,63,50679,2,0,B|232:115|254:115|243:174,1,100,10|8,0:0|0:0,0:0:0:0:
251,262,51714,1,10,0:0:0:0:
339,310,52231,1,10,0:0:0:0:
437,287,52748,2,0,P|447:228|424:177,1,100,10|8,0:0|0:0,0:0:0:0:
341,156,53783,5,2,0:0:0:0:
246,123,54300,2,0,P|233:75|244:27,2,100,2|0|2,0:0|0:0|0:0,0:0:0:0:
256,192,55852,12,0,59472,0:0:0:0:
