osu file format v14

[General]
AudioFilename: audio.mp3
AudioLeadIn: 0
PreviewTime: 37231
Countdown: 0
SampleSet: Soft
StackLeniency: 0.3
Mode: 2
LetterboxInBreaks: 0
WidescreenStoryboard: 0

[Editor]
Bookmarks: 18620
DistanceSpacing: 1
BeatDivisor: 4
GridSize: 8
TimelineZoom: 1

[Metadata]
Title:From a Flock of Crows
TitleUnicode:From a Flock of Crows
Artist:Coeur de pirate
ArtistUnicode:Cœur de pirate
Creator:celerih
Version:Cup
Source:Child of Light
Tags:Original Soundtrack Piano Beatrice Béatrice Martin MBomb Magic Bomb Ultima Fox Ubisoft
BeatmapID:1183805
BeatmapSetID:536563

[Difficulty]
HPDrainRate:3
CircleSize:2.5
OverallDifficulty:5
ApproachRate:5
SliderMultiplier:1.3
SliderTickRate:1

[Events]
//Background and Video events
0,0,"510127.jpg",0,0
//Break Periods
2,33293,36031
//Storyboard Layer 0 (Background)
//Storyboard Layer 1 (Fail)
//Storyboard Layer 2 (Pass)
//Storyboard Layer 3 (Foreground)
//Storyboard Sound Samples

[TimingPoints]
2058,517.241379310345,4,2,2,20,1,0
3610,-100,4,2,4,20,0,0
3869,-100,4,2,2,20,0,0
4127,-100,4,2,3,20,0,0
5162,-100,4,2,4,20,0,0
6196,-100,4,2,5,20,0,0
7748,-100,4,2,7,20,0,0
8007,-100,4,2,5,20,0,0
8265,-100,4,2,6,20,0,0
8783,-100,4,2,5,20,0,0
9300,-100,4,2,4,20,0,0
10334,-100,4,2,2,20,0,0
11886,-100,4,2,4,20,0,0
12145,-100,4,2,2,20,0,0
12403,-100,4,2,3,20,0,0
13438,-100,4,2,4,20,0,0
14472,-100,4,2,5,20,0,0
16024,-100,4,2,2,20,0,0
16283,-100,4,2,3,20,0,0
16541,-100,4,2,8,20,0,0
18610,-100,4,2,12,20,0,0
20679,-100,4,2,11,20,0,0
21455,-100,4,2,10,20,0,0
21714,-100,4,2,9,20,0,0
22748,-100,4,2,10,20,0,0
23524,-100,4,2,9,20,0,0
23783,-100,4,2,15,20,0,0
24300,-100,4,2,8,20,0,0
24817,-100,4,2,2,20,0,0
25593,-100,4,2,3,20,0,0
25852,-100,4,2,8,20,0,0
26886,-100,4,2,12,20,0,0
28955,-100,4,2,11,20,0,0
29472,-100,4,2,10,20,0,0
29990,-100,4,2,9,20,0,0
31024,-100,4,2,10,20,0,0
31283,-100,4,2,9,20,0,0
31541,-100,4,2,15,20,0,0
32576,-100,4,2,2,20,0,0
32834,-100,4,2,3,20,0,0
33093,-100,4,2,8,20,0,0
37231,-100,4,2,2,20,0,0
38783,-100,4,2,4,20,0,0
39041,-100,4,2,2,20,0,0
39300,-100,4,2,3,20,0,0
40334,-100,4,2,4,20,0,0
41369,-100,4,2,5,20,0,0
42921,-100,4,2,7,20,0,0
43179,-100,4,2,5,20,0,0
43438,-100,4,2,6,20,0,0
43955,-100,4,2,5,20,0,0
44472,-100,4,2,4,20,0,0
45507,-100,4,2,2,20,0,0
47058,-100,4,2,4,20,0,0
47317,-100,4,2,2,20,0,0
47576,-100,4,2,3,20,0,0
47834,-100,4,2,2,20,0,0
48093,-100,4,2,3,20,0,0
48610,-100,4,2,4,20,0,0
49645,-100,4,2,5,20,0,0
50162,-100,4,2,2,20,0,0
50679,-100,4,2,3,20,0,0
51714,-100,4,2,8,20,0,0
52231,-100,4,2,12,20,0,0
52748,-100,4,2,8,20,0,0
53265,-100,4,2,4,20,0,0
53783,-100,4,2,1,15,0,0
54299,-100,4,2,1,10,0,0
55852,-100,4,2,1,30,0,0
57921,-100,4,2,1,20,0,0
58438,-100,4,2,1,15,0,0
58955,-100,4,2,1,10,0,0
59472,-100,4,2,69,5,0,0

[Colours]
Combo1 : 118,116,153
Combo2 : 90,170,255
Combo3 : 204,108,53
Combo4 : 60,53,204
Combo5 : 48,185,40

[HitObjects]
163,304,2058,6,0,L|232:192,1,130,10|8,0:0|0:0,0:0:0:0:
330,192,3093,1,10,0:0:0:0:
202,192,3610,1,10,0:0:0:0:
146,192,3869,1,8,0:0:0:0:
218,192,4127,2,0,P|262:148|347:129,2,130,8|10|12,0:0|0:0|0:0,0:0:0:0:
380,192,6196,6,0,L|242:192,1,130,10|8,0:0|0:0,0:0:0:0:
124,192,7231,1,10,0:0:0:0:
265,192,7748,1,10,0:0:0:0:
321,192,8007,1,8,0:0:0:0:
226,192,8265,1,8,0:0:0:0:
114,192,8783,1,10,0:0:0:0:
244,192,9300,1,12,0:0:0:0:
446,192,10334,6,0,L|289:192,1,130,10|8,0:0|0:0,0:0:0:0:
206,192,11369,1,10,0:0:0:0:
87,192,11886,2,0,L|162:192,1,65,10|0,0:0|0:0,0:0:0:0:
225,192,12403,2,0,L|382:192,1,130,10|8,0:0|0:0,0:0:0:0:
492,192,13438,1,12,0:0:0:0:
297,192,14472,6,0,P|253:148|168:129,2,130,10|8|10,0:0|0:0|0:0,0:0:0:0:
428,192,16024,1,10,0:0:0:0:
474,193,16283,1,8,0:0:0:0:
377,191,16541,1,12,0:0:0:0:
217,192,18610,6,0,L|366:192,1,130,10|8,0:0|0:0,0:0:0:0:
239,192,19645,2,0,L|90:192,1,130,10|8,0:0|0:0,0:0:0:0:
0,192,20679,1,10,0:0:0:0:
131,192,21196,1,10,0:0:0:0:
177,192,21455,1,8,0:0:0:0:
80,192,21714,1,8,0:0:0:0:
273,193,22748,5,10,0:0:0:0:
163,192,23265,2,0,L|98:192,1,65,10|8,0:0|0:0,0:0:0:0:
32,192,23783,2,0,L|107:86,1,130,8|10,0:0|0:0,0:0:0:0:
257,192,24817,1,10,0:0:0:0:
426,192,25334,1,10,0:0:0:0:
472,192,25593,1,8,0:0:0:0:
374,192,25852,1,8,0:0:0:0:
202,192,26886,6,0,L|57:191,1,130,10|8,0:0|0:0,0:0:0:0:
178,192,27921,2,0,L|308:192,1,130,10|8,0:0|0:0,0:0:0:0:
160,192,28955,1,10,0:0:0:0:
19,192,29472,1,10,0:0:0:0:
132,192,29990,1,10,0:0:0:0:
323,192,31024,6,0,L|232:192,1,65,10|8,0:0|0:0,0:0:0:0:
208,192,31541,2,0,L|338:192,1,130,10|8,0:0|0:0,0:0:0:0:
195,192,32576,1,10,0:0:0:0:
151,192,32833,1,8,0:0:0:0:
245,192,33093,1,8,0:0:0:0:
287,192,37231,6,0,L|436:192,1,130,10|8,0:0|0:0,0:0:0:0:
305,192,38265,1,10,0:0:0:0:
195,192,38783,2,0,L|103:192,1,65,10|8,0:0|0:0,0:0:0:0:
67,192,39300,2,0,P|111:148|196:129,2,130,8|10|12,0:0|0:0|0:0,0:0:0:0:
264,192,41369,6,0,L|394:192,1,130,10|8,0:0|0:0,0:0:0:0:
288,192,42403,1,10,0:0:0:0:
164,192,42921,1,10,0:0:0:0:
207,192,43179,1,8,0:0:0:0:
304,192,43438,1,10,0:0:0:0:
416,192,43955,1,8,0:0:0:0:
286,192,44472,1,12,0:0:0:0:
78,192,45507,6,0,L|230:192,1,130,10|8,0:0|0:0,0:0:0:0:
322,192,46541,1,10,0:0:0:0:
227,192,47058,2,0,L|301:192,1,65,10|0,0:0|0:0,0:0:0:0:
362,192,47576,2,0,L|440:192,2,65,10|8|8,0:0|0:0|0:0,0:0:0:0:
204,191,48610,1,12,0:0:0:0:
429,192,49645,6,0,P|452:251|428:310,1,130,10|8,0:0|0:0,0:0:0:0:
291,194,50679,2,0,P|267:253|291:312,1,130,10|8,0:0|0:0,0:0:0:0:
424,192,51714,1,10,0:0:0:0:
299,192,52231,2,0,L|141:192,1,130,10|10,0:0|0:0,0:0:0:0:
33,192,53265,1,8,0:0:0:0:
166,192,53783,5,2,0:0:0:0:
47,192,54300,1,2,0:0:0:0:
137,193,54817,1,0,0:0:0:0:
86,192,55334,1,2,0:0:0:0:
256,192,55852,12,0,59472,0:0:0:0:
