osu file format v14

[General]
AudioFilename: audio.mp3
AudioLeadIn: 0
PreviewTime: 37231
Countdown: 0
SampleSet: Soft
StackLeniency: 0.3
Mode: 0
LetterboxInBreaks: 0
WidescreenStoryboard: 0

[Editor]
Bookmarks: 18610
DistanceSpacing: 1.9
BeatDivisor: 4
GridSize: 8
TimelineZoom: 1

[Metadata]
Title:From a Flock of Crows
TitleUnicode:From a Flock of Crows
Artist:Coeur de pirate
ArtistUnicode:Cœur de pirate
Creator:celerih
Version:Aurora
Source:Child of Light
Tags:Original Soundtrack Piano Beatrice Béatrice Martin MBomb Magic Bomb Ultima Fox Ubisoft
BeatmapID:1137046
BeatmapSetID:536563

[Difficulty]
HPDrainRate:5
CircleSize:3.8
OverallDifficulty:5
ApproachRate:6
SliderMultiplier:1.7
SliderTickRate:1

[Events]
//Background and Video events
0,0,"child-of-llight-forest.jpg",0,0
//Break Periods
2,33293,36031
//Storyboard Layer 0 (Background)
//Storyboard Layer 1 (Fail)
//Storyboard Layer 2 (Pass)
//Storyboard Layer 3 (Foreground)
//Storyboard Sound Samples

[TimingPoints]
2058,517.241379310345,4,2,2,20,1,0
3610,-100,4,2,4,20,0,0
3869,-100,4,2,2,20,0,0
4127,-100,4,2,3,20,0,0
5162,-100,4,2,4,20,0,0
6196,-100,4,2,5,20,0,0
7748,-100,4,2,7,20,0,0
8007,-100,4,2,5,20,0,0
8265,-100,4,2,6,20,0,0
8783,-100,4,2,5,20,0,0
9300,-100,4,2,4,20,0,0
10334,-100,4,2,2,20,0,0
11886,-100,4,2,4,20,0,0
12145,-100,4,2,2,20,0,0
12403,-100,4,2,3,20,0,0
13438,-100,4,2,4,20,0,0
14472,-100,4,2,5,20,0,0
16024,-100,4,2,2,20,0,0
16283,-100,4,2,3,20,0,0
16541,-100,4,2,8,20,0,0
18610,-100,4,2,12,20,0,0
20679,-100,4,2,11,20,0,0
21455,-100,4,2,10,20,0,0
21714,-100,4,2,9,20,0,0
22748,-100,4,2,10,20,0,0
23524,-100,4,2,9,20,0,0
23783,-100,4,2,15,20,0,0
24300,-100,4,2,8,20,0,0
24817,-100,4,2,2,20,0,0
25593,-100,4,2,3,20,0,0
25852,-100,4,2,8,20,0,0
26886,-100,4,2,12,20,0,0
28955,-100,4,2,11,20,0,0
29472,-100,4,2,10,20,0,0
29990,-100,4,2,9,20,0,0
31024,-100,4,2,10,20,0,0
31283,-100,4,2,9,20,0,0
31541,-100,4,2,15,20,0,0
32576,-100,4,2,2,20,0,0
32834,-100,4,2,3,20,0,0
33093,-100,4,2,8,20,0,0
37231,-100,4,2,2,20,0,0
38783,-100,4,2,4,20,0,0
39041,-100,4,2,2,20,0,0
39300,-100,4,2,3,20,0,0
40334,-100,4,2,4,20,0,0
41369,-100,4,2,5,20,0,0
42921,-100,4,2,7,20,0,0
43179,-100,4,2,5,20,0,0
43438,-100,4,2,6,20,0,0
43955,-100,4,2,5,20,0,0
44472,-100,4,2,4,20,0,0
45507,-100,4,2,2,20,0,0
47058,-100,4,2,4,20,0,0
47317,-100,4,2,2,20,0,0
47576,-100,4,2,3,20,0,0
47834,-100,4,2,2,20,0,0
48093,-100,4,2,3,20,0,0
48610,-100,4,2,4,20,0,0
49645,-100,4,2,5,20,0,0
50162,-100,4,2,2,20,0,0
50679,-100,4,2,3,20,0,0
51714,-100,4,2,8,20,0,0
52231,-100,4,2,12,20,0,0
52748,-100,4,2,8,20,0,0
53265,-100,4,2,4,20,0,0
53786,-100,4,2,1,15,0,0
54299,-100,4,2,1,10,0,0
55855,-100,4,2,1,30,0,0
57924,-100,4,2,1,20,0,0
58441,-100,4,2,1,15,0,0
58958,-100,4,2,1,10,0,0
59472,-100,4,2,69,5,0,0

[Colours]
Combo1 : 118,116,153
Combo2 : 90,170,255
Combo3 : 204,108,53
Combo4 : 60,53,204
Combo5 : 48,185,40

[HitObjects]
158,253,2058,6,0,P|211:262|256:247,1,85,10|0,0:0|0:0,0:0:0:0:
336,169,2576,2,0,L|316:77,1,85,10|0,0:0|0:0,0:0:0:0:
223,171,3093,2,0,L|242:262,1,85,10|0,0:0|0:0,0:0:0:0:
342,329,3610,1,10,0:0:0:0:
422,222,3869,1,10,0:0:0:0:
239,254,4127,6,0,P|183:244|156:220,1,85,10|0,0:0|0:0,0:0:0:0:
336,169,4645,2,0,L|328:253,1,85,10|0,0:0|0:0,0:0:0:0:
231,79,5162,1,14,0:0:0:0:
148,188,6196,6,0,L|140:273,1,85,10|0,0:0|0:0,0:0:0:0:
232,368,6714,2,0,L|241:278,1,85,10|0,0:0|0:0,0:0:0:0:
254,157,7231,2,0,P|335:142|372:156,1,85,10|0,0:0|0:0,0:0:0:0:
413,243,7748,1,10,0:0:0:0:
318,327,8007,1,10,0:0:0:0:
335,142,8265,5,10,0:0:0:0:
438,360,8783,1,10,0:0:0:0:
175,184,9300,1,14,0:0:0:0:
512,222,10334,6,0,P|472:211|428:220,1,85,10|0,0:0|0:0,0:0:0:0:
312,304,10852,2,0,P|352:315|396:306,1,85,10|0,0:0|0:0,0:0:0:0:
261,221,11369,2,0,P|221:210|177:219,1,85,10|0,0:0|0:0,0:0:0:0:
109,349,11886,1,10,0:0:0:0:
217,290,12145,1,10,0:0:0:0:
200,132,12403,6,0,P|148:146|107:180,1,85,10|0,0:0|0:0,0:0:0:0:
2,262,12921,2,0,P|54:248|95:214,1,85,10|0,0:0|0:0,0:0:0:0:
94,83,13438,1,14,0:0:0:0:
348,129,14472,6,0,L|369:224,1,85,10|0,0:0|0:0,0:0:0:0:
243,289,14990,2,0,L|261:205,1,85,10|0,0:0|0:0,0:0:0:0:
136,133,15507,2,0,L|157:228,1,85,10|0,0:0|0:0,0:0:0:0:
301,142,16024,5,10,0:0:0:0:
136,133,16283,1,10,0:0:0:0:
192,343,16541,1,14,0:0:0:0:
114,291,18610,6,0,L|136:394,1,85,10|0,0:0|0:0,0:0:0:0:
130,204,19127,2,0,L|152:307,1,85,10|0,0:0|0:0,0:0:0:0:
146,117,19645,2,0,L|168:220,1,85,10|0,0:0|0:0,0:0:0:0:
162,30,20162,2,0,L|184:133,1,85,10|0,0:0|0:0,0:0:0:0:
264,234,20679,6,8,P|324:211|362:105,1,170,10|10,0:0|0:0,0:0:0:0:
179,113,21455,1,10,0:0:0:0:
264,234,21714,1,10,0:0:0:0:
264,234,22748,6,0,P|272:168|245:125,1,85,10|0,0:0|0:0,0:0:0:0:
159,191,23265,1,10,0:0:0:0:
220,336,23524,1,10,0:0:0:0:
346,241,23783,2,0,P|299:227|246:246,1,85,10|0,0:0|0:0,0:0:0:0:
138,330,24300,2,0,P|184:343|237:324,1,85,10|0,0:0|0:0,0:0:0:0:
346,241,24817,6,0,L|366:340,1,85,10|0,0:0|0:0,0:0:0:0:
441,214,25334,1,10,0:0:0:0:
330,149,25593,1,10,0:0:0:0:
256,342,25852,1,14,0:0:0:0:
413,159,26886,6,0,P|416:117|400:79,1,85,10|0,0:0|0:0,0:0:0:0:
323,134,27403,2,0,P|308:94|278:66,1,85,10|0,0:0|0:0,0:0:0:0:
230,148,27921,2,0,P|200:118|161:105,1,85,10|0,0:0|0:0,0:0:0:0:
152,200,28438,2,0,P|112:184|71:189,1,85,10|0,0:0|0:0,0:0:0:0:
253,324,28955,6,0,P|340:347|418:309,1,170,10|10,0:0|0:0,0:0:0:0:
452,232,29730,1,0,0:0:0:0:
402,92,29989,1,10,0:0:0:0:
73,85,31024,5,10,0:0:0:0:
196,53,31283,1,10,0:0:0:0:
295,132,31541,2,0,B|287:175|287:175|299:200|295:234,1,85,10|0,0:0|0:0,0:0:0:0:
216,315,32058,2,0,B|223:271|223:271|212:247|216:213,1,85,10|0,0:0|0:0,0:0:0:0:
225,87,32576,5,10,0:0:0:0:
295,214,32834,1,10,0:0:0:0:
101,167,33093,1,14,0:0:0:0:
359,264,37231,6,0,P|305:238|258:251,1,85,10|0,0:0|0:0,0:0:0:0:
211,204,37748,2,0,P|240:174|280:162,1,85,10|0,0:0|0:0,0:0:0:0:
153,152,38265,2,0,P|134:190|137:231,1,85,10|0,0:0|0:0,0:0:0:0:
215,332,38783,1,10,0:0:0:0:
211,204,39041,1,10,0:0:0:0:
36,290,39300,6,0,L|147:314,1,85,10|0,0:0|0:0,0:0:0:0:
211,204,39817,2,0,L|128:222,1,85,10|0,0:0|0:0,0:0:0:0:
268,267,40334,1,14,0:0:0:0:
444,83,41369,6,0,P|403:72|362:82,1,85,10|0,0:0|0:0,0:0:0:0:
265,178,41886,2,0,L|273:94,1,85,10|0,0:0|0:0,0:0:0:0:
187,64,42403,2,0,P|150:45|108:47,1,85,10|0,0:0|0:0,0:0:0:0:
265,179,42921,1,10,0:0:0:0:
354,99,43179,1,10,0:0:0:0:
134,153,43438,6,0,P|151:246|214:302,2,170,10|10|14,0:0|0:0|0:0,0:0:0:0:
297,36,45507,6,0,P|327:67|341:107,1,85,10|0,0:0|0:0,0:0:0:0:
213,186,46024,2,0,P|225:145|252:113,1,85,10|0,0:0|0:0,0:0:0:0:
384,184,46541,2,0,P|343:194|302:186,1,85,10|0,0:0|0:0,0:0:0:0:
181,74,47058,1,10,0:0:0:0:
338,26,47317,1,10,0:0:0:0:
301,186,47576,5,10,0:0:0:0:
251,113,47834,1,10,0:0:0:0:
338,110,48093,2,0,L|425:110,1,85,10|0,0:0|0:0,0:0:0:0:
468,273,48610,1,14,0:0:0:0:
77,118,49645,6,0,B|160:146|160:90|244:119,1,170,10|10,0:0|0:0,0:0:0:0:
470,220,50679,2,0,P|435:292|349:320,1,170,10|10,0:0|0:0,0:0:0:0:
160,134,51714,5,10,0:0:0:0:
404,60,52231,1,10,0:0:0:0:
242,257,52748,1,10,0:0:0:0:
315,12,53265,1,10,0:0:0:0:
425,173,53783,5,2,0:0:0:0:
295,127,54300,1,2,0:0:0:0:
202,184,54817,1,0,0:0:0:0:
115,142,55334,1,2,0:0:0:0:
256,192,55852,12,0,59472,0:0:0:0:
