osu file format v14

[General]
AudioFilename: crier tout bas2.mp3
AudioLeadIn: 1000
PreviewTime: 118422
Countdown: 0
SampleSet: Normal
StackLeniency: 0.7
Mode: 1
LetterboxInBreaks: 0
EpilepsyWarning: 1
WidescreenStoryboard: 1

[Editor]
Bookmarks: 40106
DistanceSpacing: 1.8
BeatDivisor: 4
GridSize: 4
TimelineZoom: 1.9

[Metadata]
Title:Crier tout bas
TitleUnicode:Crier tout bas
Artist:Coeur de pirate
ArtistUnicode:Cœur de pirate
Creator:sheela
Version:Oni
Source:
Tags:Béatrice Martin Roses sheela901
BeatmapID:786711
BeatmapSetID:357678

[Difficulty]
HPDrainRate:6
CircleSize:2
OverallDifficulty:5
ApproachRate:9
SliderMultiplier:1.4
SliderTickRate:1

[Events]
//Background and Video events
0,0,"coeurdepiraterose.jpg",0,0
//Break Periods
//Storyboard Layer 0 (Background)
//Storyboard Layer 1 (Fail)
//Storyboard Layer 2 (Pass)
//Storyboard Layer 3 (Foreground)
//Storyboard Sound Samples

[TimingPoints]
949,631.578947368421,4,1,0,60,1,0
56527,-100,4,1,0,70,0,1
76738,-100,4,1,0,60,0,0
119685,-100,4,1,0,70,0,1
139896,-100,4,1,0,60,0,0
185370,-100,4,1,0,70,0,1
225791,-100,4,1,0,60,0,0
253580,-100,4,1,0,25,0,0

[Colours]
Combo1 : 245,90,114
Combo2 : 192,192,192
Combo3 : 54,54,54

[HitObjects]
264,180,949,5,2,0:0:0:0:
272,180,1422,1,0,0:0:0:0:
272,180,1896,1,2,0:0:0:0:
272,180,2212,1,2,0:0:0:0:
272,180,2527,1,0,0:0:0:0:
272,180,2685,1,0,0:0:0:0:
272,180,2843,1,2,0:0:0:0:
272,180,3001,1,0,0:0:0:0:
272,180,3475,1,2,0:0:0:0:
272,180,3948,1,0,0:0:0:0:
272,180,6001,1,2,0:0:0:0:
272,180,6475,1,0,0:0:0:0:
272,180,6949,1,2,0:0:0:0:
272,180,7264,1,2,0:0:0:0:
272,180,7580,1,0,0:0:0:0:
272,180,7738,1,0,0:0:0:0:
272,180,7896,1,2,0:0:0:0:
272,180,8054,1,0,0:0:0:0:
272,180,8527,1,8,0:0:0:0:
272,180,9001,1,0,0:0:0:0:
272,180,10106,1,0,0:0:0:0:
272,180,10264,1,0,0:0:0:0:
272,180,10422,1,0,0:0:0:0:
272,180,11054,1,8,0:0:0:0:
272,180,11527,1,0,0:0:0:0:
272,180,12001,1,2,0:0:0:0:
272,180,12317,1,2,0:0:0:0:
272,180,12633,1,0,0:0:0:0:
272,180,12791,1,0,0:0:0:0:
272,180,12949,1,2,0:0:0:0:
272,180,13106,1,0,0:0:0:0:
272,180,13580,1,2,0:0:0:0:
272,180,14054,1,0,0:0:0:0:
272,180,15159,1,0,0:0:0:0:
272,180,15317,1,0,0:0:0:0:
272,180,15475,1,0,0:0:0:0:
272,180,16106,1,2,0:0:0:0:
272,180,16580,1,0,0:0:0:0:
272,180,17054,1,2,0:0:0:0:
272,180,17370,1,2,0:0:0:0:
272,180,17685,1,0,0:0:0:0:
272,180,17843,1,0,0:0:0:0:
272,180,18001,1,2,0:0:0:0:
272,180,18159,1,0,0:0:0:0:
272,180,18633,1,2,0:0:0:0:
272,180,19106,1,0,0:0:0:0:
272,180,20212,1,0,0:0:0:0:
272,180,20370,1,0,0:0:0:0:
272,180,20527,1,0,0:0:0:0:
272,180,21159,1,0,0:0:0:0:
272,180,21633,1,0,0:0:0:0:
272,180,22106,1,2,0:0:0:0:
272,180,22422,1,2,0:0:0:0:
272,180,22738,1,0,0:0:0:0:
272,180,22896,1,0,0:0:0:0:
272,180,23054,1,2,0:0:0:0:
272,180,23212,1,0,0:0:0:0:
272,180,23685,1,0,0:0:0:0:
272,180,24159,1,0,0:0:0:0:
272,180,25264,1,0,0:0:0:0:
272,180,25422,1,0,0:0:0:0:
272,180,25580,1,2,0:0:0:0:
272,180,25896,1,2,0:0:0:0:
272,180,26212,1,0,0:0:0:0:
272,180,26685,1,0,0:0:0:0:
272,180,27159,1,2,0:0:0:0:
272,180,27475,1,2,0:0:0:0:
272,180,27791,1,0,0:0:0:0:
272,180,27948,1,0,0:0:0:0:
272,180,28106,1,2,0:0:0:0:
272,180,28422,1,2,0:0:0:0:
272,180,28738,1,0,0:0:0:0:
272,180,29212,1,0,0:0:0:0:
272,180,30317,1,0,0:0:0:0:
272,180,30475,1,0,0:0:0:0:
272,180,30633,1,2,0:0:0:0:
272,180,30948,1,2,0:0:0:0:
272,180,31264,1,0,0:0:0:0:
272,180,31738,1,0,0:0:0:0:
272,180,32212,1,2,0:0:0:0:
272,180,32527,1,2,0:0:0:0:
272,180,32843,1,0,0:0:0:0:
272,180,33001,1,0,0:0:0:0:
272,180,33159,1,0,0:0:0:0:
272,180,33475,1,2,0:0:0:0:
272,180,33791,1,0,0:0:0:0:
272,180,34264,1,0,0:0:0:0:
272,180,35370,1,0,0:0:0:0:
272,180,35527,1,0,0:0:0:0:
272,180,35685,1,2,0:0:0:0:
272,180,36001,1,2,0:0:0:0:
272,180,36317,1,0,0:0:0:0:
272,180,36791,1,0,0:0:0:0:
272,180,37264,1,2,0:0:0:0:
272,180,37580,1,2,0:0:0:0:
272,180,37896,1,0,0:0:0:0:
272,180,38054,1,0,0:0:0:0:
272,180,38212,1,2,0:0:0:0:
272,180,38370,1,0,0:0:0:0:
264,176,38843,1,0,0:0:0:0:
264,176,39317,1,0,0:0:0:0:
264,176,40422,1,0,0:0:0:0:
264,176,40580,1,0,0:0:0:0:
264,176,40738,1,2,0:0:0:0:
264,176,41054,1,2,0:0:0:0:
264,176,41370,1,0,0:0:0:0:
264,176,41843,1,0,0:0:0:0:
264,176,42317,1,2,0:0:0:0:
264,176,42633,1,2,0:0:0:0:
264,176,42949,1,0,0:0:0:0:
264,176,43106,1,0,0:0:0:0:
264,176,43264,1,0,0:0:0:0:
275,173,43422,1,0,0:0:0:0:
268,172,43896,1,0,0:0:0:0:
264,176,44370,1,2,0:0:0:0:
264,176,44843,1,0,0:0:0:0:
256,176,45159,1,2,0:0:0:0:
264,176,45475,1,0,0:0:0:0:
264,176,45633,1,0,0:0:0:0:
258,179,45791,1,0,0:0:0:0:
264,176,46106,1,2,0:0:0:0:
264,176,46422,1,0,0:0:0:0:
264,176,46896,1,0,0:0:0:0:
264,176,47370,1,2,0:0:0:0:
264,176,47685,1,2,0:0:0:0:
264,176,48001,1,0,0:0:0:0:
264,176,48159,1,0,0:0:0:0:
264,176,48317,1,2,0:0:0:0:
264,176,48475,1,0,0:0:0:0:
264,176,48949,1,0,0:0:0:0:
264,176,49422,1,0,0:0:0:0:
256,176,50527,1,0,0:0:0:0:
256,176,50685,1,0,0:0:0:0:
256,176,50843,1,2,0:0:0:0:
256,176,51475,1,0,0:0:0:0:
256,176,51949,1,0,0:0:0:0:
256,176,52422,1,2,0:0:0:0:
256,176,52738,1,0,0:0:0:0:
256,176,53054,1,0,0:0:0:0:
256,176,53212,1,0,0:0:0:0:
256,176,53370,1,2,0:0:0:0:
256,176,53527,1,0,0:0:0:0:
256,176,54001,1,2,0:0:0:0:
256,176,54475,1,0,0:0:0:0:
256,176,54949,1,2,0:0:0:0:
256,176,55264,1,2,0:0:0:0:
256,176,55580,1,0,0:0:0:0:
256,176,55738,1,0,0:0:0:0:
256,176,55896,1,2,0:0:0:0:
256,176,56054,1,2,0:0:0:0:
256,176,56212,1,2,0:0:0:0:
256,176,56527,1,4,0:0:0:0:
256,176,56843,1,0,0:0:0:0:
256,176,57001,1,0,0:0:0:0:
256,176,57159,1,2,0:0:0:0:
256,176,57475,1,0,0:0:0:0:
256,176,57791,1,2,0:0:0:0:
256,176,58106,1,0,0:0:0:0:
256,176,58264,1,0,0:0:0:0:
256,176,58422,1,0,0:0:0:0:
256,176,58738,1,2,0:0:0:0:
256,176,58896,1,2,0:0:0:0:
256,176,59054,1,0,0:0:0:0:
256,176,59370,1,0,0:0:0:0:
256,176,59527,1,0,0:0:0:0:
256,176,59685,1,2,0:0:0:0:
256,176,60001,1,0,0:0:0:0:
256,176,60317,1,0,0:0:0:0:
256,176,60633,1,0,0:0:0:0:
256,176,60791,1,0,0:0:0:0:
256,176,60949,1,2,0:0:0:0:
256,176,61106,1,2,0:0:0:0:
256,176,61264,1,2,0:0:0:0:
256,176,61422,1,2,0:0:0:0:
256,176,61580,1,0,0:0:0:0:
256,176,61896,1,0,0:0:0:0:
256,176,62054,1,0,0:0:0:0:
256,176,62212,1,2,0:0:0:0:
256,176,62527,1,0,0:0:0:0:
256,176,62843,1,0,0:0:0:0:
256,176,63159,1,0,0:0:0:0:
256,176,63317,1,0,0:0:0:0:
256,176,63475,1,2,0:0:0:0:
256,176,63791,1,2,0:0:0:0:
256,176,63949,1,2,0:0:0:0:
256,176,64106,1,0,0:0:0:0:
256,176,64422,1,0,0:0:0:0:
256,176,64580,1,0,0:0:0:0:
256,176,64738,1,2,0:0:0:0:
256,168,65370,1,0,0:0:0:0:
268,176,65685,1,0,0:0:0:0:
268,176,65843,1,0,0:0:0:0:
268,176,66001,1,2,0:0:0:0:
268,176,66159,1,2,0:0:0:0:
268,176,66317,1,0,0:0:0:0:
268,176,66633,1,4,0:0:0:0:
268,176,66949,1,0,0:0:0:0:
268,176,67106,1,0,0:0:0:0:
268,176,67264,1,2,0:0:0:0:
268,176,67580,1,0,0:0:0:0:
268,176,67896,1,2,0:0:0:0:
268,176,68212,1,0,0:0:0:0:
268,176,68370,1,0,0:0:0:0:
268,176,68527,1,0,0:0:0:0:
268,176,68843,1,2,0:0:0:0:
268,168,69159,1,0,0:0:0:0:
268,168,69475,1,0,0:0:0:0:
268,168,69633,1,0,0:0:0:0:
268,168,69791,1,2,0:0:0:0:
268,168,70106,1,0,0:0:0:0:
268,168,70422,1,0,0:0:0:0:
268,168,70738,1,2,0:0:0:0:
268,168,70896,1,0,0:0:0:0:
268,168,71054,1,0,0:0:0:0:
268,168,71212,1,0,0:0:0:0:
268,168,71370,1,2,0:0:0:0:
268,168,71527,1,2,0:0:0:0:
268,168,71685,1,0,0:0:0:0:
268,168,72001,1,0,0:0:0:0:
268,168,72159,1,0,0:0:0:0:
268,168,72317,1,2,0:0:0:0:
268,168,72633,1,0,0:0:0:0:
268,168,72949,1,0,0:0:0:0:
268,168,73264,1,0,0:0:0:0:
268,168,73422,1,0,0:0:0:0:
268,168,73580,1,2,0:0:0:0:
268,168,73896,1,2,0:0:0:0:
268,168,74212,1,0,0:0:0:0:
268,168,74527,1,0,0:0:0:0:
268,168,74685,1,0,0:0:0:0:
268,168,74843,1,2,0:0:0:0:
268,168,75475,1,2,0:0:0:0:
268,168,75791,1,0,0:0:0:0:
268,168,75949,1,0,0:0:0:0:
268,168,76106,1,2,0:0:0:0:
268,168,76264,1,0,0:0:0:0:
268,168,76422,1,2,0:0:0:0:
268,168,76738,1,4,0:0:0:0:
268,168,77054,1,2,0:0:0:0:
268,168,77212,1,2,0:0:0:0:
268,168,77370,1,0,0:0:0:0:
268,168,77685,1,2,0:0:0:0:
268,168,78001,1,0,0:0:0:0:
268,168,78159,1,2,0:0:0:0:
268,168,78317,1,0,0:0:0:0:
268,168,78475,1,0,0:0:0:0:
268,168,78633,1,2,0:0:0:0:
268,168,79264,1,0,0:0:0:0:
268,168,79580,1,2,0:0:0:0:
268,168,79738,1,2,0:0:0:0:
268,168,79896,1,0,0:0:0:0:
268,168,80212,5,2,0:0:0:0:
268,168,80527,1,0,0:0:0:0:
268,168,80685,1,2,0:0:0:0:
268,168,80843,1,2,0:0:0:0:
268,168,81159,1,2,0:0:0:0:
272,164,81317,1,2,0:0:0:0:
268,168,81475,1,2,0:0:0:0:
272,164,81633,1,2,0:0:0:0:
268,168,81791,1,0,0:0:0:0:
272,164,82106,1,2,0:0:0:0:
272,164,82264,1,0,0:0:0:0:
272,164,82422,1,0,0:0:0:0:
272,164,82738,1,2,0:0:0:0:
272,164,83054,1,0,0:0:0:0:
272,164,83212,1,2,0:0:0:0:
272,164,83370,1,0,0:0:0:0:
272,164,83527,1,2,0:0:0:0:
272,164,83685,1,0,0:0:0:0:
272,164,84001,1,2,0:0:0:0:
272,164,84317,1,0,0:0:0:0:
272,164,84633,1,2,0:0:0:0:
272,164,84791,1,2,0:0:0:0:
272,164,84949,1,0,0:0:0:0:
272,164,85264,1,2,0:0:0:0:
286,155,85580,1,0,0:0:0:0:
276,156,85738,1,2,0:0:0:0:
276,156,85896,1,0,0:0:0:0:
276,156,86212,1,0,0:0:0:0:
276,156,86370,1,2,0:0:0:0:
276,156,86527,1,2,0:0:0:0:
276,156,86685,1,2,0:0:0:0:
276,156,86843,1,0,0:0:0:0:
276,156,87159,1,2,0:0:0:0:
276,156,87317,1,2,0:0:0:0:
276,156,87475,1,0,0:0:0:0:
276,156,87791,1,2,0:0:0:0:
276,156,88106,1,0,0:0:0:0:
276,156,88264,1,2,0:0:0:0:
276,156,88422,1,0,0:0:0:0:
276,156,88580,1,0,0:0:0:0:
276,156,88738,1,0,0:0:0:0:
276,156,89370,1,0,0:0:0:0:
276,156,89843,1,0,0:0:0:0:
276,156,90949,1,0,0:0:0:0:
276,156,91106,1,0,0:0:0:0:
276,156,91264,1,2,0:0:0:0:
276,156,91580,1,0,0:0:0:0:
276,156,91896,1,0,0:0:0:0:
276,156,92212,1,2,0:0:0:0:
276,156,92370,1,0,0:0:0:0:
276,156,92843,1,2,0:0:0:0:
276,156,93159,1,2,0:0:0:0:
276,156,93475,1,0,0:0:0:0:
276,156,93633,1,0,0:0:0:0:
276,156,93791,1,2,0:0:0:0:
276,156,94106,1,2,0:0:0:0:
276,156,94422,1,0,0:0:0:0:
276,156,94896,1,0,0:0:0:0:
276,156,96001,1,0,0:0:0:0:
276,156,96159,1,0,0:0:0:0:
276,156,96317,1,2,0:0:0:0:
276,156,96633,1,2,0:0:0:0:
276,156,96949,1,0,0:0:0:0:
266,159,97264,1,2,0:0:0:0:
276,156,97422,1,0,0:0:0:0:
276,156,97896,1,8,0:0:0:0:
276,156,98212,1,2,0:0:0:0:
276,156,98527,1,0,0:0:0:0:
276,156,98685,1,0,0:0:0:0:
276,156,98843,1,0,0:0:0:0:
274,162,99001,1,0,0:0:0:0:
272,152,99475,1,0,0:0:0:0:
272,148,99949,1,0,0:0:0:0:
272,148,101054,1,0,0:0:0:0:
272,148,101212,1,0,0:0:0:0:
272,148,101370,1,2,0:0:0:0:
272,148,101685,1,2,0:0:0:0:
272,148,102001,1,0,0:0:0:0:
272,148,102317,5,2,0:0:0:0:
272,148,102475,1,0,0:0:0:0:
272,148,102949,1,2,0:0:0:0:
272,148,103580,1,0,0:0:0:0:
272,148,103738,1,0,0:0:0:0:
272,148,103896,1,0,0:0:0:0:
264,146,104054,1,0,0:0:0:0:
272,148,104527,1,0,0:0:0:0:
272,148,105001,1,0,0:0:0:0:
272,148,106106,1,0,0:0:0:0:
272,148,106264,1,0,0:0:0:0:
272,148,106422,1,2,0:0:0:0:
272,148,106738,1,2,0:0:0:0:
272,148,107054,1,0,0:0:0:0:
272,148,107370,1,2,0:0:0:0:
272,148,107527,1,0,0:0:0:0:
272,148,108001,1,2,0:0:0:0:
272,148,108317,1,2,0:0:0:0:
272,148,108633,1,0,0:0:0:0:
272,148,108791,1,0,0:0:0:0:
272,148,108949,1,0,0:0:0:0:
272,148,109580,1,0,0:0:0:0:
272,148,110054,1,2,0:0:0:0:
272,150,110527,1,0,0:0:0:0:
272,148,110843,1,0,0:0:0:0:
272,148,111159,1,0,0:0:0:0:
272,148,111317,1,0,0:0:0:0:
272,148,111475,1,2,0:0:0:0:
272,148,111791,1,0,0:0:0:0:
272,148,112106,1,0,0:0:0:0:
272,148,112580,1,0,0:0:0:0:
272,148,113054,1,2,0:0:0:0:
272,148,113370,1,0,0:0:0:0:
272,148,113685,1,0,0:0:0:0:
272,148,113843,1,0,0:0:0:0:
272,148,114001,1,2,0:0:0:0:
272,148,114633,1,0,0:0:0:0:
272,148,115106,1,0,0:0:0:0:
272,148,115580,1,2,0:0:0:0:
272,148,115896,1,0,0:0:0:0:
272,148,116212,1,0,0:0:0:0:
272,148,116370,1,0,0:0:0:0:
272,148,116527,1,2,0:0:0:0:
272,148,116843,1,0,0:0:0:0:
272,148,117159,1,0,0:0:0:0:
272,148,118422,1,0,0:0:0:0:
272,148,118738,1,0,0:0:0:0:
272,148,118896,1,0,0:0:0:0:
272,148,119054,1,2,0:0:0:0:
272,148,119212,1,0,0:0:0:0:
272,148,119370,1,2,0:0:0:0:
272,148,119685,1,4,0:0:0:0:
272,148,120001,1,0,0:0:0:0:
272,148,120159,1,0,0:0:0:0:
272,148,120317,1,2,0:0:0:0:
272,148,120633,1,0,0:0:0:0:
272,148,120949,1,2,0:0:0:0:
272,148,121264,1,0,0:0:0:0:
272,148,121422,1,0,0:0:0:0:
272,148,121580,1,0,0:0:0:0:
272,148,121896,1,2,0:0:0:0:
272,148,122054,1,2,0:0:0:0:
272,148,122212,1,0,0:0:0:0:
272,148,122527,1,2,0:0:0:0:
272,148,122685,1,0,0:0:0:0:
272,148,122843,1,2,0:0:0:0:
272,148,123159,1,0,0:0:0:0:
272,148,123475,1,0,0:0:0:0:
272,148,123791,1,2,0:0:0:0:
272,148,123949,1,2,0:0:0:0:
272,148,124106,1,0,0:0:0:0:
272,148,124264,1,2,0:0:0:0:
272,148,124422,1,0,0:0:0:0:
272,148,124580,1,2,0:0:0:0:
272,148,124738,1,0,0:0:0:0:
272,148,125054,1,2,0:0:0:0:
272,148,125212,1,0,0:0:0:0:
272,148,125370,1,2,0:0:0:0:
272,148,125685,1,2,0:0:0:0:
272,148,126001,1,0,0:0:0:0:
272,148,126317,1,2,0:0:0:0:
272,148,126475,1,2,0:0:0:0:
272,148,126633,1,0,0:0:0:0:
272,148,126949,1,2,0:0:0:0:
272,148,127106,1,0,0:0:0:0:
272,148,127264,1,0,0:0:0:0:
272,148,127580,1,2,0:0:0:0:
272,148,127738,1,0,0:0:0:0:
272,148,127896,1,2,0:0:0:0:
272,148,128527,1,0,0:0:0:0:
272,148,128843,1,0,0:0:0:0:
272,148,129001,1,0,0:0:0:0:
272,148,129159,1,2,0:0:0:0:
272,148,129317,1,0,0:0:0:0:
272,148,129475,1,2,0:0:0:0:
272,148,129791,1,4,0:0:0:0:
272,148,130106,1,2,0:0:0:0:
272,148,130264,1,0,0:0:0:0:
272,148,130422,1,2,0:0:0:0:
272,148,130738,1,0,0:0:0:0:
272,148,131054,1,2,0:0:0:0:
272,148,131370,1,2,0:0:0:0:
272,148,131527,1,2,0:0:0:0:
272,148,131685,1,0,0:0:0:0:
272,148,132001,1,2,0:0:0:0:
272,148,132159,1,0,0:0:0:0:
272,148,132317,1,0,0:0:0:0:
272,148,132633,1,2,0:0:0:0:
272,148,132791,1,0,0:0:0:0:
272,148,132948,1,2,0:0:0:0:
272,148,133264,1,0,0:0:0:0:
272,148,133580,1,2,0:0:0:0:
272,148,133896,1,2,0:0:0:0:
272,148,134054,1,0,0:0:0:0:
272,148,134212,1,2,0:0:0:0:
272,148,134370,1,0,0:0:0:0:
272,148,134527,1,2,0:0:0:0:
272,148,134685,1,2,0:0:0:0:
272,148,134843,1,0,0:0:0:0:
272,148,135159,1,0,0:0:0:0:
272,148,135317,1,0,0:0:0:0:
272,148,135475,1,2,0:0:0:0:
272,148,135791,1,0,0:0:0:0:
272,148,136106,1,2,0:0:0:0:
272,148,136422,1,0,0:0:0:0:
272,148,136580,1,0,0:0:0:0:
272,148,136738,1,0,0:0:0:0:
272,148,137054,1,2,0:0:0:0:
272,148,137212,1,2,0:0:0:0:
272,148,137370,1,0,0:0:0:0:
272,148,137685,1,2,0:0:0:0:
272,148,137843,1,0,0:0:0:0:
272,148,138001,1,2,0:0:0:0:
272,148,138633,1,0,0:0:0:0:
272,148,138948,1,0,0:0:0:0:
272,148,139106,1,0,0:0:0:0:
272,148,139264,1,2,0:0:0:0:
272,148,139422,1,0,0:0:0:0:
272,148,139580,1,2,0:0:0:0:
272,148,139896,1,4,0:0:0:0:
272,148,140212,1,2,0:0:0:0:
272,148,140370,1,2,0:0:0:0:
272,148,140527,1,0,0:0:0:0:
272,148,140843,1,2,0:0:0:0:
272,148,141159,1,0,0:0:0:0:
272,148,141317,1,2,0:0:0:0:
272,148,141475,1,0,0:0:0:0:
272,148,141633,1,0,0:0:0:0:
272,148,141791,1,2,0:0:0:0:
272,148,142422,1,0,0:0:0:0:
272,148,142738,1,2,0:0:0:0:
272,148,142896,1,2,0:0:0:0:
272,148,143054,1,0,0:0:0:0:
272,148,143370,1,2,0:0:0:0:
272,148,143685,1,0,0:0:0:0:
272,148,143843,1,2,0:0:0:0:
272,148,144001,1,2,0:0:0:0:
272,148,144159,1,0,0:0:0:0:
272,148,144317,1,2,0:0:0:0:
272,148,144633,1,2,0:0:0:0:
272,148,144948,1,0,0:0:0:0:
272,148,145264,1,2,0:0:0:0:
272,148,145422,1,2,0:0:0:0:
272,148,145580,1,0,0:0:0:0:
272,148,145896,1,2,0:0:0:0:
374,74,146212,1,0,0:0:0:0:
272,132,146370,1,2,0:0:0:0:
272,132,146527,1,0,0:0:0:0:
272,132,146685,1,0,0:0:0:0:
272,132,146843,1,0,0:0:0:0:
272,132,147159,1,2,0:0:0:0:
272,132,147475,1,0,0:0:0:0:
272,132,147791,1,2,0:0:0:0:
272,132,147948,1,2,0:0:0:0:
272,132,148106,1,0,0:0:0:0:
272,132,148422,1,2,0:0:0:0:
161,105,148738,1,0,0:0:0:0:
272,132,148896,1,2,0:0:0:0:
272,132,149054,1,0,0:0:0:0:
272,132,149212,1,0,0:0:0:0:
272,132,149370,1,0,0:0:0:0:
272,132,149685,1,0,0:0:0:0:
272,132,150001,1,4,0:0:0:0:
272,132,150317,1,0,0:0:0:0:
272,132,150475,1,0,0:0:0:0:
272,132,150633,1,2,0:0:0:0:
272,132,150948,1,0,0:0:0:0:
272,132,151264,1,0,0:0:0:0:
272,132,151422,1,2,0:0:0:0:
272,132,151580,1,0,0:0:0:0:
272,132,151738,1,0,0:0:0:0:
272,132,151896,1,2,0:0:0:0:
272,132,152527,1,0,0:0:0:0:
272,132,152843,1,2,0:0:0:0:
272,132,153001,1,2,0:0:0:0:
272,132,153159,1,0,0:0:0:0:
272,132,153475,1,2,0:0:0:0:
272,132,153791,1,0,0:0:0:0:
272,132,153948,1,2,0:0:0:0:
272,132,154106,1,0,0:0:0:0:
272,132,154264,1,0,0:0:0:0:
272,132,154422,1,2,0:0:0:0:
272,132,154738,1,2,0:0:0:0:
272,132,155054,1,0,0:0:0:0:
272,132,155370,1,2,0:0:0:0:
272,132,155527,1,2,0:0:0:0:
272,132,155685,1,0,0:0:0:0:
272,132,156001,1,2,0:0:0:0:
272,132,156317,1,0,0:0:0:0:
272,132,156475,1,2,0:0:0:0:
272,132,156633,1,0,0:0:0:0:
272,132,156791,1,0,0:0:0:0:
272,132,156948,1,2,0:0:0:0:
272,132,157580,1,0,0:0:0:0:
272,132,157896,1,2,0:0:0:0:
272,132,158054,1,0,0:0:0:0:
272,132,158212,1,2,0:0:0:0:
272,132,158527,1,2,0:0:0:0:
272,132,158843,1,0,0:0:0:0:
272,132,159001,1,2,0:0:0:0:
272,132,159159,1,0,0:0:0:0:
272,132,159317,1,0,0:0:0:0:
272,132,159475,1,2,0:0:0:0:
272,132,160106,1,0,0:0:0:0:
272,132,160422,1,2,0:0:0:0:
272,132,160580,1,0,0:0:0:0:
272,132,160738,1,0,0:0:0:0:
272,132,161054,1,0,0:0:0:0:
272,132,161370,1,0,0:0:0:0:
272,132,161527,1,2,0:0:0:0:
272,132,161685,1,0,0:0:0:0:
272,132,161843,1,0,0:0:0:0:
272,132,162001,1,0,0:0:0:0:
272,136,162159,1,2,0:0:0:0:
272,136,162317,1,2,0:0:0:0:
272,136,162475,1,2,0:0:0:0:
272,132,162633,1,0,0:0:0:0:
280,140,164527,1,0,0:0:0:0:
280,140,165159,1,2,0:0:0:0:
280,140,167054,1,2,0:0:0:0:
280,140,167685,1,0,0:0:0:0:
280,140,168948,1,2,0:0:0:0:
280,140,169580,1,0,0:0:0:0:
280,140,170212,1,0,0:0:0:0:
280,140,172106,1,2,0:0:0:0:
280,140,172738,1,0,0:0:0:0:
280,136,174633,1,0,0:0:0:0:
280,136,175264,1,2,0:0:0:0:
280,136,176527,1,2,0:0:0:0:
280,136,177159,1,0,0:0:0:0:
280,136,177791,1,0,0:0:0:0:
280,136,179054,1,2,0:0:0:0:
280,136,179685,1,2,0:0:0:0:
280,136,180317,1,0,0:0:0:0:
280,136,180948,1,2,0:0:0:0:
280,136,181580,1,2,0:0:0:0:
280,136,182843,1,0,0:0:0:0:
280,136,183475,1,0,0:0:0:0:
280,136,184106,1,0,0:0:0:0:
280,136,184264,1,2,0:0:0:0:
280,136,184422,1,0,0:0:0:0:
280,136,184580,1,0,0:0:0:0:
280,136,184738,1,2,0:0:0:0:
280,136,184896,1,2,0:0:0:0:
280,136,185054,1,2,0:0:0:0:
280,136,185370,1,4,0:0:0:0:
288,144,185685,1,0,0:0:0:0:
288,144,185843,1,0,0:0:0:0:
288,144,186001,1,2,0:0:0:0:
280,136,186317,1,0,0:0:0:0:
288,144,186633,1,2,0:0:0:0:
288,140,186948,1,0,0:0:0:0:
288,144,187106,1,0,0:0:0:0:
288,144,187264,1,0,0:0:0:0:
288,144,187580,1,2,0:0:0:0:
288,144,187738,1,2,0:0:0:0:
288,144,187896,1,0,0:0:0:0:
288,144,188212,1,2,0:0:0:0:
288,140,188370,1,0,0:0:0:0:
288,140,188527,1,2,0:0:0:0:
284,136,188843,1,2,0:0:0:0:
288,144,189159,1,0,0:0:0:0:
288,144,189475,1,0,0:0:0:0:
288,144,189633,1,0,0:0:0:0:
288,144,189791,1,0,0:0:0:0:
288,140,189948,1,2,0:0:0:0:
288,144,190106,1,2,0:0:0:0:
288,144,190264,1,2,0:0:0:0:
288,144,190422,1,0,0:0:0:0:
288,144,190738,1,2,0:0:0:0:
288,144,190896,1,0,0:0:0:0:
288,144,191054,1,2,0:0:0:0:
288,144,191370,1,2,0:0:0:0:
288,144,191685,1,0,0:0:0:0:
288,144,192001,1,2,0:0:0:0:
288,144,192159,1,2,0:0:0:0:
288,144,192317,1,0,0:0:0:0:
288,144,192633,1,0,0:0:0:0:
288,144,192791,1,2,0:0:0:0:
288,144,192948,1,0,0:0:0:0:
288,144,193264,1,2,0:0:0:0:
288,144,193422,1,0,0:0:0:0:
288,144,193580,1,2,0:0:0:0:
288,144,194212,1,0,0:0:0:0:
288,144,194527,1,0,0:0:0:0:
288,144,194685,1,0,0:0:0:0:
288,144,194843,1,2,0:0:0:0:
288,144,195001,1,2,0:0:0:0:
288,144,195159,1,0,0:0:0:0:
288,144,195475,1,4,0:0:0:0:
288,144,195791,1,2,0:0:0:0:
288,144,195948,1,0,0:0:0:0:
288,144,196106,1,2,0:0:0:0:
288,144,196422,1,0,0:0:0:0:
288,144,196738,1,2,0:0:0:0:
288,144,197054,1,0,0:0:0:0:
288,144,197212,1,0,0:0:0:0:
288,144,197370,1,0,0:0:0:0:
288,144,197685,1,2,0:0:0:0:
288,144,197843,1,2,0:0:0:0:
288,144,198001,1,0,0:0:0:0:
288,144,198317,1,2,0:0:0:0:
288,144,198475,1,0,0:0:0:0:
288,144,198633,1,2,0:0:0:0:
260,152,198948,1,0,0:0:0:0:
288,144,199264,1,0,0:0:0:0:
288,144,199580,1,0,0:0:0:0:
288,144,199738,1,0,0:0:0:0:
288,144,199896,1,2,0:0:0:0:
288,144,200054,1,0,0:0:0:0:
288,144,200212,1,2,0:0:0:0:
288,144,200370,1,2,0:0:0:0:
288,144,200527,1,0,0:0:0:0:
288,144,200843,1,2,0:0:0:0:
288,144,201001,1,0,0:0:0:0:
288,144,201159,1,2,0:0:0:0:
288,144,201475,1,2,0:0:0:0:
288,144,201791,1,0,0:0:0:0:
288,144,202106,1,0,0:0:0:0:
288,144,202264,1,0,0:0:0:0:
288,144,202422,1,2,0:0:0:0:
288,144,202738,1,2,0:0:0:0:
288,144,202896,1,2,0:0:0:0:
288,144,203054,1,0,0:0:0:0:
288,144,203370,1,2,0:0:0:0:
288,144,203527,1,0,0:0:0:0:
288,144,203685,1,2,0:0:0:0:
277,153,204001,1,2,0:0:0:0:
288,144,204317,1,0,0:0:0:0:
288,144,204633,1,0,0:0:0:0:
288,144,204791,1,0,0:0:0:0:
288,144,204948,1,2,0:0:0:0:
288,144,205106,1,2,0:0:0:0:
288,144,205264,1,2,0:0:0:0:
288,144,205580,1,4,0:0:0:0:
288,144,205896,1,0,0:0:0:0:
288,144,206054,1,0,0:0:0:0:
288,144,206212,1,2,0:0:0:0:
288,144,206527,1,2,0:0:0:0:
288,144,206843,1,2,0:0:0:0:
288,144,207159,1,0,0:0:0:0:
288,144,207317,1,0,0:0:0:0:
288,144,207475,1,0,0:0:0:0:
288,144,207791,1,2,0:0:0:0:
288,144,207948,1,2,0:0:0:0:
288,144,208106,1,0,0:0:0:0:
288,144,208422,1,2,0:0:0:0:
288,144,208580,1,0,0:0:0:0:
288,144,208738,1,2,0:0:0:0:
280,131,209054,1,2,0:0:0:0:
284,136,209370,1,0,0:0:0:0:
284,136,209685,1,0,0:0:0:0:
284,136,209843,1,0,0:0:0:0:
284,136,210001,1,0,0:0:0:0:
284,136,210159,1,2,0:0:0:0:
284,136,210317,1,0,0:0:0:0:
284,136,210475,1,2,0:0:0:0:
284,136,210633,1,0,0:0:0:0:
284,136,210948,1,2,0:0:0:0:
284,136,211106,1,0,0:0:0:0:
284,136,211264,1,2,0:0:0:0:
284,136,211580,1,2,0:0:0:0:
284,136,211896,1,0,0:0:0:0:
284,136,212212,1,0,0:0:0:0:
284,136,212370,1,0,0:0:0:0:
284,136,212527,1,2,0:0:0:0:
284,136,212843,1,0,0:0:0:0:
284,136,213001,1,2,0:0:0:0:
284,136,213159,1,0,0:0:0:0:
284,136,213475,1,0,0:0:0:0:
284,136,213633,1,0,0:0:0:0:
284,136,213791,1,2,0:0:0:0:
284,136,214422,1,0,0:0:0:0:
284,136,214738,1,0,0:0:0:0:
284,136,214896,1,0,0:0:0:0:
284,136,215054,1,2,0:0:0:0:
284,136,215212,1,2,0:0:0:0:
284,136,215370,1,2,0:0:0:0:
284,136,215685,1,4,0:0:0:0:
284,136,216001,1,0,0:0:0:0:
284,136,216159,1,0,0:0:0:0:
284,136,216317,1,2,0:0:0:0:
284,136,216633,1,2,0:0:0:0:
280,132,216948,1,2,0:0:0:0:
280,132,217264,1,0,0:0:0:0:
280,132,217422,1,0,0:0:0:0:
280,132,217580,1,0,0:0:0:0:
280,132,217896,1,2,0:0:0:0:
280,132,218054,1,2,0:0:0:0:
280,132,218212,1,0,0:0:0:0:
280,132,218527,1,2,0:0:0:0:
280,132,218685,1,0,0:0:0:0:
280,132,218843,1,2,0:0:0:0:
280,132,219159,1,2,0:0:0:0:
280,132,219475,1,0,0:0:0:0:
280,132,219791,1,2,0:0:0:0:
280,132,219948,1,2,0:0:0:0:
280,132,220106,1,0,0:0:0:0:
280,132,220264,1,2,0:0:0:0:
280,132,220422,1,0,0:0:0:0:
280,132,220580,1,2,0:0:0:0:
280,132,220738,1,0,0:0:0:0:
280,132,221054,1,2,0:0:0:0:
280,132,221212,1,0,0:0:0:0:
280,132,221370,1,2,0:0:0:0:
280,132,221685,1,0,0:0:0:0:
280,132,222001,1,2,0:0:0:0:
280,132,222317,1,0,0:0:0:0:
280,132,222475,1,0,0:0:0:0:
280,132,222633,1,0,0:0:0:0:
280,132,222948,1,2,0:0:0:0:
280,132,223106,1,2,0:0:0:0:
280,132,223264,1,0,0:0:0:0:
280,132,223580,1,2,0:0:0:0:
280,132,223738,1,0,0:0:0:0:
280,132,223896,1,2,0:0:0:0:
280,132,224212,1,2,0:0:0:0:
280,132,224527,1,0,0:0:0:0:
280,132,224843,1,0,0:0:0:0:
280,132,225001,1,0,0:0:0:0:
280,132,225159,1,2,0:0:0:0:
280,132,225317,1,2,0:0:0:0:
280,132,225475,1,2,0:0:0:0:
280,132,225791,1,4,0:0:0:0:
280,132,226106,1,2,0:0:0:0:
280,132,226264,1,0,0:0:0:0:
280,132,226422,1,2,0:0:0:0:
280,132,226738,1,0,0:0:0:0:
280,132,227054,1,0,0:0:0:0:
280,132,227212,1,2,0:0:0:0:
280,132,227370,1,0,0:0:0:0:
280,132,227527,1,0,0:0:0:0:
280,132,227685,1,0,0:0:0:0:
280,132,228001,1,0,0:0:0:0:
280,132,228317,1,4,0:0:0:0:
280,132,228633,1,2,0:0:0:0:
280,132,228791,1,0,0:0:0:0:
287,138,228948,1,0,0:0:0:0:
280,132,229264,1,2,0:0:0:0:
280,132,229580,1,0,0:0:0:0:
280,132,229738,1,2,0:0:0:0:
280,132,229896,1,2,0:0:0:0:
280,132,230212,1,2,0:0:0:0:
280,132,230370,1,2,0:0:0:0:
280,132,230527,1,2,0:0:0:0:
280,132,230685,1,2,0:0:0:0:
272,124,230843,1,0,0:0:0:0:
280,132,231159,1,2,0:0:0:0:
280,132,231317,1,0,0:0:0:0:
272,124,231475,1,0,0:0:0:0:
280,132,231791,1,2,0:0:0:0:
280,119,232106,1,0,0:0:0:0:
272,128,232264,1,2,0:0:0:0:
272,124,232422,1,0,0:0:0:0:
272,128,232580,1,0,0:0:0:0:
272,128,232738,1,0,0:0:0:0:
272,128,233054,1,0,0:0:0:0:
272,124,233370,1,4,0:0:0:0:
272,128,233685,1,2,0:0:0:0:
272,128,233843,1,0,0:0:0:0:
246,117,234001,5,0,0:0:0:0:
272,128,234317,1,2,0:0:0:0:
263,129,234633,5,0,0:0:0:0:
272,124,234791,1,2,0:0:0:0:
272,124,234948,1,0,0:0:0:0:
272,128,235106,1,0,0:0:0:0:
272,128,235264,1,2,0:0:0:0:
272,128,235422,1,0,0:0:0:0:
272,128,235580,1,2,0:0:0:0:
272,128,235896,1,4,0:0:0:0:
272,124,236212,1,2,0:0:0:0:
272,124,236370,1,0,0:0:0:0:
272,124,236527,1,2,0:0:0:0:
272,128,236843,1,2,0:0:0:0:
272,128,237159,1,0,0:0:0:0:
272,128,237317,1,2,0:0:0:0:
272,128,237475,1,0,0:0:0:0:
272,124,237633,1,0,0:0:0:0:
272,124,237791,1,0,0:0:0:0:
272,128,238422,1,4,0:0:0:0:
272,128,238738,1,2,0:0:0:0:
272,128,238896,1,2,0:0:0:0:
254,102,239054,1,0,0:0:0:0:
272,124,239370,1,2,0:0:0:0:
272,128,239843,1,2,0:0:0:0:
272,128,240001,1,0,0:0:0:0:
272,128,240159,1,0,0:0:0:0:
272,128,240317,1,2,0:0:0:0:
272,128,240475,1,2,0:0:0:0:
272,124,240633,1,2,0:0:0:0:
272,124,240791,1,2,0:0:0:0:
272,124,240948,1,0,0:0:0:0:
272,128,241264,1,2,0:0:0:0:
272,128,241422,1,0,0:0:0:0:
272,128,241580,1,2,0:0:0:0:
272,128,241896,1,2,0:0:0:0:
272,124,242370,1,2,0:0:0:0:
272,124,242527,1,0,0:0:0:0:
272,128,242685,1,0,0:0:0:0:
272,128,242843,1,0,0:0:0:0:
272,128,243475,1,0,0:0:0:0:
272,124,243791,1,2,0:0:0:0:
272,124,243948,1,0,0:0:0:0:
272,124,244106,1,0,0:0:0:0:
272,128,244422,1,2,0:0:0:0:
272,128,244896,1,2,0:0:0:0:
272,128,245054,1,0,0:0:0:0:
272,124,245212,1,0,0:0:0:0:
272,124,245370,1,0,0:0:0:0:
272,124,245527,1,2,0:0:0:0:
272,128,245685,1,2,0:0:0:0:
272,128,245843,1,2,0:0:0:0:
272,128,246001,1,4,0:0:0:0:
272,128,246633,1,0,0:0:0:0:
272,128,247264,1,0,0:0:0:0:
272,128,247580,1,2,0:0:0:0:
272,128,247896,1,0,0:0:0:0:
272,128,248212,1,2,0:0:0:0:
272,128,248527,1,0,0:0:0:0:
272,128,249791,1,0,0:0:0:0:
272,128,250422,1,0,0:0:0:0:
272,128,251054,1,2,0:0:0:0:
272,128,252317,1,0,0:0:0:0:
256,192,253580,12,0,256106,0:0:0:0:
