osu file format v14

[General]
AudioFilename: crier tout bas2.mp3
AudioLeadIn: 1000
PreviewTime: 118422
Countdown: 0
SampleSet: Soft
StackLeniency: 0.7
Mode: 0
LetterboxInBreaks: 0
EpilepsyWarning: 1
WidescreenStoryboard: 1

[Editor]
Bookmarks: 139256,141783,188554,194835,202765
DistanceSpacing: 1.46
BeatDivisor: 4
GridSize: 4
TimelineZoom: 1.1

[Metadata]
Title:Crier tout bas
TitleUnicode:Crier tout bas
Artist:Coeur de pirate
ArtistUnicode:Cœur de pirate
Creator:sheela
Version:Normale
Source:
Tags:Béatrice Martin Roses sheela901
BeatmapID:786709
BeatmapSetID:357678

[Difficulty]
HPDrainRate:4
CircleSize:3
OverallDifficulty:4
ApproachRate:5
SliderMultiplier:1.2
SliderTickRate:1

[Events]
//Background and Video events
0,0,"coeurdepiraterose.jpg",0,0
//Break Periods
2,162832,179117
//Storyboard Layer 0 (Background)
//Storyboard Layer 1 (Fail)
//Storyboard Layer 2 (Pass)
//Storyboard Layer 3 (Foreground)
//Storyboard Sound Samples

[TimingPoints]
949,631.578947368421,4,2,1,5,1,0
23685,-100,4,2,1,20,0,0
55264,-100,4,2,1,30,0,0
56527,-100,4,2,1,70,0,1
60949,-100,4,3,1,30,0,1
61106,-100,4,3,1,40,0,1
61264,-100,4,3,1,60,0,1
61422,-100,4,3,1,80,0,1
61580,-100,4,2,1,80,0,1
66001,-100,4,3,1,30,0,1
66159,-100,4,3,1,40,0,1
66317,-100,4,3,1,60,0,1
66475,-100,4,3,1,80,0,1
66633,-100,4,2,1,80,0,1
71054,-100,4,3,1,30,0,1
71212,-100,4,3,1,40,0,1
71370,-100,4,3,1,60,0,1
71527,-100,4,3,1,80,0,1
71685,-100,4,2,1,80,0,1
76106,-100,4,3,1,30,0,1
76264,-100,4,3,1,40,0,1
76422,-100,4,3,1,60,0,1
76580,-100,4,3,1,80,0,1
76738,-100,4,2,1,65,0,0
89370,-100,4,2,1,40,0,0
117159,-100,4,2,1,30,0,0
118422,-100,4,2,1,30,0,0
119054,-100,4,2,1,40,0,0
119685,-100,4,2,1,80,0,1
124106,-100,4,3,1,30,0,1
124264,-100,4,3,1,40,0,1
124422,-100,4,3,1,60,0,1
124580,-100,4,3,1,80,0,1
124738,-100,4,2,1,80,0,1
129159,-100,4,3,1,30,0,1
129317,-100,4,3,1,40,0,1
129475,-100,4,3,1,60,0,1
129633,-100,4,3,1,80,0,1
129791,-100,4,2,1,80,0,1
134212,-100,4,3,1,30,0,1
134370,-100,4,3,1,40,0,1
134527,-100,4,3,1,60,0,1
134685,-100,4,3,1,80,0,1
134843,-100,4,2,1,80,0,1
139264,-100,4,3,1,30,0,1
139422,-100,4,3,1,40,0,1
139580,-100,4,3,1,60,0,1
139738,-100,4,3,1,80,0,1
139896,-100,4,2,1,60,0,0
162633,-100,4,2,1,30,0,0
182843,-100,4,2,1,20,0,0
183475,-100,4,2,1,30,0,0
184106,-100,4,2,1,40,0,0
184422,-100,4,2,1,50,0,0
184738,-100,4,2,1,60,0,0
185054,-100,4,2,1,70,0,0
185370,-100,4,2,1,80,0,1
189791,-100,4,3,1,30,0,1
189948,-100,4,3,1,40,0,1
190106,-100,4,3,1,60,0,1
190264,-100,4,3,1,80,0,1
190422,-100,4,2,1,80,0,1
194843,-100,4,3,1,30,0,1
195001,-100,4,3,1,40,0,1
195159,-100,4,3,1,60,0,1
195317,-100,4,3,1,80,0,1
195475,-100,4,2,1,80,0,1
199896,-100,4,3,1,30,0,1
200054,-100,4,3,1,40,0,1
200212,-100,4,3,1,60,0,1
200370,-100,4,3,1,80,0,1
200527,-100,4,2,1,80,0,1
204948,-100,4,3,1,30,0,1
205106,-100,4,3,1,40,0,1
205264,-100,4,3,1,60,0,0
205422,-100,4,3,1,80,0,0
205580,-100,4,2,1,80,0,1
210001,-100,4,3,1,30,0,1
210159,-100,4,3,1,40,0,1
210317,-100,4,3,1,60,0,1
210475,-100,4,3,1,80,0,1
210633,-100,4,2,1,80,0,1
215054,-100,4,3,1,30,0,1
215212,-100,4,3,1,40,0,1
215370,-100,4,3,1,60,0,1
215527,-100,4,3,1,80,0,1
215685,-100,4,2,1,80,0,1
220106,-100,4,3,1,30,0,1
220264,-100,4,3,1,40,0,1
220422,-100,4,3,1,60,0,1
220580,-100,4,3,1,80,0,1
220738,-100,4,2,1,80,0,1
225159,-100,4,3,1,30,0,1
225317,-100,4,3,1,40,0,1
225475,-100,4,3,1,60,0,1
225633,-100,4,3,1,80,0,1
225791,-100,4,2,1,60,0,0
246001,-100,4,2,1,40,0,0
250422,-100,4,2,1,30,0,0
254212,-100,4,2,1,20,0,0
254843,-100,4,2,1,15,0,0
255475,-100,4,2,1,10,0,0
256106,-100,4,2,1,5,0,0

[Colours]
Combo1 : 245,90,114
Combo2 : 192,192,192
Combo3 : 111,96,115

[HitObjects]
183,122,949,6,0,L|79:115,2,90,2|2|0,0:3|0:3|0:0,0:0:0:0:
267,96,2212,1,0,0:0:0:0:
336,147,2527,2,0,L|385:140,2,30,2|2|2,0:3|0:3|0:3,0:0:0:0:
330,190,3001,1,2,0:3:0:0:
427,277,3475,2,0,P|332:324|217:261,1,240,2|0,0:3|0:0,0:0:0:0:
108,74,6001,6,0,P|94:126|107:170,2,90,2|2|0,0:3|0:3|0:0,0:0:0:0:
181,122,7264,1,0,0:0:0:0:
258,79,7580,2,0,L|252:28,2,30,2|2|2,0:3|0:3|0:3,0:0:0:0:
288,111,8054,1,2,0:3:0:0:
416,136,8527,2,0,B|422:170|422:170|411:198|411:198|414:259|414:259|360:218|302:244,1,240,2|0,0:3|0:0,0:0:0:0:
234,292,10106,2,0,L|243:334,2,30,2|2|2,0:3|0:3|0:3,0:0:0:0:
221,116,11054,6,0,L|130:121,2,90,2|2|0,0:3|0:3|0:0,0:0:0:0:
294,166,12317,1,0,0:0:0:0:
255,245,12633,2,0,L|199:250,2,30,2|2|2,0:3|0:3|0:3,0:0:0:0:
292,267,13106,1,2,0:3:0:0:
394,187,13580,2,0,P|437:90|339:25,1,240,2|0,0:3|0:0,0:0:0:0:
256,43,15159,2,0,L|210:42,2,30,2|2|2,0:3|0:3|0:3,0:0:0:0:
146,179,16106,6,0,P|104:201|63:198,2,90,2|2|0,0:3|0:3|0:0,0:0:0:0:
89,112,17370,1,0,0:0:0:0:
169,77,17685,2,0,L|157:23,2,30,2|2|2,0:3|0:3|0:3,0:0:0:0:
197,110,18159,1,2,0:3:0:0:
237,238,18633,2,0,L|489:214,1,240,2|0,0:3|0:0,0:0:0:0:
486,128,20212,2,0,L|491:83,2,30,2|2|2,0:3|0:3|0:3,0:0:0:0:
310,135,21159,6,0,P|321:78|318:34,2,90,2|2|0,0:3|0:3|0:0,0:0:0:0:
260,207,22422,2,0,L|184:218,1,60,0|0,0:0|0:3,0:0:0:0:
163,191,22896,2,0,L|106:188,2,30,0|0|0,0:3|0:3|0:3,0:0:0:0:
249,92,23685,6,0,P|297:76|344:92,2,90,2|2|0,0:3|0:3|0:0,0:0:0:0:
298,164,24948,1,0,0:0:0:0:
306,251,25264,2,0,L|356:247,2,30,2|2|2,0:3|0:3|0:3,0:0:0:0:
133,306,26212,2,0,P|114:272|119:220,2,90,2|2|0,0:3|0:3|0:0,0:0:0:0:
202,251,27475,1,0,0:0:0:0:
193,163,27791,2,0,L|180:115,1,30,2|2,0:3|0:3,0:0:0:0:
161,97,28106,2,0,P|123:95|102:99,1,60,2|0,0:3|0:0,0:0:0:0:
32,154,28738,6,0,P|15:115|26:58,2,90,2|2|0,0:3|0:3|0:0,0:0:0:0:
101,207,30001,1,0,0:0:0:0:
160,270,30317,2,0,L|151:314,2,30,2|2|2,0:3|0:3|0:3,0:0:0:0:
233,222,30948,1,0,0:3:0:0:
317,246,31264,2,0,L|321:154,2,90,2|2|0,0:3|0:3|0:0,0:0:0:0:
381,305,32527,1,0,0:0:0:0:
456,260,32843,2,0,L|457:219,1,30,2|2,0:3|0:3,0:0:0:0:
451,186,33159,2,0,P|443:151|451:112,1,60,2|0,0:3|0:0,0:0:0:0:
403,49,33791,6,0,P|362:38|300:48,2,90,2|2|0,0:3|0:3|0:0,0:0:0:0:
353,121,35054,1,0,0:0:0:0:
365,207,35370,2,0,L|414:200,2,30,2|2|2,0:3|0:3|0:3,0:0:0:0:
242,332,36317,2,0,P|172:351|130:353,2,90,2|2|0,0:3|0:3|0:0,0:0:0:0:
303,270,37580,1,0,0:0:0:0:
357,201,37896,2,0,L|347:161,1,30,2|2,0:3|0:3,0:0:0:0:
336,129,38212,2,0,L|342:52,1,60,2|0,0:3|0:0,0:0:0:0:
270,16,38843,6,0,P|214:3|162:7,2,90,2|2|0,0:3|0:3|0:0,0:0:0:0:
330,79,40106,1,0,0:0:0:0:
318,165,40422,2,0,L|351:183,2,30,2|2|2,0:3|0:3|0:3,0:0:0:0:
230,171,41054,1,0,0:0:0:0:
211,256,41370,2,0,P|163:290|111:292,2,90,2|2|0,0:3|0:3|0:0,0:0:0:0:
230,171,42633,1,0,0:0:0:0:
142,171,42949,2,0,L|134:209,2,30,2|2|2,0:3|0:3|0:3,0:0:0:0:
119,133,43422,1,2,0:3:0:0:
61,15,43896,6,0,L|150:22,2,90,2|2|0,0:3|0:3|0:0,0:0:0:0:
32,97,45159,2,0,P|35:141|43:167,1,60,0|2,0:0|0:3,0:0:0:0:
72,184,45633,2,0,L|110:178,1,30,2|2,0:3|0:3,0:0:0:0:
268,219,46422,2,0,L|272:323,2,90,2|2|0,0:3|0:3|0:0,0:0:0:0:
338,167,47685,2,0,P|349:108|348:95,1,60,0|2,0:0|0:3,0:0:0:0:
333,67,48159,2,0,L|301:59,1,30,2|2,0:3|0:3,0:0:0:0:
128,46,48949,6,0,P|110:97|119:142,2,90,2|2|0,0:3|0:3|0:0,0:0:0:0:
198,98,50212,2,0,L|280:94,1,60,0|2,0:0|0:3,0:0:0:0:
295,117,50685,2,0,P|299:152|299:171,1,30,2|2,0:3|0:3,0:0:0:0:
149,239,51475,2,0,P|132:183|140:146,2,90,2|2|0,0:3|0:3|0:0,0:0:0:0:
210,301,52738,1,0,0:0:0:0:
292,271,53054,2,0,L|298:320,2,30,2|2|2,0:3|0:3|0:3,0:0:0:0:
326,243,53527,1,2,0:3:0:0:
384,124,54001,6,0,P|307:108|218:156,1,180,2|0,0:3|0:0,0:0:0:0:
164,220,55264,2,0,P|111:216|90:208,1,60,0|2,3:0|0:3,0:0:0:0:
66,193,55738,2,0,L|52:151,1,30,2|0,0:3|3:0,0:0:0:0:
169,25,56527,6,0,P|227:45|287:27,1,120,4|2,3:1|0:0,0:0:0:0:
367,11,57475,1,8,0:0:0:0:
395,93,57791,2,0,P|404:146|399:167,1,60,2|8,3:0|0:0,0:0:0:0:
376,186,58264,2,0,L|321:187,1,30,2|2,0:3|0:3,0:0:0:0:
273,236,58738,2,0,L|230:235,1,30,8|0,0:0|3:0,0:0:0:0:
216,271,59054,2,0,P|166:288|91:279,1,120,4|2,3:0|0:0,0:0:0:0:
10,131,60317,1,2,0:3:0:0:
95,109,60633,1,8,0:0:0:0:
150,176,60949,2,0,L|148:217,2,30,8|8|8,0:0|0:0|0:0,0:0:0:0:
175,140,61422,1,8,0:0:0:0:
213,118,61580,6,0,P|262:105|332:126,1,120,4|2,3:0|0:0,0:0:0:0:
393,180,62527,1,8,0:0:0:0:
358,260,62843,2,0,P|309:273|239:252,1,120,2|2,0:3|0:3,0:0:0:0:
167,210,63791,1,8,0:0:0:0:
135,128,64106,2,0,L|150:-2,1,120,4|2,3:0|0:0,0:0:0:0:
325,8,65370,1,2,0:3:0:0:
314,94,65685,1,8,0:0:0:0:
401,118,66001,2,0,L|429:73,2,30,8|8|8,0:0|0:0|0:0,0:0:0:0:
384,158,66475,1,8,0:0:0:0:
362,195,66633,6,0,P|307:208|236:197,1,120,4|2,3:1|0:0,0:0:0:0:
194,128,67580,1,8,0:0:0:0:
106,123,67896,2,0,P|47:138|29:154,1,60,2|8,0:3|0:0,0:0:0:0:
39,179,68370,2,0,L|42:220,1,30,2|2,0:3|0:3,0:0:0:0:
33,297,68843,2,0,L|36:338,1,30,8|0,0:0|3:0,0:0:0:0:
71,351,69159,2,0,P|121:370|186:357,1,120,4|2,3:0|0:0,0:0:0:0:
341,279,70422,1,2,0:3:0:0:
354,192,70738,1,8,0:0:0:0:
276,148,71054,2,0,L|277:97,2,30,8|8|8,0:0|0:0|0:0,0:0:0:0:
246,180,71527,1,8,0:0:0:0:
220,215,71685,6,0,P|169:231|104:218,1,120,4|2,3:0|0:0,0:0:0:0:
33,166,72633,1,8,0:0:0:0:
41,77,72949,2,0,P|92:61|157:74,1,120,2|2,0:3|0:3,0:0:0:0:
235,109,73896,1,8,0:0:0:0:
318,83,74212,2,0,L|381:81,1,60,4|8,3:0|0:0,0:0:0:0:
392,165,74843,2,0,L|326:168,1,60,2|8,0:0|0:0,0:0:0:0:
256,211,75475,1,2,0:3:0:0:
169,222,75791,1,8,0:0:0:0:
184,308,76106,2,0,L|213:311,2,30,8|8|8,0:3|0:0|0:0,0:0:0:0:
142,323,76580,1,8,0:0:0:0:
101,338,76738,6,0,P|38:301|13:233,1,120,4|2,3:1|0:3,0:0:0:0:
15,173,77685,1,8,0:0:0:0:
39,88,78001,2,0,P|34:53|34:21,2,60,2|2|2,0:3|0:3|0:3,0:0:0:0:
125,107,78949,1,0,0:0:0:0:
209,129,79264,2,0,P|256:111|327:126,1,120,2|2,0:3|3:3,0:0:0:0:
355,204,80212,1,8,0:0:0:0:
269,201,80527,2,0,L|258:281,1,60,2|2,0:3|0:3,0:0:0:0:
280,345,81159,2,0,L|324:347,2,30,8|8|8,0:3|3:0|3:0,0:0:0:0:
236,336,81633,1,8,3:0:0:0:
193,327,81791,6,0,L|64:333,1,120,2|2,0:3|0:3,0:0:0:0:
34,161,83054,2,0,P|24:216|28:244,2,60,2|2|2,0:3|3:0|0:3,0:0:0:0:
103,107,84001,1,0,0:0:0:0:
186,81,84317,2,0,P|241:71|308:89,1,120,2|2,0:3|0:3,0:0:0:0:
375,245,85580,2,0,L|311:263,1,60,2|2,0:3|3:0,0:0:0:0:
242,220,86212,2,0,L|249:183,2,30,8|8|8,3:0|3:0|3:0,0:0:0:0:
203,241,86685,1,8,3:0:0:0:
158,247,86843,6,0,P|141:193|167:135,1,120,2|2,0:3|0:3,0:0:0:0:
327,52,88106,2,0,L|395:60,1,60,2|2,0:3|3:0,0:0:0:0:
460,11,88738,1,2,0:3:0:0:
477,179,89370,6,0,P|438:179|384:185,2,90,2|2|0,0:3|0:3|0:0,0:0:0:0:
499,264,90633,1,0,0:0:0:0:
438,327,90949,2,0,L|400:322,1,30,2|2,0:3|0:3,0:0:0:0:
368,341,91264,2,0,P|329:346|307:347,1,60,2|0,0:3|0:0,0:0:0:0:
273,266,91896,2,0,P|275:221|260:179,2,90,2|2|0,0:3|0:3|3:2,0:0:0:0:
214,331,93159,1,0,3:2:0:0:
131,300,93475,2,0,L|78:299,2,30,2|2|2,0:3|0:3|0:3,0:0:0:0:
155,263,93949,1,0,0:0:0:0:
117,137,94422,6,0,P|157:122|207:129,2,90,2|2|0,0:3|0:3|0:0,0:0:0:0:
62,206,95685,1,0,0:0:0:0:
31,123,96001,2,0,L|24:79,1,30,2|2,0:3|0:3,0:0:0:0:
41,51,96317,2,0,P|72:49|108:41,1,60,2|0,0:3|0:0,0:0:0:0:
153,112,96949,2,0,B|194:119|194:119|252:109,2,90,2|2|0,0:3|0:3|3:2,0:0:0:0:
84,60,98212,1,0,3:2:0:0:
32,130,98527,2,0,L|2:133,2,30,2|2|2,0:3|0:3|0:3,0:0:0:0:
61,162,99001,1,0,0:0:0:0:
189,195,99475,6,0,P|198:250|182:292,2,90,2|2|0,0:3|0:3|0:0,0:0:0:0:
158,112,100738,1,0,0:0:0:0:
240,82,101054,2,0,L|272:86,1,30,2|2,0:3|0:3,0:0:0:0:
302,115,101370,2,0,P|339:135|358:136,1,60,2|0,0:3|0:0,0:0:0:0:
419,196,102001,2,0,P|419:252|400:286,2,90,2|2|0,0:3|0:3|3:2,0:0:0:0:
335,222,103264,1,0,3:2:0:0:
309,305,103580,2,0,L|311:346,2,30,2|2|2,0:3|0:3|0:3,0:0:0:0:
270,282,104054,1,0,0:0:0:0:
141,253,104527,6,0,P|137:220|159:166,2,90,2|2|0,0:3|0:3|0:0,0:0:0:0:
189,326,105791,1,0,0:0:0:0:
104,348,106106,2,0,L|114:386,2,30,2|2|2,0:3|0:3|0:3,0:0:0:0:
58,273,106738,1,0,0:0:0:0:
127,225,107054,2,0,B|163:245|163:245|224:244,2,90,2|2|0,0:3|0:3|3:2,0:0:0:0:
67,160,108317,1,0,3:2:0:0:
137,108,108633,2,0,L|128:54,2,30,2|2|2,0:3|0:3|0:3,0:0:0:0:
179,118,109106,1,0,0:0:0:0:
315,113,109580,6,0,L|301:212,2,90,2|2|0,0:3|0:3|0:0,0:0:0:0:
392,70,110843,1,0,0:0:0:0:
450,136,111159,2,0,L|495:132,2,30,2|2|2,0:3|0:3|0:3,0:0:0:0:
422,219,111791,1,0,0:0:0:0:
367,287,112106,2,0,P|329:321|274:330,2,90,2|2|0,0:3|0:3|3:2,0:0:0:0:
293,239,113370,1,0,3:2:0:0:
210,268,113685,2,0,L|186:309,2,30,2|2|2,0:3|0:3|0:3,0:0:0:0:
208,223,114159,1,0,0:0:0:0:
331,179,114633,6,0,L|424:178,2,90,2|2|0,0:3|0:3|0:0,0:0:0:0:
258,228,115896,1,0,0:0:0:0:
204,297,116212,2,0,L|118:294,1,60,2|2,0:3|0:3,0:0:0:0:
26,168,117159,6,0,B|56:176|93:160|93:160|113:179|113:179|154:165|154:165|177:176|217:138|217:138|225:177,1,240,2|0,0:3|3:0,0:0:0:0:
287,224,118738,2,0,P|301:270|360:319,1,120
433,281,119685,6,0,P|444:244|451:163,1,120,4|2,3:1|0:0,0:0:0:0:
444,77,120633,1,8,0:0:0:0:
373,24,120949,2,0,P|334:18|306:18,1,60,2|8,3:0|0:0,0:0:0:0:
298,58,121422,2,0,L|253:63,1,30,2|2,0:3|0:3,0:0:0:0:
184,41,121896,2,0,L|139:46,1,30,8|0,0:0|3:0,0:0:0:0:
127,79,122212,2,0,L|138:199,1,120,4|2,3:0|0:0,0:0:0:0:
233,345,123475,1,2,0:3:0:0:
286,275,123791,1,8,0:0:0:0:
255,193,124106,2,0,L|261:163,2,30,8|8|8,0:0|0:0|0:0,0:0:0:0:
213,209,124580,1,8,0:0:0:0:
174,188,124738,6,0,P|151:144|175:69,1,120,4|2,3:0|0:0,0:0:0:0:
224,12,125685,1,8,0:0:0:0:
294,64,126001,2,0,L|427:57,1,120,2|2,0:3|0:3,0:0:0:0:
486,107,126949,1,8,0:0:0:0:
428,174,127264,2,0,P|415:216|449:292,2,120,4|2|2,3:0|0:0|0:3,0:0:0:0:
365,112,128843,1,8,0:0:0:0:
293,162,129159,2,0,L|241:165,2,30,8|8|8,0:0|0:0|0:0,0:0:0:0:
320,196,129633,1,8,0:0:0:0:
340,234,129791,6,0,P|291:266|233:259,1,120,4|2,3:1|0:0,0:0:0:0:
159,212,130738,1,8,0:0:0:0:
82,255,131054,1,2,0:3:0:0:
15,312,131370,2,0,L|20:365,2,30,8|2|2,0:0|0:3|0:3,0:0:0:0:
0,225,132001,1,8,0:0:0:0:
46,150,132317,2,0,P|41:103|26:24,2,120,4|2|2,3:0|0:0|0:3,0:0:0:0:
0,225,133896,1,8,0:0:0:0:
49,297,134212,2,0,P|35:308|29:320,2,30,8|8|8,0:0|0:0|0:0,0:0:0:0:
86,275,134685,1,8,0:0:0:0:
129,274,134843,6,0,L|246:300,1,120,4|2,3:0|0:0,0:0:0:0:
331,320,135791,1,8,0:0:0:0:
303,237,136106,2,0,L|423:214,1,120,2|2,0:3|0:3,0:0:0:0:
501,248,137054,1,8,0:0:0:0:
483,333,137370,2,0,P|442:342|370:306,1,120,4|2,3:0|0:0,0:0:0:0:
211,242,138633,1,2,0:3:0:0:
131,278,138948,1,8,0:0:0:0:
82,207,139264,2,0,L|41:205,2,30,8|8|8,0:3|0:0|0:0,0:0:0:0:
120,185,139738,1,8,0:0:0:0:
157,161,139896,6,0,P|201:148|273:163,1,120,4|2,3:1|0:3,0:0:0:0:
447,176,141159,2,0,L|454:111,2,60,2|2|2,0:3|0:3|0:3,0:0:0:0:
468,261,142106,1,0,0:0:0:0:
391,303,142422,2,0,P|356:318|319:320,1,60,2|8,0:3|0:0,0:0:0:0:
253,287,143054,2,0,L|248:214,1,60,2|8,0:3|0:0,0:0:0:0:
290,149,143685,2,0,L|375:147,1,60,2|2,0:3|0:3,0:0:0:0:
424,100,144317,2,0,P|435:126|436:160,1,60,2|0,0:3|0:0,0:0:0:0:
392,233,144948,6,0,L|268:229,1,120,2|2,0:3|0:3,0:0:0:0:
102,272,146212,2,0,P|66:280|36:274,1,60,2|2,0:3|0:3,0:0:0:0:
67,192,146843,2,0,L|60:109,1,60,2|0,0:3|0:0,0:0:0:0:
78,45,147475,2,0,P|116:33|239:99,1,180,2|8,0:3|0:0,0:0:0:0:
275,168,148738,2,0,P|310:209|324:216,2,60,2|2|2,0:3|0:3|0:3,0:0:0:0:
449,179,150001,6,0,P|445:136|490:71,2,120,4|2|2,1:3|0:3|0:3,0:0:0:0:
484,259,151580,1,2,0:3:0:0:
418,318,151896,2,0,L|358:317,1,60,2|0,0:3|0:0,0:0:0:0:
277,282,152527,2,0,P|276:241|271:215,1,60,2|8,0:3|0:0,0:0:0:0:
190,190,153159,2,0,P|189:231|184:257,1,60,2|8,0:3|0:0,0:0:0:0:
105,213,153791,2,0,L|44:208,1,60,2|2,0:3|0:3,0:0:0:0:
79,127,154422,1,2,0:3:0:0:
254,124,155054,6,0,B|251:94|251:94|256:69|256:69|241:41|246:7,2,120,2|2|2,0:3|0:3|0:3,0:0:0:0:
263,211,156633,1,2,0:3:0:0:
319,277,156948,2,0,P|356:279|383:285,1,60,2|0,0:3|0:0,0:0:0:0:
454,327,157580,2,0,P|427:283|445:216,1,120,2|2,0:3|0:3,0:0:0:0:
502,155,158527,1,8,0:0:0:0:
416,133,158843,2,0,P|405:105|404:75,1,60,2|2,0:3|0:3,0:0:0:0:
462,8,159475,1,2,0:3:0:0:
319,93,160106,6,0,L|198:100,1,120,2|2,0:3|0:3,0:0:0:0:
133,157,161054,1,8,0:0:0:0:
211,195,161370,1,2,0:3:0:0:
287,237,161685,2,0,L|297:281,1,30,2|2,0:3|0:3,0:0:0:0:
299,309,162001,2,0,L|430:312,1,120,10|0,0:3|0:0,0:0:0:0:
256,192,180317,12,0,182844,0:0:0:0:
115,316,185370,6,0,L|257:311,1,120,4|2,3:1|0:0,0:0:0:0:
321,300,186317,1,8,0:0:0:0:
383,240,186633,2,0,P|390:199|387:172,1,60,2|10,3:0|3:0,0:0:0:0:
347,165,187106,2,0,L|305:154,1,30,2|2,0:3|0:3,0:0:0:0:
231,142,187580,2,0,L|185:134,1,30,8|0,0:0|3:0,0:0:0:0:
159,147,187896,2,0,L|147:274,1,120,4|2,3:0|0:0,0:0:0:0:
304,338,189159,1,2,0:3:0:0:
390,351,189475,1,8,0:0:0:0:
413,265,189791,2,0,L|376:239,2,30,8|8|8,0:0|0:0|0:0,0:0:0:0:
456,273,190264,1,0,0:0:0:0:
481,237,190422,6,0,L|484:115,1,120,4|2,3:0|0:0,0:0:0:0:
434,44,191370,1,8,0:0:0:0:
350,81,191685,2,0,L|353:203,1,120,2|2,0:3|0:3,0:0:0:0:
295,267,192633,1,0,3:0:0:0:
221,222,192948,2,0,P|176:208|106:227,1,120,4|2,3:0|0:0,0:0:0:0:
33,272,193896,1,8,0:0:0:0:
30,184,194212,1,2,0:3:0:0:
27,96,194527,1,8,0:0:0:0:
89,34,194843,2,0,L|84:-18,2,30,8|8|8,0:0|0:0|0:0,0:0:0:0:
114,69,195317,1,8,0:0:0:0:
153,87,195475,6,0,P|203:94|274:85,1,120,4|2,3:1|0:0,0:0:0:0:
337,26,196422,1,8,0:0:0:0:
396,90,196738,2,0,L|401:173,1,60,2|8,0:3|0:0,0:0:0:0:
398,193,197212,2,0,L|401:250,1,30,2|2,0:3|0:3,0:0:0:0:
336,283,197685,2,0,L|339:340,1,30,8|0,0:0|3:0,0:0:0:0:
309,347,198001,2,0,P|229:326|189:340,1,120,4|2,3:0|0:0,0:0:0:0:
113,366,198948,1,8,0:0:0:0:
64,293,199264,1,2,0:3:0:0:
49,206,199580,1,8,0:0:0:0:
67,120,199896,2,0,L|20:116,2,30,8|8|8,0:0|0:0|0:0,0:0:0:0:
110,124,200370,1,8,0:0:0:0:
153,129,200527,6,0,P|175:179|162:241,1,120,4|2,3:0|0:0,0:0:0:0:
100,303,201475,1,8,0:0:0:0:
182,331,201791,2,0,L|303:342,1,120,2|2,0:3|0:3,0:0:0:0:
382,308,202738,1,8,0:0:0:0:
432,236,203054,2,0,P|449:180|427:122,2,120,4|2|2,3:0|0:0|0:3,0:0:0:0:
363,181,204633,1,2,0:3:0:0:
317,255,204948,2,0,L|321:304,2,30,8|8|8,0:3|0:0|0:0,0:0:0:0:
278,234,205422,1,8,0:0:0:0:
236,248,205580,6,0,L|114:262,1,120,4|2,3:1|0:0,0:0:0:0:
42,215,206527,1,8,0:0:0:0:
74,136,206843,2,0,L|136:127,1,60,2|10,3:0|0:0,0:0:0:0:
177,121,207317,2,0,L|225:115,1,30,2|2,0:3|0:3,0:0:0:0:
294,122,207791,2,0,L|342:128,1,30,8|0,0:0|3:0,0:0:0:0:
353,158,208106,2,0,P|355:220|341:286,1,120,4|2,3:0|0:0,0:0:0:0:
193,367,209370,1,2,0:3:0:0:
173,281,209685,1,8,0:0:0:0:
173,192,210001,2,0,P|136:193|124:193,2,30,8|8|8,0:0|0:0|0:0,0:0:0:0:
216,183,210475,1,8,0:0:0:0:
259,189,210633,6,0,P|332:204|385:190,1,120,4|2,3:0|0:0,0:0:0:0:
413,115,211580,1,8,0:0:0:0:
469,181,211896,2,0,P|475:235|453:300,1,120,2|2,0:3|0:3,0:0:0:0:
281,273,213159,2,0,P|225:256|167:274,2,120,4|2|2,3:0|0:0|0:3,0:0:0:0:
348,329,214738,1,8,0:0:0:0:
374,245,215054,2,0,L|403:248,2,30,8|8|8,3:0|0:0|0:0,0:0:0:0:
342,214,215527,1,8,0:0:0:0:
311,183,215685,6,0,P|275:170|193:184,1,120,4|2,3:1|0:0,0:0:0:0:
122,230,216633,1,8,0:0:0:0:
58,290,216948,2,0,P|36:257|33:212,1,60,2|8,0:3|0:0,0:0:0:0:
29,193,217422,2,0,L|38:137,1,30,2|2,0:3|0:3,0:0:0:0:
115,129,217896,2,0,L|124:185,1,30,8|0,0:0|3:0,0:0:0:0:
157,181,218212,2,0,P|210:172|275:190,1,120,4|2,3:0|0:0,0:0:0:0:
437,248,219475,1,2,0:3:0:0:
361,292,219791,1,8,0:0:0:0:
281,332,220106,2,0,L|280:375,2,30,8|8|8,0:0|0:0|0:0,0:0:0:0:
263,291,220580,1,8,0:0:0:0:
221,275,220738,6,0,P|208:229|234:154,1,120,4|2,3:0|0:0,0:0:0:0:
312,134,221685,1,8,0:0:0:0:
257,65,222001,2,0,L|133:73,1,120,2|2,0:3|0:3,0:0:0:0:
49,76,222948,1,8,0:0:0:0:
20,158,223264,2,0,L|26:282,1,120,4|2,3:0|0:0,0:0:0:0:
96,330,224212,1,8,0:0:0:0:
156,266,224527,1,2,0:3:0:0:
243,260,224843,1,2,0:3:0:0:
310,316,225159,2,0,L|318:363,2,30,8|8|8,0:3|0:0|0:0,0:0:0:0:
323,274,225633,1,8,0:0:0:0:
337,232,225791,6,0,L|318:114,1,120,4|2,3:1|0:3,0:0:0:0:
157,43,227054,2,0,P|157:80|151:107,1,60,2|2,0:3|0:3,0:0:0:0:
78,146,227685,2,0,P|78:183|84:210,1,60,2|8,0:3|0:0,0:0:0:0:
145,260,228317,2,0,L|235:242,2,90,4|4|12,0:3|0:3|0:3,0:0:0:0:
87,326,229580,1,2,0:3:0:0:
165,365,229896,1,6,0:3:0:0:
250,343,230212,2,0,L|297:348,1,30,8|8,3:0|3:0,0:0:0:0:
321,360,230527,2,0,L|368:365,1,30,12|8,3:0|3:0,0:0:0:0:
385,332,230843,6,0,P|376:288|388:211,1,120,2|2,0:3|0:3,0:0:0:0:
441,146,231791,1,8,0:0:0:0:
366,102,232106,2,0,P|318:119|245:97,1,120,2|2,0:3|0:3,0:0:0:0:
91,60,233370,2,0,L|80:151,2,90,4|4|12,0:3|0:3|0:3,0:0:0:0:
172,27,234633,1,2,0:3:0:0:
221,99,234948,2,0,L|228:149,2,30,6|2|8,0:3|0:3|0:3,0:0:0:0:
279,33,235580,1,12,0:3:0:0:
333,102,235896,6,0,P|360:175|338:224,1,120,2|2,0:3|0:3,0:0:0:0:
296,282,236843,1,8,0:0:0:0:
210,271,237159,2,0,L|147:274,1,60,2|2,0:3|0:3,0:0:0:0:
112,194,237791,2,0,L|173:191,1,60,2|8,0:3|0:0,0:0:0:0:
234,130,238422,6,0,P|248:80|240:35,2,90,4|4|12,0:3|0:3|0:3,0:0:0:0:
290,197,239685,2,0,P|328:191|357:193,1,60,2|6,0:3|0:3,0:0:0:0:
377,275,240317,2,0,L|379:322,1,30,8|8,3:0|3:0,0:0:0:0:
338,323,240633,2,0,L|291:325,1,30,12|8,3:0|3:0,0:0:0:0:
262,317,240948,6,0,L|134:337,1,120,2|0,0:3|0:0,0:0:0:0:
64,298,241896,1,8,0:0:0:0:
125,237,242212,2,0,P|139:197|136:170,1,60,0|2,0:0|0:3,0:0:0:0:
135,92,242843,2,0,P|162:94|193:109,1,60,2|0,0:3|0:0,0:0:0:0:
240,181,243475,2,0,P|295:159|327:96,1,120,2|0,0:3|0:0,0:0:0:0:
330,21,244422,1,8,0:0:0:0:
406,63,244738,2,0,P|441:68|468:68,1,60,0|2,0:0|0:3,0:0:0:0:
483,153,245370,2,0,P|455:153|421:159,1,60,2|2,0:3|3:0,0:0:0:0:
395,191,245843,1,2,3:0:0:0:
369,224,246001,6,0,B|341:239|301:224|301:224|265:242|265:242|217:216|161:232|161:232|123:228|101:208|91:175|98:144|118:112,1,360,4|0,1:0|0:0,0:0:0:0:
224,14,248527,2,0,B|239:61|217:121|217:121|261:117|261:117|278:126|278:126|321:114|360:137|360:137|402:117|464:134,1,360,0|0,0:0|0:0,0:0:0:0:
435,299,251054,2,0,P|373:315|286:246,1,180,0|0,0:0|0:0,0:0:0:0:
241,174,252317,2,0,L|256:362,1,180,0|0,0:0|0:0,0:0:0:0:
172,328,253580,6,0,B|165:260|165:260|149:229|149:229|156:186|156:186|124:138|69:122|69:122|122:107|140:54|140:54|190:78|219:37|268:62,1,480,0|0,0:0|0:0,0:0:0:0:
