osu file format v14

[General]
AudioFilename: crier tout bas2.mp3
AudioLeadIn: 1000
PreviewTime: 118422
Countdown: 0
SampleSet: Soft
StackLeniency: 0.7
Mode: 3
LetterboxInBreaks: 0
EpilepsyWarning: 1
SpecialStyle: 0
WidescreenStoryboard: 1

[Editor]
DistanceSpacing: 1.6
BeatDivisor: 8
GridSize: 4
TimelineZoom: 1.9

[Metadata]
Title:Crier tout bas
TitleUnicode:Crier tout bas
Artist:Coeur de pirate
ArtistUnicode:Cœur de pirate
Creator:sheela
Version:NM
Source:
Tags:Béatrice Martin Roses sheela901
BeatmapID:821278
BeatmapSetID:357678

[Difficulty]
HPDrainRate:7
CircleSize:4
OverallDifficulty:7
ApproachRate:8.5
SliderMultiplier:1.4
SliderTickRate:1

[Events]
//Background and Video events
0,0,"coeurdepiraterose.jpg",0,0
//Break Periods
//Storyboard Layer 0 (Background)
//Storyboard Layer 1 (Fail)
//Storyboard Layer 2 (Pass)
//Storyboard Layer 3 (Foreground)
//Storyboard Sound Samples

[TimingPoints]
949,631.578947368421,4,2,1,5,1,0
23685,-100,4,2,1,20,0,0
55264,-100,4,2,1,40,0,0
55896,-100,4,2,1,50,0,0
56527,-100,4,2,1,70,0,1
60949,-100,4,3,1,30,0,1
61106,-100,4,3,1,40,0,1
61264,-100,4,3,1,60,0,1
61422,-100,4,3,1,80,0,1
61580,-100,4,2,1,80,0,1
66001,-100,4,3,1,30,0,1
66159,-100,4,3,1,40,0,1
66317,-100,4,3,1,60,0,1
66475,-100,4,3,1,80,0,1
66633,-100,4,2,1,80,0,1
71054,-100,4,3,1,30,0,1
71212,-100,4,3,1,40,0,1
71370,-100,4,3,1,60,0,1
71527,-100,4,3,1,80,0,1
71685,-100,4,2,1,80,0,1
76106,-100,4,3,1,30,0,1
76264,-100,4,3,1,40,0,1
76422,-100,4,3,1,60,0,1
76580,-100,4,3,1,80,0,1
76738,-100,4,2,1,65,0,0
89370,-100,4,2,1,40,0,0
117159,-100,4,2,1,30,0,0
118422,-100,4,2,1,40,0,0
119054,-100,4,2,1,60,0,0
119685,-100,4,2,1,80,0,1
124106,-100,4,3,1,30,0,1
124264,-100,4,3,1,40,0,1
124422,-100,4,3,1,60,0,1
124580,-100,4,3,1,80,0,1
124738,-100,4,2,1,80,0,1
129159,-100,4,3,1,30,0,1
129317,-100,4,3,1,40,0,1
129475,-100,4,3,1,60,0,1
129633,-100,4,3,1,80,0,1
129791,-100,4,2,1,80,0,1
134212,-100,4,3,1,30,0,1
134370,-100,4,3,1,40,0,1
134527,-100,4,3,1,60,0,1
134685,-100,4,3,1,80,0,1
134843,-100,4,2,1,80,0,1
139264,-100,4,3,1,30,0,1
139422,-100,4,3,1,40,0,1
139580,-100,4,3,1,60,0,1
139738,-100,4,3,1,80,0,1
139896,-100,4,2,1,60,0,0
162633,-100,4,2,1,30,0,0
182843,-100,4,2,1,20,0,0
183475,-100,4,2,1,30,0,0
184106,-100,4,2,1,40,0,0
184422,-100,4,2,1,50,0,0
184738,-100,4,2,1,60,0,0
185054,-100,4,2,1,70,0,0
185370,-100,4,2,1,80,0,1
189791,-100,4,3,1,30,0,1
189948,-100,4,3,1,40,0,1
190106,-100,4,3,1,60,0,1
190264,-100,4,3,1,80,0,1
190422,-100,4,2,1,80,0,1
194843,-100,4,3,1,30,0,1
195001,-100,4,3,1,40,0,1
195159,-100,4,3,1,60,0,1
195317,-100,4,3,1,80,0,1
195475,-100,4,2,1,80,0,1
199896,-100,4,3,1,30,0,1
200054,-100,4,3,1,40,0,1
200212,-100,4,3,1,60,0,1
200370,-100,4,3,1,80,0,1
200527,-100,4,2,1,80,0,1
204948,-100,4,3,1,30,0,1
205106,-100,4,3,1,40,0,1
205264,-100,4,3,1,60,0,0
205422,-100,4,3,1,80,0,0
205580,-100,4,2,1,80,0,1
210001,-100,4,3,1,30,0,1
210159,-100,4,3,1,40,0,1
210317,-100,4,3,1,60,0,1
210475,-100,4,3,1,80,0,1
210633,-100,4,2,1,80,0,1
215054,-100,4,3,1,30,0,1
215212,-100,4,3,1,40,0,1
215370,-100,4,3,1,60,0,1
215527,-100,4,3,1,80,0,1
215685,-100,4,2,1,80,0,1
220106,-100,4,3,1,30,0,1
220264,-100,4,3,1,40,0,1
220422,-100,4,3,1,60,0,1
220580,-100,4,3,1,80,0,1
220738,-100,4,2,1,80,0,1
225159,-100,4,3,1,30,0,1
225317,-100,4,3,1,40,0,1
225475,-100,4,3,1,60,0,1
225633,-100,4,3,1,80,0,1
225791,-100,4,2,1,60,0,0
246001,-100,4,2,1,40,0,0
250738,-100,4,2,1,30,0,0
254212,-100,4,2,1,20,0,0
254843,-100,4,2,1,15,0,0
255475,-100,4,2,1,10,0,0
256106,-100,4,2,1,5,0,0

[Colours]
Combo1 : 245,90,114
Combo2 : 192,192,192
Combo3 : 54,54,54

[HitObjects]
64,192,949,5,2,0:3:0:40:
448,192,949,1,0,0:0:0:20:
192,192,1422,1,2,0:3:0:40:
64,192,1896,128,0,2212:0:0:0:20:
320,192,2212,1,0,0:0:0:20:
192,192,2527,1,2,0:3:0:40:
320,192,2685,1,2,0:3:0:40:
448,192,2843,1,2,0:3:0:40:
192,192,3001,128,2,3475:0:3:0:40:
448,192,3475,1,2,0:3:0:40:
64,192,3475,1,0,0:0:0:40:
192,192,3948,1,2,0:3:0:40:
448,192,4738,1,0,0:0:0:10:
64,192,6001,1,2,0:3:0:40:
192,192,6001,1,0,0:0:0:20:
320,192,6475,1,2,0:3:0:40:
448,192,6949,128,0,7264:0:0:0:20:
64,192,7264,1,0,0:0:0:20:
320,192,7580,1,2,0:3:0:40:
192,192,7738,1,2,0:3:0:40:
448,192,7896,1,2,0:3:0:40:
192,192,8054,128,2,8527:0:3:0:40:
320,192,8527,1,2,0:3:0:40:
448,192,8527,1,0,0:0:0:20:
192,192,9001,1,2,0:3:0:40:
64,192,9791,128,0,10106:0:0:0:10:
448,192,10106,1,2,0:3:0:40:
320,192,10264,1,2,0:3:0:40:
192,192,10422,1,2,0:3:0:40:
64,192,11054,1,2,0:3:0:40:
448,192,11054,1,0,0:0:0:20:
320,192,11527,1,2,0:3:0:40:
192,192,12001,1,0,0:0:0:20:
320,192,12317,1,0,0:0:0:20:
448,192,12633,1,2,0:3:0:40:
320,192,12791,1,2,0:3:0:40:
192,192,12949,1,2,0:3:0:40:
64,192,13106,128,2,13580:3:0:0:40:
320,192,13580,1,2,0:3:0:40:
448,192,13580,1,0,0:0:0:40:
192,192,14054,1,2,0:3:0:40:
320,192,14843,1,0,0:0:0:10:
192,192,15159,1,2,0:3:0:40:
64,192,15317,1,2,0:3:0:40:
448,192,15475,1,2,0:3:0:40:
320,192,16106,1,2,0:3:0:40:
192,192,16106,1,0,0:0:0:40:
64,192,16580,1,2,0:3:0:40:
192,192,17054,128,0,17370:0:0:0:20:
320,192,17370,1,0,0:0:0:20:
64,192,17685,1,2,0:3:0:40:
192,192,17843,1,2,0:3:0:40:
448,192,18001,1,2,0:3:0:40:
320,192,18159,128,2,18633:0:3:0:40:
192,192,18633,1,2,0:3:0:40:
64,192,18633,1,0,0:0:0:40:
448,192,19106,1,2,0:3:0:40:
64,192,19896,128,0,20212:0:0:0:10:
192,192,20212,1,2,0:3:0:40:
448,192,20370,1,2,0:3:0:40:
320,192,20527,1,2,0:3:0:40:
64,192,21159,1,2,0:3:0:40:
192,192,21633,1,2,0:3:0:40:
320,192,22106,128,0,22422:0:0:0:20:
192,192,22422,1,0,0:0:0:20:
448,192,22738,1,0,3:2:0:20:
192,192,22896,1,0,3:2:0:20:
320,192,23054,1,0,3:2:0:20:
64,192,23212,128,0,23685:0:0:0:20:
320,192,23685,1,2,0:3:0:40:
448,192,23685,1,0,0:0:0:20:
192,192,24159,1,2,0:3:0:40:
448,192,25264,1,2,0:3:0:40:
320,192,25422,1,2,0:3:0:40:
64,192,25580,128,2,26212:0:3:0:40:
448,192,26212,1,2,0:3:0:40:
192,192,26685,1,2,0:3:0:40:
320,192,27159,128,0,27475:0:0:0:40:
64,192,27475,1,0,0:0:0:40:
448,192,27791,1,2,0:3:0:40:
192,192,27948,1,2,0:3:0:40:
448,192,28106,128,2,28422:0:3:0:40:
320,192,28422,128,0,28738:0:0:0:40:
64,192,28738,1,2,0:3:0:40:
192,192,28738,1,0,0:0:0:40:
448,192,29212,1,2,0:3:0:40:
320,192,30317,1,2,0:3:0:40:
192,192,30475,1,2,3:0:0:40:
448,192,30633,128,2,30948:3:0:0:40:
64,192,30948,128,0,31264:0:0:0:40:
320,192,31264,1,2,0:3:0:40:
192,192,31264,1,0,0:0:0:40:
448,192,31738,1,2,0:3:0:40:
64,192,32212,128,0,32527:0:0:0:40:
192,192,32527,1,0,0:0:0:40:
320,192,32843,1,2,0:3:0:40:
192,192,33001,1,2,0:3:0:40:
448,192,33159,1,2,0:3:0:40:
64,192,33317,128,0,33791:0:0:0:40:
320,192,33791,1,2,0:3:0:40:
448,192,33791,1,0,0:0:0:40:
192,192,34264,1,2,0:3:0:40:
320,192,35370,1,2,0:3:0:40:
448,192,35527,1,2,0:3:0:40:
64,192,35685,128,2,36001:0:3:0:40:
448,192,36001,128,0,36317:0:0:0:40:
64,192,36317,1,2,0:3:0:40:
192,192,36317,1,0,0:0:0:40:
320,192,36791,1,2,0:3:0:40:
64,192,37264,128,0,37580:0:0:0:40:
448,192,37580,1,0,0:0:0:40:
192,192,37896,1,2,0:3:0:40:
64,192,38054,1,2,0:3:0:40:
448,192,38212,1,2,0:3:0:40:
320,192,38370,128,0,38843:0:0:0:40:
64,192,38843,1,2,0:3:0:40:
192,192,38843,1,0,0:0:0:40:
448,192,39317,1,2,0:3:0:40:
192,192,40422,1,2,0:3:0:40:
64,192,40580,1,2,0:3:0:40:
448,192,40738,128,2,41054:0:3:0:40:
64,192,41054,128,0,41370:0:0:0:40:
320,192,41370,1,2,0:3:0:40:
192,192,41370,1,0,0:0:0:40:
64,192,41843,1,2,0:3:0:40:
320,192,42317,128,0,42633:0:0:0:40:
448,192,42633,1,0,0:0:0:40:
192,192,42949,1,2,0:3:0:40:
320,192,43106,1,2,0:3:0:40:
448,192,43264,1,2,0:3:0:40:
64,192,43422,128,0,43896:0:0:0:40:
320,192,43896,1,2,0:3:0:40:
448,192,43896,1,0,0:0:0:40:
192,192,44370,1,2,0:3:0:40:
64,192,44843,1,0,0:0:0:40:
192,192,45001,1,0,0:0:0:0:
320,192,45159,1,0,0:0:0:40:
448,192,45475,1,2,0:3:0:40:
320,192,45633,1,2,0:3:0:40:
192,192,45791,1,2,3:0:0:40:
448,192,46106,1,0,0:0:0:40:
192,192,46422,1,2,0:3:0:40:
320,192,46422,1,0,0:0:0:40:
64,192,46896,1,2,0:3:0:40:
192,192,47370,128,0,47685:0:0:0:40:
448,192,47685,1,0,0:0:0:40:
64,192,48001,1,2,0:3:0:40:
448,192,48159,1,2,0:3:0:40:
320,192,48317,1,2,0:3:0:40:
192,192,48475,1,2,3:0:0:0:
64,192,48949,1,2,0:3:0:40:
448,192,48949,1,0,0:0:0:40:
192,192,49422,1,2,0:3:0:40:
320,192,50527,1,2,0:3:0:40:
64,192,50685,1,2,0:3:0:40:
448,192,50843,128,0,51475:0:0:0:40:
192,192,51475,1,2,0:3:0:40:
320,192,51475,1,0,0:0:0:40:
64,192,51949,1,2,0:3:0:40:
448,192,52422,128,0,52738:0:0:0:40:
64,192,52738,128,0,53054:0:0:0:40:
192,192,53054,1,2,0:3:0:40:
448,192,53212,1,2,0:3:0:40:
64,192,53370,1,2,0:3:0:40:
320,192,53527,1,2,0:3:0:40:
64,192,54001,1,2,0:3:0:40:
448,192,54001,1,0,0:0:0:0:
320,192,54475,1,2,0:3:0:40:
192,192,54949,128,0,56527:0:0:0:26:
448,192,54949,1,0,0:0:0:0:
64,192,55580,1,2,3:0:0:53:
320,192,55738,1,2,3:0:0:53:
448,192,55896,1,2,3:0:0:66:
448,192,56527,5,4,3:1:0:70:
64,192,56527,1,0,0:0:0:31:
320,192,56843,1,8,0:0:0:93:
192,192,57001,1,2,3:0:0:93:
448,192,57159,1,2,0:0:0:70:
320,192,57159,1,0,0:0:0:70:drum-hitwhistle.wav
64,192,57475,1,8,0:0:0:93:
192,192,57633,1,2,3:0:0:93:
320,192,57791,1,2,3:0:0:46:
64,192,58106,1,2,0:3:0:93:
192,192,58264,1,2,0:3:0:93:
448,192,58422,1,2,0:3:0:46:
320,192,58738,1,8,0:0:0:93:
192,192,58896,1,2,3:0:0:93:
64,192,59054,1,0,0:0:0:46:
192,192,59370,1,8,0:0:0:93:
320,192,59527,1,2,3:0:0:93:
448,192,59685,1,2,0:0:0:70:
64,192,59685,1,0,0:0:0:31:
320,192,60001,1,8,0:0:0:93:
192,192,60159,1,2,3:0:0:93:
320,192,60317,1,2,0:3:0:46:
192,192,60633,1,8,0:0:0:93:
448,192,60949,1,8,0:0:0:20:
64,192,61106,1,8,0:0:0:53:
192,192,61264,1,8,0:0:0:40:
448,192,61422,1,8,0:0:0:106:
320,192,61580,1,4,3:0:0:53:
192,192,61896,1,8,0:0:0:106:
320,192,62054,1,2,3:0:0:106:
448,192,62212,1,2,0:0:0:70:
64,192,62212,1,0,0:0:0:35:
320,192,62527,1,8,0:0:0:106:
64,192,62843,1,2,0:3:0:53:
192,192,63159,1,2,0:3:0:106:
64,192,63317,1,2,0:3:0:106:
448,192,63475,128,2,63791:0:3:0:53:
320,192,63791,128,8,64106:0:0:0:106:
64,192,64106,1,4,3:0:0:53:
192,192,64422,1,8,0:0:0:106:
448,192,64580,1,2,3:0:0:106:
64,192,64738,1,2,0:0:0:70:
320,192,64738,1,0,0:0:0:35:
192,192,65054,1,8,0:0:0:106:
448,192,65370,1,2,0:3:0:53:
64,192,65685,1,8,0:0:0:106:
192,192,65843,1,2,3:0:0:106:
320,192,66001,1,8,0:0:0:20:
448,192,66159,1,8,0:0:0:53:
320,192,66317,1,8,0:0:0:40:
192,192,66475,1,8,0:0:0:106:
64,192,66633,1,4,3:1:0:70:
448,192,66633,1,0,0:0:0:35:
448,192,66949,1,8,0:0:0:106:
64,192,67106,1,2,3:0:0:106:
448,192,67264,1,2,0:0:0:35:
192,192,67264,1,0,0:0:0:35:
320,192,67580,1,8,0:0:0:106:
64,192,67896,1,2,0:3:0:53:
448,192,68212,1,2,0:3:0:106:
192,192,68370,1,2,0:3:0:106:
320,192,68527,1,2,0:3:0:53:
448,192,68843,1,8,0:0:0:106:
192,192,69001,1,2,3:0:0:106:
64,192,69159,1,0,3:0:0:35:
448,192,69475,1,8,0:0:0:106:
64,192,69633,1,2,3:0:0:106:
320,192,69791,1,2,0:0:0:0:soft-hitwhistle.wav
192,192,69791,1,0,0:0:0:35:
64,192,70106,1,8,0:0:0:106:
320,192,70422,1,2,0:3:0:53:
192,192,70738,1,8,0:0:0:106:
320,192,70896,1,2,3:0:0:106:
448,192,71054,1,8,0:0:0:20:
64,192,71212,1,8,0:0:0:53:
192,192,71370,1,8,0:0:0:40:
320,192,71527,1,8,0:0:0:106:
448,192,71685,1,4,3:0:0:53:
320,192,72001,1,8,0:0:0:106:
64,192,72159,1,2,3:0:0:106:
448,192,72317,1,2,0:0:0:70:
192,192,72317,1,0,0:0:0:35:
320,192,72633,1,8,0:0:0:106:
192,192,72949,1,2,0:3:0:53:
448,192,73264,1,2,0:3:0:106:
192,192,73422,1,2,3:0:0:106:
64,192,73580,128,2,73896:0:0:0:35:
320,192,73896,128,8,74212:0:0:0:0:
448,192,74212,1,4,3:0:0:53:
64,192,74527,1,8,0:0:0:106:
192,192,74685,1,2,3:0:0:106:
448,192,74843,1,2,0:0:0:70:
320,192,74843,1,0,0:0:0:53:
64,192,75159,1,8,0:0:0:106:
192,192,75475,1,2,0:3:0:53:
448,192,75791,1,8,0:0:0:106:
320,192,75949,1,2,3:0:0:106:
192,192,76106,1,8,0:3:0:20:
320,192,76264,1,8,0:0:0:53:
64,192,76422,1,8,0:0:0:40:
448,192,76580,1,8,0:0:0:106:
192,192,76738,1,4,3:1:0:28:
320,192,76738,128,0,77370:0:0:0:28:
64,192,77054,1,8,0:0:0:86:
192,192,77212,1,2,3:0:0:86:
448,192,77370,128,2,78001:0:3:0:43:
64,192,77685,1,8,0:0:0:43:
192,192,78001,1,2,0:3:0:86:
320,192,78159,1,8,0:0:0:86:
64,192,78317,1,2,0:3:0:86:
448,192,78475,1,2,0:3:0:86:
192,192,78633,1,2,0:3:0:0:
320,192,78949,1,0,0:0:0:30:
64,192,79264,128,2,79580:0:3:0:43:
192,192,79264,1,0,0:0:0:43:
448,192,79580,1,8,0:0:0:86:
320,192,79738,1,2,3:0:0:86:
192,192,79896,128,2,80212:0:3:0:43:
320,192,80212,128,8,80527:0:0:0:86:
448,192,80527,1,2,0:3:0:43:
192,192,80685,1,8,0:0:0:86:
64,192,80843,1,2,0:3:0:43:
192,192,81001,1,2,0:3:0:86:
320,192,81159,1,8,0:3:0:43:
64,192,81317,1,8,3:0:0:86:
448,192,81475,1,8,3:0:0:43:
320,192,81633,1,8,3:0:0:86:
64,192,81791,128,2,82422:0:3:0:28:
192,192,81791,1,0,0:0:0:28:
448,192,82106,1,8,0:0:0:86:
320,192,82264,1,2,3:0:0:86:
192,192,82422,128,2,83054:0:3:0:43:
448,192,82738,1,8,0:0:0:86:
64,192,83054,1,2,0:3:0:43:
448,192,83212,1,8,0:0:0:86:
320,192,83370,1,2,3:0:0:86:
192,192,83527,1,2,3:0:0:86:
448,192,83685,128,2,84001:0:3:0:43:
64,192,83685,1,0,0:0:0:43:
192,192,84001,128,0,84317:0:0:0:30:
448,192,84317,1,2,0:3:0:43:
320,192,84317,128,0,85580:0:0:0:43:
64,192,84633,1,8,0:0:0:86:
192,192,84791,1,2,3:0:0:86:
64,192,84949,1,2,0:3:0:40:
448,192,85264,1,8,0:0:0:86:
192,192,85580,1,2,0:3:0:86:
448,192,85738,1,8,0:0:0:86:
192,192,85896,1,2,3:0:0:86:
64,192,86054,1,2,3:0:0:86:
448,192,86212,1,8,3:0:0:43:
64,192,86370,1,8,3:0:0:43:
448,192,86527,1,0,0:0:0:40:drum-hitclap.wav
64,192,86685,1,0,0:0:0:40:drum-hitclap.wav
448,192,86843,1,2,0:3:0:43:
192,192,86843,128,0,88738:0:0:0:43:
448,192,87159,1,8,0:0:0:86:
320,192,87317,1,2,3:0:0:86:
64,192,87475,1,2,0:3:0:86:
320,192,87791,1,8,0:0:0:86:
64,192,88106,1,2,0:3:0:86:
448,192,88264,1,8,0:0:0:86:
320,192,88422,1,2,3:0:0:86:
448,192,88580,1,2,3:0:0:86:
64,192,88738,128,2,89370:0:3:0:86:
448,192,89370,1,2,0:3:0:53:
192,192,89843,1,2,0:3:0:53:
192,192,90949,1,2,0:3:0:53:
64,192,91106,1,2,0:3:0:53:
448,192,91264,128,2,91896:0:3:0:53:
64,192,91896,1,2,0:3:0:26:
320,192,92370,1,2,0:3:0:53:
64,192,92843,128,0,93159:3:2:0:53:
192,192,93159,1,0,3:2:0:53:
320,192,93475,1,2,0:3:0:53:
192,192,93633,1,2,0:3:0:53:
448,192,93791,128,0,94106:0:0:0:53:
64,192,94106,128,0,94422:0:0:0:53:
320,192,94422,1,2,0:3:0:17:
192,192,94896,1,2,0:3:0:53:
320,192,96001,1,2,0:3:0:53:
192,192,96159,1,2,0:3:0:53:
64,192,96317,128,2,96633:0:3:0:53:
192,192,96633,128,0,96949:0:0:0:53:
448,192,96949,1,2,0:3:0:53:
320,192,97422,1,2,0:3:0:53:
64,192,97896,128,0,98212:3:2:0:53:
192,192,98212,1,0,3:2:0:53:
320,192,98527,1,2,0:3:0:53:
448,192,98685,1,2,0:3:0:53:
192,192,98843,128,0,99159:0:0:0:26:
64,192,99475,1,0,0:0:0:70:drum-hitwhistle.wav
448,192,99791,1,0,0:0:0:53:
192,192,99949,1,2,0:3:0:70:drum-hitwhistle.wav
64,192,101054,1,2,0:3:0:53:
192,192,101212,1,2,0:3:0:53:
448,192,101370,128,2,101685:0:3:0:53:
320,192,101685,128,0,102001:0:0:0:53:
64,192,102001,1,2,0:3:0:26:
192,192,102475,1,2,0:3:0:53:
64,192,103264,128,0,103580:0:0:0:53:
320,192,103580,1,2,0:3:0:53:
192,192,103738,1,2,0:3:0:53:
448,192,103896,128,2,104212:0:3:0:53:
320,192,104212,1,0,0:0:0:53:
64,192,104527,1,2,3:0:0:26:
192,192,105001,1,2,0:3:0:53:
320,192,106106,1,2,0:3:0:53:
192,192,106264,1,2,0:3:0:53:
64,192,106422,128,2,106738:0:3:0:53:
448,192,106738,128,0,107054:0:0:0:53:
192,192,107054,1,2,0:3:0:26:
64,192,107527,1,2,0:3:0:53:
448,192,108001,1,0,3:2:0:53:
320,192,108317,1,0,3:2:0:53:
192,192,108633,1,2,0:3:0:53:
64,192,108791,1,2,0:3:0:53:
192,192,108949,128,2,109580:0:3:0:26:
448,192,109580,1,2,0:3:0:53:
320,192,110054,1,2,0:3:0:53:
64,192,110527,1,0,0:0:0:53:
192,192,110685,1,0,0:0:0:53:
320,192,110843,1,0,0:0:0:53:
448,192,111159,1,2,0:3:0:53:
64,192,111317,1,2,0:3:0:53:
320,192,111475,1,2,0:3:0:53:
192,192,111791,1,0,0:0:0:53:
320,192,111949,1,0,0:0:0:53:
192,192,112106,1,2,0:3:0:26:
320,192,112580,1,2,0:3:0:53:
64,192,113054,1,0,3:2:0:53:
192,192,113212,1,0,0:0:0:53:
320,192,113370,1,0,3:2:0:53:
448,192,113685,1,2,0:3:0:53:
192,192,113843,1,2,0:3:0:53:
320,192,114001,1,2,0:3:0:53:
64,192,114159,128,2,114633:0:3:0:53:
192,192,114633,1,2,0:3:0:26:
448,192,115106,1,2,0:3:0:53:
64,192,115896,1,0,0:0:0:40:
320,192,116212,1,2,0:3:0:53:
448,192,116370,1,2,0:3:0:53:
192,192,116527,128,2,117159:0:3:0:53:
64,192,117159,128,2,118422:0:3:0:40:
192,192,118422,128,0,119685:0:0:0:0:
320,192,119054,128,0,119685:0:0:0:0:
448,192,119685,1,4,3:1:0:70:
64,192,119685,1,0,0:0:0:35:
192,192,120001,1,8,0:0:0:106:
320,192,120159,1,2,3:0:0:106:
448,192,120317,1,2,0:0:0:70:
192,192,120317,1,0,0:0:0:35:
320,192,120633,1,8,0:0:0:106:
192,192,120949,1,2,3:0:0:53:
64,192,121264,1,2,0:3:0:106:
192,192,121422,1,2,0:3:0:106:
320,192,121580,1,2,0:3:0:53:
448,192,121896,1,8,0:0:0:106:
64,192,122054,1,2,3:0:0:106:
192,192,122212,1,4,3:0:0:70:
448,192,122527,1,8,0:0:0:106:
192,192,122685,1,2,3:0:0:106:
320,192,122843,1,2,0:0:0:70:
64,192,122843,1,0,0:0:0:35:
448,192,123159,1,8,0:0:0:106:
192,192,123317,1,2,3:0:0:106:
64,192,123475,1,2,0:3:0:53:
320,192,123791,1,8,0:0:0:106:
64,192,123949,1,2,3:0:0:106:
192,192,124106,1,0,0:0:0:20:
320,192,124264,1,8,0:0:0:53:
64,192,124422,1,8,0:0:0:40:
448,192,124580,1,8,0:0:0:106:
192,192,124738,1,0,0:0:0:70:drum-hitwhistle.wav
448,192,125054,1,8,0:0:0:106:
192,192,125212,1,2,3:0:0:106:
320,192,125370,1,2,0:0:0:70:
64,192,125370,1,0,0:0:0:35:
448,192,125685,1,8,0:0:0:106:
192,192,126001,1,2,0:3:0:53:
448,192,126317,1,2,0:3:0:106:
64,192,126475,1,2,0:3:0:106:
320,192,126633,1,2,0:3:0:53:
448,192,126949,1,8,0:0:0:106:
192,192,127106,1,2,3:0:0:106:
64,192,127264,1,4,3:0:0:70:
448,192,127580,1,8,0:0:0:106:
320,192,127738,1,2,3:0:0:106:
192,192,127896,1,0,0:0:0:35:
64,192,127896,1,2,0:0:0:70:
320,192,128212,1,8,0:0:0:106:
192,192,128370,1,2,3:0:0:106:
320,192,128527,1,0,0:0:0:53:
448,192,128843,1,8,0:0:0:106:
320,192,129001,1,2,3:0:0:106:
64,192,129159,1,8,0:0:0:20:
192,192,129317,1,8,0:0:0:53:
320,192,129475,1,8,0:0:0:40:
448,192,129633,1,8,0:0:0:106:
64,192,129791,1,4,3:1:0:70:
192,192,129791,1,0,0:0:0:35:
448,192,130106,1,8,0:0:0:106:
64,192,130264,1,2,3:0:0:106:
320,192,130422,1,2,0:0:0:35:
192,192,130422,1,0,0:0:0:35:
64,192,130738,1,8,0:0:0:106:
320,192,131054,1,2,0:3:0:53:
448,192,131370,1,2,0:3:0:106:
320,192,131527,1,2,3:0:0:106:
192,192,131685,1,2,0:3:0:53:
448,192,132001,1,8,0:0:0:106:
64,192,132159,1,2,3:0:0:106:
320,192,132317,1,4,3:0:0:70:
448,192,132633,1,8,0:0:0:106:
192,192,132791,1,2,3:0:0:106:
64,192,132948,1,0,0:0:0:35:
320,192,132948,1,0,0:0:0:70:soft-hitwhistle.wav
192,192,133264,1,8,0:0:0:106:
448,192,133580,1,2,0:3:0:53:
192,192,133896,1,8,0:0:0:106:
64,192,134054,1,2,3:0:0:106:
448,192,134212,1,8,0:0:0:20:
192,192,134370,1,8,0:0:0:53:
320,192,134527,1,8,0:0:0:40:
448,192,134685,1,8,0:0:0:106:
64,192,134843,1,4,3:0:0:53:
448,192,135159,1,8,0:0:0:106:
64,192,135317,1,2,3:0:0:106:
192,192,135475,1,2,0:0:0:70:soft-hitwhistle.wav
320,192,135475,1,0,0:0:0:35:
448,192,135791,1,8,0:0:0:106:
64,192,136106,1,0,0:0:0:53:
320,192,136422,1,2,0:3:0:106:
448,192,136580,1,2,0:3:0:106:
192,192,136738,128,2,137054:0:3:0:53:
320,192,137054,1,8,0:0:0:106:
448,192,137212,1,2,3:0:0:106:
64,192,137370,1,4,3:0:0:53:
320,192,137685,1,8,0:0:0:106:
64,192,137843,1,2,3:0:0:106:
192,192,138001,1,2,0:0:0:70:
448,192,138001,1,0,0:0:0:35:
320,192,138317,1,8,0:0:0:106:
192,192,138633,1,2,0:3:0:53:
64,192,138948,1,8,0:0:0:106:
192,192,139106,1,2,3:0:0:106:
448,192,139264,1,8,0:3:0:20:
320,192,139422,1,8,0:0:0:53:
192,192,139580,1,8,0:0:0:40:
64,192,139738,1,8,0:0:0:53:
448,192,139896,128,4,140527:3:1:0:26:
320,192,139896,1,0,0:0:0:26:
64,192,140212,1,8,0:0:0:80:
192,192,140370,1,2,3:0:0:80:
64,192,140527,1,2,0:3:0:40:
320,192,140527,128,0,141159:0:0:0:40:drum-hitwhistle.wav
192,192,140843,1,8,0:0:0:80:
64,192,141159,1,2,0:3:0:40:
192,192,141317,1,8,0:0:0:80:
448,192,141475,1,2,0:3:0:80:
320,192,141633,1,2,0:3:0:80:
64,192,141791,128,2,142106:0:3:0:80:
448,192,142106,1,8,0:0:0:80:
320,192,142422,1,2,0:3:0:40:
192,192,142422,1,0,0:0:0:40:
448,192,142738,1,8,0:0:0:80:
64,192,142896,1,2,0:3:0:80:
192,192,143054,1,2,0:3:0:80:
320,192,143370,1,8,0:0:0:80:
64,192,143685,1,2,0:3:0:80:
448,192,143843,1,8,0:0:0:80:
320,192,144001,1,2,0:3:0:80:
192,192,144159,1,2,0:3:0:80:
64,192,144317,128,2,144633:0:3:0:80:
448,192,144633,1,0,0:0:0:80:
320,192,144948,1,2,0:3:0:40:
192,192,144948,1,0,0:0:0:40:
64,192,145264,1,8,0:0:0:80:
448,192,145422,1,2,0:3:0:80:
192,192,145580,1,2,0:3:0:40:
320,192,145896,1,8,0:0:0:80:
64,192,146212,1,2,0:3:0:40:
320,192,146370,1,8,0:0:0:80:
448,192,146527,1,2,0:3:0:80:
320,192,146685,1,2,0:3:0:80:
192,192,146843,128,2,147159:0:3:0:80:
448,192,147159,1,0,0:0:0:80:
320,192,147475,1,2,0:3:0:40:
64,192,147475,1,0,0:0:0:40:
448,192,147791,1,8,0:0:0:80:
64,192,147948,1,2,0:3:0:80:
192,192,148106,1,2,0:3:0:80:
448,192,148422,1,8,0:0:0:80:
64,192,148738,1,2,0:3:0:80:
448,192,148896,1,8,0:0:0:80:
320,192,149054,1,2,0:3:0:80:
192,192,149212,1,2,0:3:0:80:
64,192,149370,128,2,149685:0:3:0:80:
192,192,149685,128,0,150001:0:0:0:80:
448,192,150001,128,4,151264:1:3:0:26:
320,192,150001,1,0,0:0:0:26:
64,192,150317,1,8,0:0:0:80:
192,192,150475,1,2,0:3:0:80:
320,192,150633,1,2,0:3:0:40:
192,192,150948,1,8,0:0:0:80:
320,192,151264,1,2,0:3:0:40:
64,192,151422,1,8,0:0:0:80:
448,192,151580,1,2,0:3:0:80:
320,192,151738,1,2,0:3:0:80:
192,192,151896,128,2,152212:0:3:0:80:
448,192,152212,1,0,0:0:0:80:
64,192,152527,1,2,0:3:0:60:drum-hitwhistle.wav
448,192,152843,1,8,0:0:0:80:
192,192,153001,1,2,0:3:0:80:
320,192,153159,1,2,0:3:0:40:
448,192,153475,1,8,0:0:0:80:
64,192,153791,1,2,0:3:0:40:
448,192,153948,1,8,0:0:0:80:
320,192,154106,1,2,0:3:0:80:
192,192,154264,1,2,0:3:0:80:
320,192,154422,128,2,154738:0:3:0:80:
64,192,154738,1,0,0:0:0:80:
448,192,155054,1,2,0:3:0:40:
64,192,155370,1,8,0:0:0:80:
320,192,155527,1,2,0:3:0:80:
192,192,155685,1,2,0:3:0:40:
320,192,156001,1,8,0:0:0:80:
448,192,156317,1,2,0:3:0:40:
64,192,156475,1,8,0:0:0:80:
320,192,156633,1,2,0:3:0:80:
192,192,156791,1,2,0:3:0:80:
64,192,156948,128,2,157264:0:3:0:80:
448,192,157264,1,0,0:0:0:80:
192,192,157580,1,2,0:3:0:40:
448,192,157896,1,8,0:0:0:80:
320,192,158054,1,2,0:3:0:80:
64,192,158212,1,2,0:3:0:40:
320,192,158527,1,8,0:0:0:80:
192,192,158843,1,2,0:3:0:40:
448,192,159001,1,8,0:0:0:80:
320,192,159159,1,2,0:3:0:80:
192,192,159317,1,2,0:3:0:80:
320,192,159475,128,2,159791:0:3:0:80:
64,192,159791,1,0,0:0:0:80:
320,192,160106,1,2,0:3:0:40:
448,192,160422,1,8,0:0:0:80:
64,192,160580,1,2,0:3:0:80:
192,192,160738,1,2,0:3:0:40:
448,192,161054,1,8,0:0:0:80:
64,192,161370,1,2,0:3:0:80:
320,192,161527,1,8,0:0:0:40:
192,192,161685,1,2,0:3:0:80:
448,192,161843,1,2,0:3:0:80:
64,192,162001,1,10,0:3:0:40:
192,192,162159,1,8,3:0:0:40:
320,192,162317,1,8,3:0:0:40:
192,192,162475,1,8,3:0:0:40:
448,192,162633,1,0,0:0:0:40:
448,192,164527,128,0,165159:0:0:0:10:
320,192,165159,128,0,167054:0:0:0:10:
64,192,165159,1,0,0:0:0:10:
192,192,167054,1,0,0:0:0:10:
64,192,167764,128,0,170370:0:0:0:10:
448,192,168948,1,0,0:0:0:10:
192,192,169659,1,0,0:0:0:10:
448,192,170370,128,0,172106:0:0:0:10:
320,192,170370,1,0,0:0:0:10:
192,192,172106,1,0,0:0:0:10:
320,192,172738,128,0,174633:0:0:0:10:
448,192,174633,1,0,0:0:0:10:
320,192,175264,1,0,0:0:0:10:
64,192,175264,128,0,176567:0:0:0:10:
448,192,176567,1,0,0:0:0:10:
64,192,177159,1,0,0:0:0:10:
192,192,177791,1,0,0:0:0:10:
448,192,177791,128,0,179054:0:0:0:10:
320,192,179054,1,0,0:0:0:10:
64,192,179685,1,0,0:0:0:10:
192,192,180396,1,0,0:0:0:10:
448,192,180396,128,0,182212:0:0:0:10:
320,192,181027,1,0,0:0:0:10:
192,192,181580,1,0,0:0:0:10:
64,192,182843,128,0,183475:3:0:0:15:
192,192,183475,128,0,184106:3:0:0:15:
448,192,184106,128,0,185370:3:0:0:53:
320,192,184738,128,0,185370:3:0:0:80:
64,192,185370,1,4,3:1:0:70:
192,192,185370,1,0,0:0:0:35:
448,192,185685,1,8,0:0:0:106:
192,192,185843,1,2,3:0:0:106:
448,192,186001,1,0,0:0:0:35:
64,192,186001,1,0,0:0:0:35:
320,192,186317,1,8,0:0:0:106:
192,192,186475,1,2,3:0:0:106:
64,192,186633,1,2,3:0:0:53:
448,192,186948,1,2,3:0:0:106:
192,192,187106,1,2,3:0:0:106:
320,192,187264,1,0,0:0:0:50:drum-hitwhistle.wav
64,192,187580,1,8,0:0:0:106:
192,192,187738,1,2,3:0:0:106:
448,192,187896,1,0,0:0:0:53:
320,192,188212,1,8,0:0:0:106:
64,192,188370,1,2,3:0:0:106:
192,192,188527,1,2,0:0:0:70:
448,192,188527,1,0,0:0:0:35:
64,192,188843,1,8,0:0:0:106:
320,192,189001,1,2,3:0:0:106:
192,192,189159,1,0,0:0:0:53:
320,192,189475,1,8,0:0:0:106:
64,192,189633,1,2,3:0:0:106:
448,192,189791,1,0,0:0:0:20:
64,192,189948,1,8,0:0:0:53:
192,192,190106,1,0,0:0:0:40:
320,192,190264,1,8,0:0:0:106:
64,192,190422,1,4,3:0:0:70:
320,192,190738,1,8,0:0:0:106:
192,192,190896,1,2,3:0:0:106:
448,192,191054,1,0,0:0:0:70:soft-hitwhistle.wav
320,192,191054,1,0,0:0:0:35:
64,192,191370,1,8,0:0:0:106:
320,192,191527,1,2,3:0:0:106:
192,192,191685,1,0,0:0:0:53:
64,192,192001,1,2,3:0:0:106:
320,192,192159,1,2,3:0:0:106:
448,192,192317,1,2,3:0:0:53:
320,192,192633,1,8,0:0:0:106:
64,192,192791,1,2,3:0:0:106:
192,192,192948,1,0,0:0:0:53:
448,192,193264,1,8,0:0:0:106:
192,192,193422,1,2,3:0:0:106:
320,192,193580,1,2,0:0:0:70:
64,192,193580,1,0,0:0:0:35:
448,192,193896,1,8,0:0:0:106:
320,192,194054,1,2,3:0:0:106:
192,192,194212,1,0,0:0:0:53:
448,192,194527,1,8,0:0:0:106:
64,192,194685,1,2,3:0:0:106:
320,192,194843,1,0,0:0:0:20:
192,192,195001,1,8,0:0:0:53:
320,192,195159,1,0,0:0:0:40:
64,192,195317,1,8,0:0:0:106:
448,192,195475,1,4,3:1:0:70:
192,192,195475,1,0,0:0:0:35:
64,192,195791,1,8,0:0:0:106:
192,192,195948,1,2,3:0:0:106:
320,192,196106,1,0,0:0:0:35:
448,192,196106,1,0,0:0:0:70:soft-hitwhistle.wav
448,192,196422,1,8,0:0:0:106:
320,192,196580,1,2,3:0:0:106:
192,192,196738,1,0,0:0:0:53:
64,192,197054,1,2,3:0:0:106:
192,192,197212,1,2,3:0:0:106:
448,192,197370,1,2,0:3:0:53:
320,192,197685,1,8,0:0:0:106:
64,192,197843,1,2,3:0:0:106:
192,192,198001,1,0,0:0:0:53:
448,192,198317,1,8,0:0:0:106:
192,192,198475,1,2,3:0:0:106:
448,192,198633,1,2,0:0:0:70:
64,192,198633,1,0,0:0:0:35:
320,192,198948,1,8,0:0:0:106:
192,192,199106,1,2,3:0:0:106:
64,192,199264,1,0,0:0:0:53:
192,192,199580,1,8,0:0:0:106:
320,192,199738,1,2,3:0:0:106:
448,192,199896,1,0,0:0:0:20:
64,192,200054,1,8,0:0:0:53:
448,192,200212,1,8,0:0:0:40:
64,192,200370,1,8,0:0:0:106:
192,192,200527,1,0,0:0:0:70:drum-hitwhistle.wav
448,192,200843,1,8,0:0:0:106:
64,192,201001,1,2,3:0:0:106:
192,192,201159,1,2,0:0:0:70:
320,192,201159,1,0,0:0:0:35:
64,192,201475,1,8,0:0:0:106:
192,192,201633,1,2,3:0:0:106:
320,192,201791,1,0,0:0:0:53:
448,192,202106,1,2,3:0:0:106:
320,192,202264,1,2,3:0:0:106:
192,192,202422,1,2,3:0:0:53:
448,192,202738,1,8,0:0:0:106:
64,192,202896,1,2,3:0:0:106:
320,192,203054,1,0,0:0:0:53:
64,192,203370,1,8,0:0:0:106:
320,192,203527,1,2,3:0:0:106:
448,192,203685,1,2,0:0:0:70:
64,192,203685,1,0,0:0:0:35:
320,192,204001,1,8,0:0:0:106:
192,192,204159,1,2,3:0:0:106:
448,192,204317,1,0,0:0:0:53:
320,192,204475,1,8,0:0:0:106:
64,192,204633,1,2,0:3:0:106:
192,192,204791,1,2,0:3:0:106:
448,192,204948,1,0,0:0:0:40:
192,192,205106,1,8,0:0:0:53:
320,192,205264,1,8,0:0:0:40:
64,192,205422,1,8,0:0:0:53:
448,192,205580,1,4,3:1:0:70:
192,192,205580,1,0,0:0:0:35:
320,192,205896,1,8,0:0:0:106:
64,192,206054,1,2,3:0:0:106:
448,192,206212,1,2,0:0:0:70:
192,192,206212,1,0,0:0:0:35:
448,192,206527,1,8,0:0:0:106:
320,192,206685,1,2,3:0:0:106:
64,192,206843,1,0,0:0:0:53:
320,192,207159,1,2,0:3:0:106:
448,192,207317,1,2,0:3:0:106:
192,192,207475,1,2,0:3:0:53:
448,192,207791,1,8,0:0:0:106:
192,192,207948,1,2,3:0:0:106:
64,192,208106,1,0,0:0:0:70:drum-hitwhistle.wav
448,192,208422,1,8,0:0:0:106:
64,192,208580,1,2,3:0:0:106:
320,192,208738,1,2,0:0:0:70:
192,192,208738,1,0,0:0:0:35:
448,192,209054,1,8,0:0:0:106:
320,192,209212,1,2,3:0:0:106:
192,192,209370,1,2,0:3:0:53:
64,192,209685,1,8,0:0:0:106:
192,192,209843,1,2,3:0:0:106:
448,192,210001,1,0,0:0:0:20:
64,192,210159,1,8,0:0:0:53:
320,192,210317,1,8,0:0:0:40:
448,192,210475,1,8,0:0:0:106:
64,192,210633,1,0,0:0:0:70:drum-hitwhistle.wav
320,192,210948,1,8,0:0:0:106:
192,192,211106,1,2,3:0:0:106:
448,192,211264,1,0,0:0:0:70:soft-hitwhistle.wav
320,192,211264,1,0,0:0:0:35:
448,192,211580,1,8,0:0:0:106:
320,192,211738,1,2,3:0:0:106:
192,192,211896,1,2,0:3:0:53:
64,192,212212,1,2,0:3:0:106:
192,192,212370,1,2,0:3:0:106:
320,192,212527,1,0,0:0:0:50:drum-hitwhistle.wav
448,192,212843,1,8,0:0:0:106:
320,192,213001,1,2,3:0:0:106:
192,192,213159,1,0,0:0:0:70:drum-hitwhistle.wav
448,192,213475,1,8,0:0:0:106:
64,192,213633,1,2,3:0:0:106:
320,192,213791,1,2,0:0:0:70:
448,192,213791,1,0,0:0:0:35:
64,192,214106,1,8,0:0:0:106:
192,192,214264,1,0,0:0:0:50:drum-hitwhistle.wav
320,192,214422,1,0,0:0:0:50:drum-hitwhistle.wav
320,192,214738,1,8,0:0:0:106:
192,192,214896,1,2,3:0:0:106:
64,192,215054,1,8,3:0:0:20:
320,192,215212,1,8,0:0:0:53:
192,192,215370,1,8,0:0:0:40:
448,192,215527,1,8,0:0:0:106:
64,192,215685,1,4,3:1:0:70:
192,192,215685,1,0,0:0:0:35:
448,192,216001,1,8,0:0:0:106:
192,192,216159,1,2,3:0:0:106:
448,192,216317,1,2,0:0:0:70:soft-hitwhistle.wav
64,192,216317,1,0,0:0:0:35:
448,192,216633,1,8,0:0:0:106:
320,192,216791,1,2,3:0:0:106:
192,192,216948,1,0,0:0:0:53:
64,192,217264,1,2,3:0:0:106:
448,192,217422,1,2,3:0:0:106:
320,192,217580,1,2,3:3:0:53:
448,192,217896,1,8,0:0:0:106:
64,192,218054,1,8,0:0:0:106:
192,192,218212,1,0,0:0:0:70:drum-hitwhistle.wav
320,192,218212,1,0,0:0:0:53:
64,192,218527,1,8,0:0:0:106:
192,192,218685,1,2,3:0:0:106:
320,192,218843,1,0,0:0:0:35:
448,192,218843,1,0,0:0:0:70:soft-hitwhistle.wav
448,192,219159,1,8,0:0:0:106:
320,192,219317,1,2,3:0:0:106:
192,192,219475,1,2,0:3:0:53:
64,192,219791,1,8,0:0:0:106:
192,192,219948,1,2,3:0:0:106:
320,192,220106,1,0,0:0:0:20:
192,192,220264,1,8,0:0:0:53:
448,192,220422,1,0,0:0:0:40:
64,192,220580,1,8,0:0:0:106:
320,192,220738,1,4,3:0:0:70:
448,192,221054,1,8,0:0:0:106:
192,192,221212,1,2,3:0:0:106:
64,192,221370,1,2,0:0:0:35:
320,192,221370,1,0,0:0:0:35:
448,192,221685,1,8,0:0:0:106:
320,192,221843,1,2,3:0:0:106:
192,192,222001,1,0,0:0:0:53:
64,192,222317,1,2,0:3:0:106:
320,192,222475,1,2,0:3:0:106:
192,192,222633,1,2,0:3:0:53:
448,192,222948,1,8,0:0:0:106:
192,192,223106,1,2,3:0:0:106:
64,192,223264,1,0,0:0:0:70:drum-hitwhistle.wav
448,192,223580,1,8,0:0:0:106:
192,192,223738,1,2,3:0:0:106:
320,192,223896,1,2,0:0:0:70:
448,192,223896,1,0,0:0:0:35:
64,192,224212,1,8,0:0:0:106:
192,192,224370,1,2,3:0:0:106:
448,192,224527,1,0,0:0:0:53:
320,192,224685,1,8,0:0:0:106:
192,192,224843,1,2,0:3:0:106:
64,192,225001,1,2,3:0:0:106:
448,192,225159,1,8,0:3:0:20:
64,192,225317,1,8,0:0:0:53:
320,192,225475,1,8,0:0:0:40:
448,192,225633,1,8,0:0:0:106:
320,192,225791,1,4,3:1:0:70:
64,192,225791,128,0,226264:0:0:0:20:
448,192,226106,1,8,0:0:0:80:
192,192,226264,1,2,0:3:0:80:
448,192,226422,1,2,0:3:0:40:
320,192,226738,1,8,0:0:0:80:
448,192,227054,1,2,0:3:0:40:
64,192,227212,1,8,0:0:0:80:
320,192,227370,1,2,0:3:0:80:
192,192,227527,1,2,0:3:0:80:
64,192,227685,128,2,228001:0:3:0:40:
448,192,228001,1,0,0:0:0:40:
192,192,228001,128,0,228317:0:0:0:0:
320,192,228317,1,4,0:3:0:40:
64,192,228317,1,8,0:3:0:40:
448,192,228633,1,8,0:0:0:40:
192,192,228791,1,4,0:3:0:80:
320,192,228948,1,2,0:3:0:40:
448,192,229264,1,4,0:3:0:80:
64,192,229580,1,2,0:3:0:40:
192,192,229738,1,8,0:0:0:80:
320,192,229896,1,6,0:3:0:80:
64,192,230054,1,2,0:3:0:80:
448,192,230212,1,8,3:0:0:40:
192,192,230370,1,8,0:3:0:80:
320,192,230527,1,0,0:0:0:60:drum-hitclap.wav
64,192,230685,1,8,0:3:0:80:
320,192,230843,1,2,0:3:0:26:
192,192,230843,128,0,231317:0:0:0:26:
448,192,231159,1,8,0:0:0:80:
320,192,231317,1,2,0:3:0:80:
64,192,231475,1,2,0:3:0:40:
320,192,231791,1,8,0:0:0:80:
192,192,232106,1,2,0:3:0:40:
64,192,232264,1,8,0:0:0:80:
192,192,232422,1,2,0:3:0:80:
320,192,232580,1,2,0:3:0:80:
448,192,232738,128,2,233054:0:3:0:40:
64,192,233054,128,0,233370:0:0:0:80:
320,192,233370,1,4,0:3:0:70:
192,192,233370,1,0,0:0:0:40:
448,192,233685,1,8,0:0:0:80:
320,192,233843,1,4,0:3:0:80:
192,192,234001,1,2,0:3:0:40:
320,192,234317,1,4,0:3:0:80:
64,192,234633,1,2,0:3:0:80:
448,192,234791,1,8,0:0:0:80:
192,192,234948,1,6,0:3:0:80:
320,192,235106,1,2,0:3:0:80:
448,192,235264,1,8,0:3:0:40:
64,192,235422,1,8,0:3:0:80:
192,192,235580,1,12,0:3:0:40:
448,192,235738,1,8,0:3:0:80:
320,192,235896,1,2,0:3:0:20:
64,192,235896,128,0,236527:0:0:0:20:
448,192,236212,1,8,0:0:0:80:
192,192,236370,1,2,0:3:0:80:
320,192,236527,1,2,0:3:0:80:
448,192,236843,1,8,0:0:0:80:
192,192,237159,1,2,0:3:0:80:
448,192,237317,1,8,0:0:0:80:
320,192,237475,1,2,0:3:0:80:
64,192,237633,1,2,0:3:0:80:
192,192,237791,1,2,0:3:0:40:
448,192,238106,1,8,0:0:0:80:
64,192,238422,1,4,0:3:0:70:
192,192,238422,1,0,0:0:0:40:
448,192,238738,1,8,0:0:0:80:
320,192,238896,1,4,0:3:0:80:
192,192,239054,1,2,0:3:0:40:
448,192,239370,1,4,0:3:0:80:
320,192,239685,1,2,0:3:0:40:
64,192,239843,1,8,0:0:0:80:
192,192,240001,1,6,0:3:0:80:
320,192,240159,1,2,0:3:0:80:
448,192,240317,1,8,3:0:0:40:
320,192,240475,1,8,3:0:0:80:
192,192,240633,1,12,3:0:0:40:
320,192,240791,1,8,3:0:0:80:
64,192,240948,1,2,0:3:0:26:
448,192,240948,128,0,241580:0:0:0:26:
320,192,241264,1,0,0:0:0:80:drum-hitwhistle.wav
192,192,241422,1,2,0:3:0:80:
64,192,241580,1,0,0:0:0:40:
320,192,241896,1,8,0:0:0:80:
448,192,242370,1,8,0:0:0:80:
192,192,242527,1,2,0:3:0:80:
320,192,242685,1,2,0:3:0:80:
64,192,242843,1,2,0:3:0:40:
64,192,243475,1,2,0:3:0:40:
448,192,243791,1,8,0:0:0:80:
192,192,243948,1,2,0:3:0:80:
64,192,244106,1,2,0:3:0:80:
320,192,244422,1,8,0:0:0:80:
448,192,244896,1,8,0:0:0:80:
64,192,245054,1,2,0:3:0:80:
192,192,245212,1,2,0:3:0:80:
448,192,245370,1,2,0:3:0:40:
320,192,245527,1,2,3:0:0:80:
192,192,245685,1,2,3:0:0:40:
320,192,245843,1,2,3:0:0:80:
448,192,246001,1,4,1:0:0:70:
64,192,246001,128,4,246633:2:0:0:17:
320,192,246633,128,0,247264:0:0:0:53:
448,192,247264,1,0,0:0:0:53:
320,192,247580,1,0,0:0:0:53:
192,192,247896,1,0,0:0:0:53:
448,192,248212,1,0,0:0:0:53:
64,192,248527,128,0,251054:0:0:0:53:
320,192,249159,1,0,0:0:0:50:
448,192,249791,1,0,0:0:0:45:
448,192,250422,1,0,0:0:0:40:
448,192,251054,128,0,252317:0:0:0:35:
192,192,251685,1,0,0:0:0:35:
320,192,252317,128,0,253580:0:0:0:30:
192,192,252633,1,0,0:0:0:25:
64,192,252948,1,0,0:0:0:20:
448,192,253264,1,0,0:0:0:15:
192,192,253580,128,0,256106:0:0:0:10:
