osu file format v14

[General]
AudioFilename: crier tout bas2.mp3
AudioLeadIn: 1000
PreviewTime: 118422
Countdown: 0
SampleSet: Normal
StackLeniency: 0.7
Mode: 1
LetterboxInBreaks: 0
EpilepsyWarning: 1
WidescreenStoryboard: 1

[Editor]
DistanceSpacing: 1.8
BeatDivisor: 4
GridSize: 4
TimelineZoom: 1.9

[Metadata]
Title:Crier tout bas
TitleUnicode:Crier tout bas
Artist:Coeur de pirate
ArtistUnicode:Cœur de pirate
Creator:sheela
Version:Muzukashii
Source:
Tags:Béatrice Martin Roses sheela901
BeatmapID:786710
BeatmapSetID:357678

[Difficulty]
HPDrainRate:6
CircleSize:4
OverallDifficulty:5
ApproachRate:9
SliderMultiplier:1.4
SliderTickRate:1

[Events]
//Background and Video events
0,0,"coeurdepiraterose.jpg",0,0
//Break Periods
//Storyboard Layer 0 (Background)
//Storyboard Layer 1 (Fail)
//Storyboard Layer 2 (Pass)
//Storyboard Layer 3 (Foreground)
//Storyboard Sound Samples

[TimingPoints]
949,631.578947368421,4,1,0,60,1,0
56527,-100,4,1,0,70,0,1
76738,-100,4,1,0,60,0,0
119685,-100,4,1,0,70,0,1
139896,-100,4,1,0,60,0,0
185370,-100,4,1,0,70,0,1
225791,-100,4,1,0,60,0,0
253580,-100,4,1,0,25,0,0

[Colours]
Combo1 : 245,90,114
Combo2 : 192,192,192
Combo3 : 54,54,54

[HitObjects]
256,184,949,5,8,0:0:0:0:
256,184,1422,1,0,0:0:0:0:
256,176,1896,1,2,0:0:0:0:
256,184,2212,1,2,0:0:0:0:
256,184,2527,1,0,0:0:0:0:
264,184,2685,1,0,0:0:0:0:
256,184,2843,1,0,0:0:0:0:
256,184,3475,1,8,0:0:0:0:
256,184,3948,1,0,0:0:0:0:
260,180,6001,1,8,0:0:0:0:
260,180,6475,1,0,0:0:0:0:
260,180,6949,1,2,0:0:0:0:
260,180,7264,1,2,0:0:0:0:
260,180,7580,1,0,0:0:0:0:
260,180,7738,1,0,0:0:0:0:
260,180,7896,1,0,0:0:0:0:
260,180,8527,1,8,0:0:0:0:
260,180,9001,1,0,0:0:0:0:
260,180,10106,1,0,0:0:0:0:
260,180,10264,1,0,0:0:0:0:
260,180,10422,1,0,0:0:0:0:
260,180,11054,1,8,0:0:0:0:
260,180,11527,1,0,0:0:0:0:
260,180,12001,1,2,0:0:0:0:
260,180,12317,1,2,0:0:0:0:
260,180,12633,1,0,0:0:0:0:
260,180,12791,1,0,0:0:0:0:
260,180,12949,1,0,0:0:0:0:
260,180,13580,1,8,0:0:0:0:
260,180,14054,1,0,0:0:0:0:
260,180,15159,1,0,0:0:0:0:
260,180,15317,1,0,0:0:0:0:
260,180,15475,1,0,0:0:0:0:
260,180,16106,1,8,0:0:0:0:
260,180,16580,1,0,0:0:0:0:
260,180,17054,1,2,0:0:0:0:
260,180,17370,1,2,0:0:0:0:
260,180,17685,1,0,0:0:0:0:
272,192,17843,1,0,0:0:0:0:
260,180,18001,1,0,0:0:0:0:
260,180,18633,1,8,0:0:0:0:
260,180,19106,1,0,0:0:0:0:
260,180,20212,1,0,0:0:0:0:
260,180,20370,1,0,0:0:0:0:
260,180,20527,1,0,0:0:0:0:
260,180,21159,1,0,0:0:0:0:
260,180,21633,1,0,0:0:0:0:
260,180,22738,1,0,0:0:0:0:
260,180,22896,1,0,0:0:0:0:
260,180,23054,1,2,0:0:0:0:
260,180,23685,1,0,0:0:0:0:
260,180,24159,1,0,0:0:0:0:
268,176,25264,1,0,0:0:0:0:
260,180,25422,1,0,0:0:0:0:
268,176,25580,1,2,0:0:0:0:
264,184,26212,1,0,0:0:0:0:
264,184,26685,1,0,0:0:0:0:
264,184,27791,1,0,0:0:0:0:
264,184,27948,1,0,0:0:0:0:
264,184,28106,1,2,0:0:0:0:
264,184,28422,1,2,0:0:0:0:
264,184,28738,1,0,0:0:0:0:
264,184,29212,1,0,0:0:0:0:
264,184,30317,1,0,0:0:0:0:
264,184,30475,1,0,0:0:0:0:
264,184,30633,1,2,0:0:0:0:
264,184,31264,1,0,0:0:0:0:
264,184,31738,1,0,0:0:0:0:
296,243,32527,1,0,0:0:0:0:
268,188,32843,1,0,0:0:0:0:
268,196,33001,1,0,0:0:0:0:
268,188,33159,1,0,0:0:0:0:
400,315,33475,1,2,0:0:0:0:
268,188,33791,1,0,0:0:0:0:
268,188,34264,1,0,0:0:0:0:
268,188,35370,1,0,0:0:0:0:
268,188,35527,1,0,0:0:0:0:
268,188,35685,1,2,0:0:0:0:
268,188,36001,1,2,0:0:0:0:
268,188,36317,1,0,0:0:0:0:
276,184,36791,1,0,0:0:0:0:
263,183,37580,1,0,0:0:0:0:
276,184,37896,1,0,0:0:0:0:
282,196,38054,1,0,0:0:0:0:
276,184,38212,1,2,0:0:0:0:
276,184,38843,1,0,0:0:0:0:
276,184,39317,1,0,0:0:0:0:
276,184,40422,1,0,0:0:0:0:
276,184,40580,1,0,0:0:0:0:
276,184,40738,1,2,0:0:0:0:
276,184,41054,1,2,0:0:0:0:
276,184,41370,1,0,0:0:0:0:
276,184,41843,1,0,0:0:0:0:
276,184,42317,1,2,0:0:0:0:
276,184,42949,1,0,0:0:0:0:
276,184,43106,1,0,0:0:0:0:
276,184,43264,1,0,0:0:0:0:
276,184,43896,1,0,0:0:0:0:
276,184,44370,1,2,0:0:0:0:
276,184,45159,1,0,0:0:0:0:
276,184,45475,1,0,0:0:0:0:
276,184,45633,1,0,0:0:0:0:
276,184,45791,1,2,0:0:0:0:
276,184,46422,1,0,0:0:0:0:
276,184,46896,1,0,0:0:0:0:
276,184,47370,1,2,0:0:0:0:
276,184,47685,1,0,0:0:0:0:
270,178,48001,1,0,0:0:0:0:
276,184,48159,1,0,0:0:0:0:
276,184,48317,1,0,0:0:0:0:
276,184,48949,1,0,0:0:0:0:
276,184,49422,1,0,0:0:0:0:
276,184,50527,1,0,0:0:0:0:
276,184,50685,1,0,0:0:0:0:
276,184,50843,1,2,0:0:0:0:
276,184,51475,1,0,0:0:0:0:
276,184,51949,1,0,0:0:0:0:
276,184,52422,1,2,0:0:0:0:
276,184,52738,1,0,0:0:0:0:
276,184,53054,1,0,0:0:0:0:
276,184,53212,1,0,0:0:0:0:
276,184,53370,1,2,0:0:0:0:
276,184,54001,1,2,0:0:0:0:
276,184,54475,1,0,0:0:0:0:
276,184,54949,1,2,0:0:0:0:
276,184,55580,1,0,0:0:0:0:
276,184,55896,1,2,0:0:0:0:
273,177,56054,1,2,0:0:0:0:
276,184,56212,1,2,0:0:0:0:
276,184,56527,1,4,0:0:0:0:
276,184,57159,1,2,0:0:0:0:
276,184,57475,1,0,0:0:0:0:
276,184,57791,1,0,0:0:0:0:
276,184,58106,1,0,0:0:0:0:
276,184,58264,1,0,0:0:0:0:
276,184,58422,1,2,0:0:0:0:
276,184,58738,1,0,0:0:0:0:
276,184,59054,1,2,0:0:0:0:
276,184,59370,1,0,0:0:0:0:
273,178,59527,1,0,0:0:0:0:
276,184,59685,1,2,0:0:0:0:
276,184,60317,1,0,0:0:0:0:
276,184,60633,1,0,0:0:0:0:
276,184,60949,1,2,0:0:0:0:
271,180,61106,1,2,0:0:0:0:
276,184,61264,1,2,0:0:0:0:
276,184,61422,1,2,0:0:0:0:
276,184,61580,1,0,0:0:0:0:
276,184,62212,1,2,0:0:0:0:
253,177,62527,5,0,0:0:0:0:
276,184,62843,1,0,0:0:0:0:
276,184,63159,1,0,0:0:0:0:
276,184,63317,1,0,0:0:0:0:
276,184,63475,1,2,0:0:0:0:
276,184,63791,1,2,0:0:0:0:
272,180,64106,1,0,0:0:0:0:
276,184,64422,1,0,0:0:0:0:
276,184,64580,1,0,0:0:0:0:
276,184,64738,1,2,0:0:0:0:
276,184,65370,1,0,0:0:0:0:
276,184,65685,1,0,0:0:0:0:
276,184,66001,1,2,0:0:0:0:
266,181,66159,1,2,0:0:0:0:
276,184,66317,1,2,0:0:0:0:
276,184,66633,1,4,0:0:0:0:
276,184,67265,1,2,0:0:0:0:
276,184,67580,1,0,0:0:0:0:
276,184,67896,1,2,0:0:0:0:
276,184,68212,1,0,0:0:0:0:
272,188,68369,1,0,0:0:0:0:
276,184,68527,1,0,0:0:0:0:
276,184,68843,1,2,0:0:0:0:
276,184,69159,1,0,0:0:0:0:
276,184,69475,1,0,0:0:0:0:
271,187,69633,1,0,0:0:0:0:
276,184,69791,1,2,0:0:0:0:
276,184,70422,1,0,0:0:0:0:
276,184,70738,1,0,0:0:0:0:
276,184,71054,1,2,0:0:0:0:
276,184,71212,1,2,0:0:0:0:
276,184,71370,1,2,0:0:0:0:
276,184,71527,1,2,0:0:0:0:
276,184,71685,1,0,0:0:0:0:
265,179,72001,1,0,0:0:0:0:
276,184,72317,1,2,0:0:0:0:
276,184,72949,1,0,0:0:0:0:
276,184,73264,1,0,0:0:0:0:
276,184,73422,1,0,0:0:0:0:
276,184,73580,1,2,0:0:0:0:
276,184,73896,1,2,0:0:0:0:
276,184,74212,1,0,0:0:0:0:
276,184,74527,1,0,0:0:0:0:
276,184,74685,1,0,0:0:0:0:
276,184,74843,1,2,0:0:0:0:
276,184,75475,1,0,0:0:0:0:
276,184,75791,1,0,0:0:0:0:
276,184,76106,1,2,0:0:0:0:
276,184,76264,1,2,0:0:0:0:
276,184,76422,1,0,0:0:0:0:
276,184,76738,1,4,0:0:0:0:
276,184,77370,1,2,0:0:0:0:
276,184,77685,1,0,0:0:0:0:
276,184,78001,1,2,0:0:0:0:
276,184,78317,1,0,0:0:0:0:
276,184,78475,1,0,0:0:0:0:
276,184,78633,1,0,0:0:0:0:
276,184,78949,1,0,0:0:0:0:
276,184,79264,1,0,0:0:0:0:
276,184,79580,1,2,0:0:0:0:
276,184,79738,1,2,0:0:0:0:
276,184,79896,1,0,0:0:0:0:
276,184,80212,1,2,0:0:0:0:
276,184,80527,1,0,0:0:0:0:
276,184,80843,1,2,0:0:0:0:
276,184,81159,1,0,0:0:0:0:
298,125,81317,1,2,0:0:0:0:
276,184,81475,1,2,0:0:0:0:
276,184,81791,1,0,0:0:0:0:
272,178,82422,1,2,0:0:0:0:
276,184,82738,1,0,0:0:0:0:
276,184,83054,1,0,0:0:0:0:
276,184,83370,1,2,0:0:0:0:
276,184,83527,1,2,0:0:0:0:
276,184,83685,1,2,0:0:0:0:
276,184,84001,1,2,0:0:0:0:
276,184,84317,1,0,0:0:0:0:
276,184,84633,1,0,0:0:0:0:
276,184,84791,1,0,0:0:0:0:
276,184,84949,1,0,0:0:0:0:
276,184,85264,1,2,0:0:0:0:
271,179,85580,1,0,0:0:0:0:
276,184,85738,1,0,0:0:0:0:
276,184,85896,1,0,0:0:0:0:
260,175,86212,1,2,0:0:0:0:
259,170,86370,1,2,0:0:0:0:
276,184,86527,1,2,0:0:0:0:
276,184,86843,1,0,0:0:0:0:
276,184,87475,1,0,0:0:0:0:
275,189,87791,1,2,0:0:0:0:
276,184,88106,1,0,0:0:0:0:
276,184,88422,1,2,0:0:0:0:
275,189,88580,1,2,0:0:0:0:
276,184,88738,1,0,0:0:0:0:
276,184,89370,1,0,0:0:0:0:
276,184,89843,1,0,0:0:0:0:
276,184,90949,1,0,0:0:0:0:
276,184,91106,1,0,0:0:0:0:
276,184,91264,1,2,0:0:0:0:
284,184,91896,1,0,0:0:0:0:
284,184,92370,1,0,0:0:0:0:
284,184,92843,1,0,0:0:0:0:
284,184,93159,1,2,0:0:0:0:
284,184,93475,1,0,0:0:0:0:
284,184,93633,1,0,0:0:0:0:
284,184,93791,1,2,0:0:0:0:
284,184,94106,1,2,0:0:0:0:
284,184,94422,1,0,0:0:0:0:
284,184,94896,1,0,0:0:0:0:
284,184,96001,1,0,0:0:0:0:
284,184,96159,1,0,0:0:0:0:
284,184,96317,1,2,0:0:0:0:
284,184,96949,1,0,0:0:0:0:
284,184,97422,1,0,0:0:0:0:
284,184,97896,1,0,0:0:0:0:
284,184,98212,1,2,0:0:0:0:
284,184,98527,1,0,0:0:0:0:
284,184,98685,1,0,0:0:0:0:
284,184,98843,1,0,0:0:0:0:
284,184,99475,1,0,0:0:0:0:
284,184,99949,1,0,0:0:0:0:
284,184,101054,1,0,0:0:0:0:
284,184,101212,1,0,0:0:0:0:
284,184,101370,1,2,0:0:0:0:
284,184,102001,1,0,0:0:0:0:
284,184,102475,1,0,0:0:0:0:
284,184,102949,1,0,0:0:0:0:
284,184,103264,1,2,0:0:0:0:
284,184,103580,1,0,0:0:0:0:
284,184,103738,1,0,0:0:0:0:
284,184,103896,1,0,0:0:0:0:
284,184,104527,1,0,0:0:0:0:
284,184,105001,1,0,0:0:0:0:
281,174,105791,1,0,0:0:0:0:
284,184,106106,1,0,0:0:0:0:
284,184,106264,1,0,0:0:0:0:
284,184,106422,1,2,0:0:0:0:
284,184,107054,1,0,0:0:0:0:
284,184,107527,1,0,0:0:0:0:
284,184,108001,1,2,0:0:0:0:
284,184,108633,1,0,0:0:0:0:
284,184,108791,1,0,0:0:0:0:
284,184,108949,1,0,0:0:0:0:
284,184,109580,1,0,0:0:0:0:
284,184,110054,1,2,0:0:0:0:
284,184,110527,1,0,0:0:0:0:
284,184,110843,1,0,0:0:0:0:
284,184,111475,1,2,0:0:0:0:
284,184,112106,1,0,0:0:0:0:
284,184,112580,1,0,0:0:0:0:
284,184,113054,1,2,0:0:0:0:
284,184,113370,1,0,0:0:0:0:
269,185,113685,1,0,0:0:0:0:
274,191,113843,1,0,0:0:0:0:
284,184,114001,1,2,0:0:0:0:
284,184,114633,1,0,0:0:0:0:
284,184,115106,1,0,0:0:0:0:
284,184,116212,1,0,0:0:0:0:
284,184,116370,1,0,0:0:0:0:
284,184,116527,1,2,0:0:0:0:
284,184,117159,1,0,0:0:0:0:
284,184,118422,1,0,0:0:0:0:
284,184,118738,1,0,0:0:0:0:
284,184,119054,1,2,0:0:0:0:
270,187,119212,1,2,0:0:0:0:
284,184,119370,1,2,0:0:0:0:
284,184,119685,1,4,0:0:0:0:
284,184,120317,1,2,0:0:0:0:
261,183,120633,1,0,0:0:0:0:
284,184,120949,1,0,0:0:0:0:
284,184,121264,1,0,0:0:0:0:
284,184,121422,1,0,0:0:0:0:
284,184,121580,1,2,0:0:0:0:
284,184,121896,1,0,0:0:0:0:
292,184,122212,1,2,0:0:0:0:
284,184,122527,1,0,0:0:0:0:
271,182,122685,1,0,0:0:0:0:
284,184,122843,1,2,0:0:0:0:
284,184,123475,1,0,0:0:0:0:
284,184,123791,1,0,0:0:0:0:
284,184,124106,1,2,0:0:0:0:
284,184,124264,1,2,0:0:0:0:
284,184,124422,1,2,0:0:0:0:
284,184,124580,1,2,0:0:0:0:
284,184,124738,1,0,0:0:0:0:
271,180,125054,1,0,0:0:0:0:
284,184,125370,1,2,0:0:0:0:
284,184,126001,1,0,0:0:0:0:
276,176,126317,1,2,0:0:0:0:
284,184,126475,1,2,0:0:0:0:
284,184,126633,1,0,0:0:0:0:
292,184,126949,1,2,0:0:0:0:
276,176,127264,1,0,0:0:0:0:
292,184,127580,1,0,0:0:0:0:
276,176,127896,1,2,0:0:0:0:
276,176,128527,1,0,0:0:0:0:
276,176,128843,1,0,0:0:0:0:
276,176,129159,1,2,0:0:0:0:
276,176,129317,1,2,0:0:0:0:
276,176,129475,1,2,0:0:0:0:
276,176,129791,1,4,0:0:0:0:
276,176,130422,1,2,0:0:0:0:
276,176,130738,1,0,0:0:0:0:
276,176,131054,1,0,0:0:0:0:
276,176,131370,1,2,0:0:0:0:
276,176,131527,1,2,0:0:0:0:
276,176,131685,1,0,0:0:0:0:
280,176,132001,1,2,0:0:0:0:
276,176,132317,1,0,0:0:0:0:
276,176,132633,1,0,0:0:0:0:
266,180,132791,1,0,0:0:0:0:
276,176,132948,1,2,0:0:0:0:
276,176,133580,1,0,0:0:0:0:
276,176,133896,1,2,0:0:0:0:
276,176,134212,1,2,0:0:0:0:
276,176,134370,1,2,0:0:0:0:
276,176,134527,1,2,0:0:0:0:
276,176,134685,1,2,0:0:0:0:
276,176,134843,1,0,0:0:0:0:
276,176,135159,1,0,0:0:0:0:
276,176,135475,1,2,0:0:0:0:
276,176,136106,1,0,0:0:0:0:
276,176,136422,1,0,0:0:0:0:
276,176,136580,1,0,0:0:0:0:
276,176,136738,1,2,0:0:0:0:
276,176,137054,1,2,0:0:0:0:
276,176,137370,1,0,0:0:0:0:
276,176,137685,1,0,0:0:0:0:
258,172,137843,1,0,0:0:0:0:
276,176,138001,1,2,0:0:0:0:
276,176,138633,1,0,0:0:0:0:
276,176,138948,1,0,0:0:0:0:
276,176,139264,1,2,0:0:0:0:
276,176,139422,1,2,0:0:0:0:
276,176,139580,1,2,0:0:0:0:
280,172,139896,1,4,0:0:0:0:
280,168,140527,1,2,0:0:0:0:
272,169,140843,1,0,0:0:0:0:
280,168,141159,1,0,0:0:0:0:
280,172,141475,1,0,0:0:0:0:
280,168,141633,1,0,0:0:0:0:
280,168,141791,1,0,0:0:0:0:
280,168,142422,1,0,0:0:0:0:
280,168,142738,1,2,0:0:0:0:
280,168,142896,1,2,0:0:0:0:
280,172,143054,1,0,0:0:0:0:
280,168,143370,1,2,0:0:0:0:
280,168,143685,1,0,0:0:0:0:
280,168,144001,1,2,0:0:0:0:
280,168,144159,1,2,0:0:0:0:
280,168,144317,1,0,0:0:0:0:
282,162,144633,1,2,0:0:0:0:
280,168,144948,1,0,0:0:0:0:
270,164,145264,1,0,0:0:0:0:
280,168,145580,1,2,0:0:0:0:
280,172,146212,1,0,0:0:0:0:
280,168,146527,1,0,0:0:0:0:
280,168,146685,1,0,0:0:0:0:
280,168,146843,1,2,0:0:0:0:
280,172,147159,1,2,0:0:0:0:
280,172,147475,1,0,0:0:0:0:
265,167,147791,1,2,0:0:0:0:
265,167,147948,1,0,0:0:0:0:
280,168,148106,1,0,0:0:0:0:
272,163,148422,1,2,0:0:0:0:
276,168,148738,1,2,0:0:0:0:
276,168,149054,1,0,0:0:0:0:
280,168,149212,1,0,0:0:0:0:
280,168,149370,1,0,0:0:0:0:
280,168,149685,1,0,0:0:0:0:
276,168,150001,1,4,0:0:0:0:
276,168,150633,1,2,0:0:0:0:
276,168,150948,1,0,0:0:0:0:
280,168,151264,1,2,0:0:0:0:
276,168,151580,1,0,0:0:0:0:
262,162,151738,1,0,0:0:0:0:
276,168,151896,1,0,0:0:0:0:
280,168,152212,1,2,0:0:0:0:
280,168,152527,1,0,0:0:0:0:
280,168,152843,1,2,0:0:0:0:
275,161,153001,1,2,0:0:0:0:
276,168,153159,1,0,0:0:0:0:
276,168,153475,1,2,0:0:0:0:
280,168,153791,1,0,0:0:0:0:
280,168,154106,1,2,0:0:0:0:
288,166,154264,1,2,0:0:0:0:
276,168,154422,1,0,0:0:0:0:
280,168,154738,1,2,0:0:0:0:
280,168,155054,1,0,0:0:0:0:
280,168,155685,1,2,0:0:0:0:
280,168,156317,1,0,0:0:0:0:
280,168,156633,1,0,0:0:0:0:
280,168,156791,1,0,0:0:0:0:
280,168,156948,1,0,0:0:0:0:
206,233,157264,1,2,0:0:0:0:
280,168,157580,1,0,0:0:0:0:
280,168,157896,1,2,0:0:0:0:
280,168,158054,1,2,0:0:0:0:
280,168,158212,1,2,0:0:0:0:
280,168,158527,1,2,0:0:0:0:
156,210,158843,1,0,0:0:0:0:
280,168,159159,1,0,0:0:0:0:
280,168,159317,1,0,0:0:0:0:
272,168,159475,1,0,0:0:0:0:
272,168,160106,1,0,0:0:0:0:
272,164,160422,1,2,0:0:0:0:
272,164,160580,1,2,0:0:0:0:
272,164,160738,1,2,0:0:0:0:
272,168,161054,1,2,0:0:0:0:
280,168,161370,1,0,0:0:0:0:
272,168,161527,1,0,0:0:0:0:
272,168,161685,1,0,0:0:0:0:
272,164,161843,1,0,0:0:0:0:
272,164,162001,1,0,0:0:0:0:
272,168,162633,1,0,0:0:0:0:
272,164,164527,1,2,0:0:0:0:
272,164,165159,1,0,0:0:0:0:
272,164,167054,1,2,0:0:0:0:
272,164,167685,1,0,0:0:0:0:
272,164,168948,1,2,0:0:0:0:
272,164,169580,1,0,0:0:0:0:
272,164,170212,1,0,0:0:0:0:
268,160,172106,1,2,0:0:0:0:
268,160,172738,1,0,0:0:0:0:
268,160,174633,1,2,0:0:0:0:
268,160,175264,1,0,0:0:0:0:
268,160,176527,1,2,0:0:0:0:
268,160,177159,1,0,0:0:0:0:
268,160,177791,1,0,0:0:0:0:
268,160,179054,1,2,0:0:0:0:
268,160,179685,1,2,0:0:0:0:
268,160,180317,1,0,0:0:0:0:
268,160,180948,1,2,0:0:0:0:
268,160,181580,1,2,0:0:0:0:
256,192,182843,12,0,184738,0:0:0:0:
256,190,185370,5,4,0:0:0:0:
268,160,186001,5,2,0:0:0:0:
251,194,186317,1,0,0:0:0:0:
268,160,186633,1,2,0:0:0:0:
268,160,186948,1,2,0:0:0:0:
268,160,187106,1,0,0:0:0:0:
268,160,187264,1,0,0:0:0:0:
268,160,187580,1,2,0:0:0:0:
268,160,187896,1,0,0:0:0:0:
268,160,188212,1,0,0:0:0:0:
251,194,188370,1,0,0:0:0:0:
268,160,188527,1,2,0:0:0:0:
268,160,189159,1,0,0:0:0:0:
268,160,189475,1,0,0:0:0:0:
268,160,189791,1,2,0:0:0:0:
268,160,189948,1,2,0:0:0:0:
268,160,190106,1,2,0:0:0:0:
268,160,190264,1,2,0:0:0:0:
268,160,190422,1,0,0:0:0:0:
268,160,191054,1,2,0:0:0:0:
240,175,191370,5,0,0:0:0:0:
268,160,191685,1,0,0:0:0:0:
268,160,192001,1,2,0:0:0:0:
268,160,192317,1,0,0:0:0:0:
268,160,192633,1,2,0:0:0:0:
268,160,192791,1,2,0:0:0:0:
268,160,192948,1,0,0:0:0:0:
250,164,193264,1,0,0:0:0:0:
268,160,193580,1,2,0:0:0:0:
268,160,194212,1,0,0:0:0:0:
268,160,194527,1,0,0:0:0:0:
268,160,194843,1,2,0:0:0:0:
268,160,195001,1,2,0:0:0:0:
268,160,195159,1,2,0:0:0:0:
268,160,195475,1,4,0:0:0:0:
268,160,196106,1,2,0:0:0:0:
250,164,196422,1,2,0:0:0:0:
268,160,196738,1,0,0:0:0:0:
256,148,197054,1,0,0:0:0:0:
262,162,197212,1,0,0:0:0:0:
256,148,197370,1,2,0:0:0:0:
268,160,197685,1,2,0:0:0:0:
268,160,197843,1,2,0:0:0:0:
268,160,198001,1,0,0:0:0:0:
268,160,198317,1,2,0:0:0:0:
268,160,198633,1,2,0:0:0:0:
268,160,199264,1,2,0:0:0:0:
268,160,199580,1,2,0:0:0:0:
268,160,199896,1,2,0:0:0:0:
268,160,200054,1,2,0:0:0:0:
268,160,200212,1,2,0:0:0:0:
268,160,200370,1,2,0:0:0:0:
268,160,200527,1,0,0:0:0:0:
254,154,200843,1,0,0:0:0:0:
268,152,201159,1,2,0:0:0:0:
264,152,201791,1,0,0:0:0:0:
264,152,202106,1,0,0:0:0:0:
268,152,202264,1,0,0:0:0:0:
268,152,202422,1,2,0:0:0:0:
268,152,202738,1,2,0:0:0:0:
264,152,203054,1,0,0:0:0:0:
264,152,203370,1,0,0:0:0:0:
254,154,203527,1,0,0:0:0:0:
264,152,203685,1,2,0:0:0:0:
264,152,204317,1,0,0:0:0:0:
264,152,204633,1,0,0:0:0:0:
264,152,204948,1,2,0:0:0:0:
256,151,205106,1,2,0:0:0:0:
264,152,205264,1,2,0:0:0:0:
264,152,205580,1,4,0:0:0:0:
264,152,206212,1,2,0:0:0:0:
254,154,206527,1,0,0:0:0:0:
264,152,206843,1,0,0:0:0:0:
264,152,207159,1,0,0:0:0:0:
248,152,207317,1,0,0:0:0:0:
264,152,207475,1,2,0:0:0:0:
142,187,207791,1,2,0:0:0:0:
264,152,208106,1,0,0:0:0:0:
264,152,208422,1,0,0:0:0:0:
254,154,208580,1,0,0:0:0:0:
264,152,208738,1,2,0:0:0:0:
264,152,209370,1,0,0:0:0:0:
264,152,209685,1,0,0:0:0:0:
264,152,210001,1,2,0:0:0:0:
264,152,210317,1,2,0:0:0:0:
264,152,210475,1,2,0:0:0:0:
264,152,210633,1,0,0:0:0:0:
253,155,210948,1,0,0:0:0:0:
264,152,211264,1,2,0:0:0:0:
264,152,211896,1,0,0:0:0:0:
248,144,212212,1,0,0:0:0:0:
264,152,212527,1,2,0:0:0:0:
264,152,212843,1,0,0:0:0:0:
248,140,213001,1,0,0:0:0:0:
264,152,213159,1,0,0:0:0:0:
253,147,213475,1,0,0:0:0:0:
264,152,213791,1,2,0:0:0:0:
264,152,214422,1,0,0:0:0:0:
200,124,214738,1,0,0:0:0:0:
264,152,215054,1,2,0:0:0:0:
264,152,215212,1,2,0:0:0:0:
264,152,215370,1,2,0:0:0:0:
264,152,215685,1,4,0:0:0:0:
264,152,216317,1,2,0:0:0:0:
255,147,216633,1,0,0:0:0:0:
264,152,216948,1,0,0:0:0:0:
200,124,217264,1,0,0:0:0:0:
200,124,217580,1,2,0:0:0:0:
260,132,217896,1,2,0:0:0:0:
260,132,218054,1,2,0:0:0:0:
260,132,218212,1,0,0:0:0:0:
255,147,218527,1,0,0:0:0:0:
260,132,218843,1,2,0:0:0:0:
260,132,219475,1,0,0:0:0:0:
196,120,219791,1,0,0:0:0:0:
260,132,220106,1,2,0:0:0:0:
260,132,220422,1,2,0:0:0:0:
260,132,220580,1,2,0:0:0:0:
260,132,220738,1,0,0:0:0:0:
255,147,221054,1,0,0:0:0:0:
260,132,221370,1,2,0:0:0:0:
260,132,222001,1,0,0:0:0:0:
196,128,222317,1,0,0:0:0:0:
216,124,222475,1,0,0:0:0:0:
260,132,222633,1,2,0:0:0:0:
260,132,222948,1,2,0:0:0:0:
260,132,223264,1,0,0:0:0:0:
266,135,223580,1,0,0:0:0:0:
252,145,223738,1,0,0:0:0:0:
260,132,223896,1,2,0:0:0:0:
260,132,224527,1,0,0:0:0:0:
260,132,224843,1,0,0:0:0:0:
260,132,225159,1,2,0:0:0:0:
260,132,225317,1,2,0:0:0:0:
260,132,225475,1,2,0:0:0:0:
260,132,225791,1,4,0:0:0:0:
260,132,226422,1,2,0:0:0:0:
260,132,227054,1,0,0:0:0:0:
260,132,227370,1,0,0:0:0:0:
253,133,227527,1,0,0:0:0:0:
260,132,227685,1,0,0:0:0:0:
260,132,228317,1,0,0:0:0:0:
260,132,228633,1,2,0:0:0:0:
260,132,228791,1,0,0:0:0:0:
254,132,228948,1,0,0:0:0:0:
260,132,229264,1,2,0:0:0:0:
260,132,229580,1,0,0:0:0:0:
260,132,229896,1,2,0:0:0:0:
260,132,230212,1,0,0:0:0:0:
260,132,230527,1,2,0:0:0:0:
260,132,230843,1,0,0:0:0:0:
260,132,231475,1,2,0:0:0:0:
260,132,232106,1,0,0:0:0:0:
260,132,232422,1,2,0:0:0:0:
263,140,232580,1,0,0:0:0:0:
260,132,232738,1,0,0:0:0:0:
260,132,233370,1,0,0:0:0:0:
260,132,233685,1,2,0:0:0:0:
260,132,233843,1,0,0:0:0:0:
260,132,234001,1,0,0:0:0:0:
260,132,234317,1,2,0:0:0:0:
260,132,234948,1,0,0:0:0:0:
260,132,235264,1,2,0:0:0:0:
260,132,235896,1,4,0:0:0:0:
260,132,236527,1,2,0:0:0:0:
260,132,237159,1,0,0:0:0:0:
260,132,237475,1,0,0:0:0:0:
245,127,237633,1,0,0:0:0:0:
260,132,237791,1,0,0:0:0:0:
168,217,238106,1,2,0:0:0:0:
260,132,238422,1,0,0:0:0:0:
260,132,238896,1,0,0:0:0:0:
260,132,239370,1,2,0:0:0:0:
260,132,240001,1,2,0:0:0:0:
260,132,240317,1,2,0:0:0:0:
260,132,240948,1,0,0:0:0:0:
260,132,241580,1,2,0:0:0:0:
260,132,242212,1,0,0:0:0:0:
260,132,242527,1,0,0:0:0:0:
236,132,242685,1,0,0:0:0:0:
260,132,242843,1,0,0:0:0:0:
260,132,243475,1,0,0:0:0:0:
260,132,243791,1,2,0:0:0:0:
260,132,243948,1,2,0:0:0:0:
260,132,244106,1,0,0:0:0:0:
260,132,244422,1,2,0:0:0:0:
260,132,245054,1,0,0:0:0:0:
260,132,245370,1,2,0:0:0:0:
260,132,246001,1,4,0:0:0:0:
256,128,246633,1,0,0:0:0:0:
256,128,247264,1,0,0:0:0:0:
256,128,247580,1,2,0:0:0:0:
256,128,247896,1,0,0:0:0:0:
256,128,248527,1,0,0:0:0:0:
256,128,249791,1,0,0:0:0:0:
256,128,250422,1,0,0:0:0:0:
256,128,251054,1,2,0:0:0:0:
256,128,252317,1,0,0:0:0:0:
256,192,253580,12,0,256106,0:0:0:0:
