osu file format v14

[General]
AudioFilename: crier tout bas2.mp3
AudioLeadIn: 1000
PreviewTime: 118422
Countdown: 0
SampleSet: Soft
StackLeniency: 0.7
Mode: 0
LetterboxInBreaks: 0
EpilepsyWarning: 1
WidescreenStoryboard: 1

[Editor]
Bookmarks: 188554,202765
DistanceSpacing: 1.2
BeatDivisor: 4
GridSize: 4
TimelineZoom: 1.9

[Metadata]
Title:Crier tout bas
TitleUnicode:Crier tout bas
Artist:Coeur de pirate
ArtistUnicode:Cœur de pirate
Creator:sheela
Version:Facile
Source:
Tags:Béatrice Martin Roses sheela901
BeatmapID:786707
BeatmapSetID:357678

[Difficulty]
HPDrainRate:3
CircleSize:2.5
OverallDifficulty:2
ApproachRate:2
SliderMultiplier:1
SliderTickRate:1

[Events]
//Background and Video events
0,0,"coeurdepiraterose.jpg",0,0
//Break Periods
2,162833,178757
//Storyboard Layer 0 (Background)
//Storyboard Layer 1 (Fail)
//Storyboard Layer 2 (Pass)
//Storyboard Layer 3 (Foreground)
//Storyboard Sound Samples

[TimingPoints]
949,631.578947368421,4,2,1,5,1,0
23685,-100,4,2,1,20,0,0
55264,-100,4,2,1,30,0,0
56527,-100,4,2,1,70,0,1
60949,-100,4,3,1,30,0,1
61106,-100,4,3,1,40,0,1
61264,-100,4,3,1,60,0,1
61422,-100,4,3,1,80,0,1
61580,-100,4,2,1,80,0,1
66001,-100,4,3,1,30,0,1
66159,-100,4,3,1,40,0,1
66317,-100,4,3,1,60,0,1
66475,-100,4,3,1,80,0,1
66633,-100,4,2,1,80,0,1
71054,-100,4,3,1,30,0,1
71212,-100,4,3,1,40,0,1
71370,-100,4,3,1,60,0,1
71527,-100,4,3,1,80,0,1
71685,-100,4,2,1,80,0,1
76106,-100,4,3,1,30,0,1
76264,-100,4,3,1,40,0,1
76422,-100,4,3,1,60,0,1
76580,-100,4,3,1,80,0,1
76738,-100,4,2,1,65,0,0
89370,-100,4,2,1,40,0,0
117159,-100,4,2,1,30,0,0
118422,-100,4,2,1,30,0,0
119054,-100,4,2,1,40,0,0
119685,-100,4,2,1,80,0,1
124106,-100,4,3,1,30,0,1
124264,-100,4,3,1,40,0,1
124422,-100,4,3,1,60,0,1
124580,-100,4,3,1,80,0,1
124738,-100,4,2,1,80,0,1
129159,-100,4,3,1,30,0,1
129317,-100,4,3,1,40,0,1
129475,-100,4,3,1,60,0,1
129633,-100,4,3,1,80,0,1
129791,-100,4,2,1,80,0,1
134212,-100,4,3,1,30,0,1
134370,-100,4,3,1,40,0,1
134527,-100,4,3,1,60,0,1
134685,-100,4,3,1,80,0,1
134843,-100,4,2,1,80,0,1
139264,-100,4,3,1,30,0,1
139422,-100,4,3,1,40,0,1
139580,-100,4,3,1,60,0,1
139738,-100,4,3,1,80,0,1
139896,-100,4,2,1,60,0,0
162633,-100,4,2,1,30,0,0
182843,-100,4,2,1,5,0,0
183475,-100,4,2,1,30,0,0
184106,-100,4,2,1,40,0,0
184422,-100,4,2,1,50,0,0
184738,-100,4,2,1,60,0,0
185054,-100,4,2,1,70,0,0
185370,-100,4,2,1,80,0,1
189791,-100,4,3,1,30,0,1
189948,-100,4,3,1,40,0,1
190106,-100,4,3,1,60,0,1
190264,-100,4,3,1,80,0,1
190422,-100,4,2,1,80,0,1
194843,-100,4,3,1,30,0,1
195001,-100,4,3,1,40,0,1
195159,-100,4,3,1,60,0,1
195317,-100,4,3,1,80,0,1
195475,-100,4,2,1,80,0,1
199896,-100,4,3,1,30,0,1
200054,-100,4,3,1,40,0,1
200212,-100,4,3,1,60,0,1
200370,-100,4,3,1,80,0,1
200527,-100,4,2,1,80,0,1
204948,-100,4,3,1,30,0,1
205106,-100,4,3,1,40,0,1
205264,-100,4,3,1,60,0,0
205422,-100,4,3,1,80,0,0
205580,-100,4,2,1,80,0,1
210001,-100,4,3,1,30,0,1
210159,-100,4,3,1,40,0,1
210317,-100,4,3,1,60,0,1
210475,-100,4,3,1,80,0,1
210633,-100,4,2,1,80,0,1
215054,-100,4,3,1,30,0,1
215212,-100,4,3,1,40,0,1
215370,-100,4,3,1,60,0,1
215527,-100,4,3,1,80,0,1
215685,-100,4,2,1,80,0,1
220106,-100,4,3,1,30,0,1
220264,-100,4,3,1,40,0,1
220422,-100,4,3,1,60,0,1
220580,-100,4,3,1,80,0,1
220738,-100,4,2,1,80,0,1
225159,-100,4,3,1,30,0,1
225317,-100,4,3,1,40,0,1
225475,-100,4,3,1,60,0,1
225633,-100,4,3,1,80,0,1
225791,-100,4,2,1,60,0,0
238422,-100,4,2,1,60,0,0
238580,-100,4,2,1,60,0,0
246001,-100,4,2,1,40,0,0
250422,-100,4,2,1,30,0,0
254212,-100,4,2,1,20,0,0
254843,-100,4,2,1,15,0,0
255475,-100,4,2,1,10,0,0
256106,-100,4,2,1,5,0,0

[Colours]
Combo1 : 245,90,114
Combo2 : 192,192,192
Combo3 : 111,96,115

[HitObjects]
193,43,949,6,0,B|189:83|189:83|201:107|201:107|183:209,1,150,2|0,0:3|0:0,0:0:0:0:
152,238,2212,1,0,0:0:0:0:
116,286,2527,2,0,L|131:347,1,50,2|2,0:3|0:3,0:0:0:0:
246,362,3475,2,0,P|314:366|369:258,1,200,2|0,0:3|0:0,0:0:0:0:
338,23,6001,6,0,L|182:30,1,150,2|0,0:3|0:0,0:0:0:0:
128,35,7264,1,0,0:0:0:0:
69,45,7580,2,0,P|62:90|64:112,1,50,2|2,0:3|0:3,0:0:0:0:
148,177,8527,2,0,L|360:180,1,200,2|0,0:3|0:0,0:0:0:0:
158,327,11054,6,0,P|122:255|136:190,1,150,2|0,0:3|0:0,0:0:0:0:
193,173,12317,1,0,0:0:0:0:
252,162,12633,2,0,L|258:107,1,50,2|2,0:3|0:3,0:0:0:0:
308,3,13580,2,0,P|262:70|148:82,1,200,2|0,0:3|0:0,0:0:0:0:
92,68,15159,1,0,0:0:0:0:
33,81,15475,1,0,0:0:0:0:
60,197,16106,6,0,L|127:341,1,150,2|0,0:3|0:0,0:0:0:0:
173,365,17370,1,0,0:0:0:0:
232,357,17685,2,0,P|244:321|243:293,1,50,2|2,0:3|0:3,0:0:0:0:
244,189,18633,2,0,B|221:124|261:61|261:61|236:20|245:-25,1,200,2|0,0:3|0:0,0:0:0:0:
427,151,21159,6,0,L|355:353,1,200,2|0,0:3|0:0,0:0:0:0:
299,337,22738,1,0,0:0:0:0:
240,351,23054,1,0,0:3:0:0:
136,292,23685,6,0,P|101:221|131:143,1,150,2|0,0:3|0:0,0:0:0:0:
171,125,24948,2,0,L|233:124,1,50,0|2,0:0|0:3,0:0:0:0:
281,124,25580,1,0,0:0:0:0:
334,229,26212,2,0,L|117:229,1,200,2|0,0:3|0:0,0:0:0:0:
75,244,27791,1,0,0:0:0:0:
24,274,28106,2,0,L|16:326,1,50,2|0,0:3|0:0,0:0:0:0:
61,362,28738,6,0,P|125:318|203:332,1,150,2|0,0:3|0:0,0:0:0:0:
251,341,30001,2,0,P|266:292|274:276,1,50
306,248,30633,2,0,P|351:223|368:218,1,50
397,187,31264,2,0,P|416:117|367:49,1,150,2|0,0:3|0:0,0:0:0:0:
316,56,32527,2,0,L|265:57,1,50,0|2,0:0|0:3,0:0:0:0:
205,58,33159,1,0,0:0:0:0:
110,134,33791,6,0,B|128:223|128:223|105:265|105:265|122:348,1,200,2|0,0:3|0:0,0:0:0:0:
174,341,35370,1,0,0:0:0:0:
233,344,35685,2,0,P|270:332|292:329,1,50,2|0,0:3|0:0,0:0:0:0:
334,303,36317,2,0,P|368:213|331:114,1,200,2|0,0:3|0:0,0:0:0:0:
256,28,38212,1,2,0:3:0:0:
164,105,38843,6,0,B|197:176|136:235|165:316,1,200,2|0,0:3|0:0,0:0:0:0:
217,321,40422,1,0,0:0:0:0:
271,295,40738,2,0,P|292:290|325:293,1,50,2|0,0:3|0:0,0:0:0:0:
377,274,41370,2,0,L|378:101,2,150,2|0|2,0:3|0:0|0:3,0:0:0:0:
276,208,43896,6,0,P|236:164|149:151,1,150,2|0,0:3|0:0,0:0:0:0:
126,206,45159,2,0,L|65:202,1,50
23,232,45791,1,0,0:0:0:0:
56,347,46422,2,0,P|114:328|206:353,1,150,2|0,0:3|0:0,0:0:0:0:
258,352,47685,2,0,L|257:286,1,50
256,241,48317,1,0,0:0:0:0:
200,134,48949,6,0,P|259:120|370:205,1,200,2|0,0:3|0:0,0:0:0:0:
380,252,50527,1,0,0:0:0:0:
383,311,50843,1,2,0:3:0:0:
272,357,51475,2,0,L|172:369,1,100,2|0,0:3|0:0,0:0:0:0:
119,340,52422,1,0,0:0:0:0:
145,286,52738,2,0,L|148:223,1,50
155,176,53370,1,0,0:0:0:0:
227,80,54001,6,0,P|291:57|379:91,1,150,2|0,0:3|0:0,0:0:0:0:
424,97,55264,2,0,L|483:81,2,50,0|2|0,3:0|0:3|3:0,0:0:0:0:
419,157,56212,1,0,3:0:0:0:
412,216,56527,6,0,L|400:333,1,100,4|2,3:1|0:0,0:0:0:0:
288,356,57791,2,0,L|298:256,1,100,2|2,3:0|0:3,0:0:0:0:
312,197,58738,1,8,0:0:0:0:
308,137,59054,2,0,P|269:124|196:136,1,100,4|2,3:0|0:0,0:0:0:0:
187,247,60317,2,0,P|137:253|90:239,1,100,2|8,0:3|0:0,0:0:0:0:
43,201,61264,1,8,0:0:0:0:
5,247,61580,6,0,L|14:363,1,100,4|2,3:0|0:0,0:0:0:0:
129,374,62843,2,0,P|178:380|225:366,1,100,2|2,0:3|0:3,0:0:0:0:
267,321,63791,1,8,0:0:0:0:
298,269,64106,2,0,P|304:219|290:172,1,100,4|2,3:0|0:0,0:0:0:0:
184,229,65370,2,0,L|70:221,1,100,2|8,0:3|0:0,0:0:0:0:
48,173,66317,1,8,0:0:0:0:
28,115,66633,6,0,P|16:63|32:11,1,100,4|2,3:1|0:0,0:0:0:0:
139,63,67896,2,0,L|240:59,1,100,2|2,0:3|0:3,0:0:0:0:
298,59,68843,1,8,0:0:0:0:
352,88,69159,2,0,P|361:156|353:193,1,100,2|2,0:3|0:0,0:0:0:0:
275,275,70422,2,0,P|207:284|170:276,1,100,2|8,0:3|0:0,0:0:0:0:
128,241,71370,1,8,0:0:0:0:
136,181,71685,6,0,L|128:72,1,100,4|2,3:0|0:0,0:0:0:0:
239,34,72949,2,0,P|248:83|232:134,1,100,2|2,0:3|0:3,0:0:0:0:
193,174,73896,1,8,0:0:0:0:
222,226,74212,2,0,L|339:224,1,100,4|2,3:0|0:0,0:0:0:0:
439,250,75475,2,0,P|436:274|429:298,1,50,2|8,0:3|0:0,0:0:0:0:
424,358,76106,2,0,L|363:371,1,50,8|8,0:0|0:0,0:0:0:0:
316,355,76738,6,0,L|201:358,1,100,4|2,3:1|0:3,0:0:0:0:
111,299,78001,2,0,P|97:227|111:183,1,100,2|2,0:3|0:3,0:0:0:0:
166,103,79264,2,0,P|247:146|343:100,1,200,2|2,0:3|0:3,0:0:0:0:
452,64,81159,2,0,P|458:112|457:132,1,50,8|8,0:3|3:0,0:0:0:0:
437,170,81791,6,0,L|446:291,1,100,2|2,0:3|0:3,0:0:0:0:
341,331,83054,2,0,P|325:283|333:231,1,100,2|2,0:3|0:3,0:0:0:0:
230,170,84317,2,0,L|119:177,1,100,2|2,0:3|0:3,0:0:0:0:
58,272,85580,2,0,L|169:279,1,100,2|8,0:3|3:0,0:0:0:0:
217,280,86527,1,8,3:0:0:0:
276,271,86843,6,0,P|302:214|292:163,1,100,2|2,0:3|0:3,0:0:0:0:
217,89,88106,2,0,P|259:63|309:60,1,100,2|2,0:3|0:3,0:0:0:0:
412,121,89370,6,0,B|421:152|421:152|407:194|407:194|434:257|412:315,1,200,2|0,0:3|0:0,0:0:0:0:
299,353,91264,1,2,0:3:0:0:
196,290,91896,2,0,B|140:275|95:290|95:290|124:242|104:186,1,200,2|0,0:3|3:2,0:0:0:0:
72,81,93791,2,0,P|113:82|134:82,1,50,2|0,0:3|0:0,0:0:0:0:
180,66,94422,6,0,B|241:56|241:56|385:73,1,200,2|0,0:3|0:0,0:0:0:0:
448,169,96317,2,0,L|401:192,1,50,2|0,0:3|0:0,0:0:0:0:
350,219,96949,2,0,P|269:194|197:206,1,150,2|0,0:3|3:2,0:0:0:0:
150,226,98212,2,0,L|160:335,1,100,0|2,3:2|0:3,0:0:0:0:
40,300,99475,6,0,P|16:237|54:160,1,150,2|0,0:3|0:0,0:0:0:0:
99,133,100738,2,0,L|198:129,1,100,0|2,0:0|0:3,0:0:0:0:
256,150,101685,1,0,0:0:0:0:
314,136,102001,2,0,P|370:128|432:144,1,100,2|0,0:3|0:0,0:0:0:0:
484,231,103264,2,0,P|492:287|476:349,1,100,0|2,3:2|0:3,0:0:0:0:
364,329,104527,6,0,L|249:336,1,100,2|0,0:3|0:0,0:0:0:0:
168,262,105791,2,0,L|66:265,1,100,0|2,0:0|0:3,0:0:0:0:
11,245,106738,1,0,0:0:0:0:
23,186,107054,2,0,L|10:23,1,150,2|0,0:3|3:2,0:0:0:0:
67,16,108317,2,0,P|112:27|149:72,1,100,0|2,3:2|0:3,0:0:0:0:
198,174,109580,6,0,P|245:193|347:174,1,150,2|0,0:3|0:0,0:0:0:0:
384,136,110843,2,0,P|384:189|396:240,1,100,0|2,0:0|0:3,0:0:0:0:
443,344,112106,2,0,P|381:355|298:310,1,150,2|0,0:3|3:2,0:0:0:0:
259,279,113370,2,0,P|213:276|155:296,1,100,0|2,3:2|0:3,0:0:0:0:
73,373,114633,6,0,L|80:167,1,200,2|0,0:3|0:0,0:0:0:0:
147,72,116527,1,2,0:3:0:0:
250,133,117159,2,0,B|251:157|246:178|246:178|252:229|252:229|231:280|243:334|243:334|194:317|171:245,1,300,2|0,0:3|3:0,0:0:0:0:
81,195,119685,6,0,P|61:243|64:298,1,100,4|2,3:1|0:0,0:0:0:0:
172,332,120949,2,0,L|289:334,1,100,2|2,3:0|0:3,0:0:0:0:
329,350,121896,1,8,0:0:0:0:
365,301,122212,2,0,P|398:264|406:196,1,100,4|2,3:0|0:0,0:0:0:0:
418,97,123475,2,0,P|381:64|313:56,1,100,2|8,0:3|0:0,0:0:0:0:
276,73,124422,1,8,0:0:0:0:
224,103,124738,6,0,L|227:224,1,100,4|2,3:0|0:0,0:0:0:0:
158,301,126001,2,0,P|111:303|59:291,1,100,2|2,0:3|0:3,0:0:0:0:
32,237,126949,1,8,0:0:0:0:
36,178,127264,2,0,L|44:69,1,100,4|2,3:0|0:0,0:0:0:0:
163,71,128527,2,0,B|211:83|211:83|260:74,1,100,2|8,0:3|0:0,0:0:0:0:
312,43,129475,1,8,0:0:0:0:
368,63,129791,6,0,P|394:119|392:167,1,100,4|2,3:1|0:0,0:0:0:0:
309,241,131054,2,0,L|320:352,1,100,2|2,0:3|0:3,0:0:0:0:
266,369,132001,1,8,0:0:0:0:
208,351,132317,2,0,P|200:304|220:242,1,100,4|2,3:0|0:0,0:0:0:0:
263,145,133580,2,0,P|271:98|255:39,1,100,2|8,0:3|0:0,0:0:0:0:
202,29,134527,1,8,0:0:0:0:
147,52,134843,6,0,L|46:58,1,100,4|2,3:0|0:0,0:0:0:0:
8,171,136106,2,0,L|107:176,1,100,2|2,0:3|0:3,0:0:0:0:
147,222,137054,1,8,0:0:0:0:
187,265,137370,2,0,P|217:311|257:333,1,100,4|2,3:0|0:0,0:0:0:0:
335,242,138633,2,0,L|321:191,1,50,2|8,0:3|0:0,0:0:0:0:
272,161,139264,2,0,L|274:106,1,50,8|8,0:3|0:0,0:0:0:0:
311,63,139896,6,0,P|251:74|153:55,1,150,4|8,3:1|0:0,0:0:0:0:
108,36,141159,2,0,L|102:137,1,100,2|2,0:3|0:3,0:0:0:0:
111,255,142422,2,0,B|158:245|158:245|218:257|218:257|267:249,1,150,2|8,0:3|0:0,0:0:0:0:
316,265,143685,2,0,P|351:201|356:175,1,100,2|2,0:3|0:3,0:0:0:0:
322,60,144948,6,0,P|229:27|137:63,1,200,2|2,0:3|0:3,0:0:0:0:
98,175,146843,1,2,0:3:0:0:
24,270,147475,2,0,P|67:293|123:292,1,100,2|2,0:3|0:3,0:0:0:0:
235,315,148738,2,0,P|234:265|211:221,1,100,2|2,0:3|0:3,0:0:0:0:
171,108,150001,6,0,L|334:98,1,150,4|8,3:1|0:0,0:0:0:0:
380,90,151264,2,0,P|367:148|373:202,1,100,2|2,0:3|0:3,0:0:0:0:
422,297,152527,2,0,P|356:292|263:310,1,150,2|8,0:3|0:0,0:0:0:0:
214,316,153791,2,0,P|205:272|207:216,1,100,2|2,0:3|0:3,0:0:0:0:
281,123,155054,6,0,P|338:102|467:174,1,200,2|2,0:3|0:3,0:0:0:0:
478,274,156948,1,2,0:3:0:0:
365,314,157580,2,0,B|293:361|242:277|162:327,1,200,2|2,0:3|0:3,0:0:0:0:
56,353,159475,1,2,0:3:0:0:
79,235,160106,6,0,L|65:117,1,100,2|2,0:3|0:3,0:0:0:0:
169,71,161370,2,0,L|160:8,2,50,2|2|10,0:3|0:3|0:3,0:0:0:0:
273,130,162633,1,0,0:0:0:0:
256,192,180317,12,0,182844,0:0:0:0:
82,108,185370,6,0,L|91:231,1,100,4|2,3:1|0:0,0:0:0:0:
150,311,186633,1,2,3:0:0:0:
226,218,187264,2,0,P|257:232|271:248,1,50,2|8,0:3|0:0,0:0:0:0:
301,293,187896,2,0,P|358:281|410:284,1,100,4|2,3:0|0:0,0:0:0:0:
486,200,189159,2,0,L|387:145,1,100,2|8,0:3|0:0,0:0:0:0:
344,125,190106,1,8,0:0:0:0:
296,166,190422,6,0,P|226:149|187:154,1,100,4|2,3:0|0:0,0:0:0:0:
80,155,191685,2,0,P|64:82|75:43,1,100,2|2,0:3|0:3,0:0:0:0:
116,21,192633,1,0,3:0:0:0:
173,36,192948,2,0,L|286:32,1,100,4|2,3:0|0:0,0:0:0:0:
372,99,194212,2,0,L|368:198,1,100,2|8,0:3|0:0,0:0:0:0:
367,258,195159,1,8,0:0:0:0:
362,317,195475,6,0,P|319:332|247:324,1,100,4|2,3:1|0:0,0:0:0:0:
201,227,196738,1,2,0:3:0:0:
95,284,197370,2,0,L|28:283,1,50,2|8,0:3|0:0,0:0:0:0:
10,232,198001,2,0,P|-9:191|9:121,1,100,4|2,3:0|0:0,0:0:0:0:
99,73,199264,2,0,L|215:75,1,100,2|8,0:3|0:0,0:0:0:0:
244,113,200212,1,8,0:0:0:0:
303,114,200527,6,0,P|338:164|339:203,1,100,4|2,3:0|0:0,0:0:0:0:
317,319,201791,1,2,0:3:0:0:
211,262,202422,2,0,L|151:292,1,50,2|8,0:3|0:0,0:0:0:0:
107,298,203054,2,0,P|87:269|83:192,1,100,4|2,3:0|0:0,0:0:0:0:
176,96,204317,2,0,P|237:101|283:135,1,100,2|8,0:3|0:3,0:0:0:0:
310,164,205264,1,8,0:0:0:0:
364,139,205580,6,0,P|393:79|384:33,1,100,4|2,3:1|0:0,0:0:0:0:
273,15,206843,1,2,3:0:0:0:
172,80,207475,2,0,L|104:76,1,50,2|8,0:3|0:0,0:0:0:0:
62,69,208106,2,0,L|55:169,1,100,4|2,3:0|0:0,0:0:0:0:
173,191,209370,2,0,L|180:291,1,100,2|8,0:3|0:0,0:0:0:0:
232,320,210317,1,8,0:0:0:0:
290,307,210633,6,0,P|333:253|341:225,1,100,4|2,3:0|0:0,0:0:0:0:
286,116,211896,2,0,B|233:119|233:119|181:110,1,100,2|2,0:3|0:3,0:0:0:0:
129,97,212843,1,0,3:0:0:0:
94,147,213159,2,0,L|104:258,1,100,4|2,3:0|0:0,0:0:0:0:
188,330,214422,2,0,P|243:344|303:331,1,100,2|8,0:3|3:0,0:0:0:0:
329,297,215370,1,8,0:0:0:0:
318,238,215685,6,0,B|306:182|306:182|308:121,1,100,4|2,3:1|0:0,0:0:0:0:
334,22,216948,1,2,0:3:0:0:
215,13,217580,2,0,P|211:42|212:77,1,50,2|8,0:3|0:0,0:0:0:0:
218,122,218212,2,0,P|146:111|110:110,1,100,4|2,3:0|0:0,0:0:0:0:
35,196,219475,2,0,P|26:250|34:302,1,100,2|8,0:3|0:0,0:0:0:0:
84,323,220422,1,8,0:0:0:0:
143,314,220738,6,0,L|251:308,1,100,4|2,3:0|0:0,0:0:0:0:
312,210,222001,2,0,L|212:204,1,100,2|2,0:3|0:3,0:0:0:0:
165,167,222948,1,8,0:0:0:0:
127,118,223264,2,0,P|118:74|131:17,1,100,4|2,3:0|0:0,0:0:0:0:
235,77,224527,2,0,L|352:67,1,100,2|8,0:3|0:3,0:0:0:0:
394,78,225475,1,8,0:0:0:0:
386,137,225791,6,0,P|366:215|400:281,1,150,4|8,3:1|0:0,0:0:0:0:
439,314,227054,2,0,L|338:318,1,100,2|2,0:3|0:3,0:0:0:0:
234,258,228317,2,0,P|223:216|216:159,2,100,4|2|2,0:3|0:3|0:3,0:0:0:0:
137,327,230212,2,0,P|103:317|83:314,1,50,8|8,3:0|3:0,0:0:0:0:
37,282,230843,6,0,L|31:115,1,150,2|8,0:3|0:0,0:0:0:0:
75,90,232106,2,0,P|125:105|174:93,1,100,2|2,0:3|0:3,0:0:0:0:
274,35,233370,2,0,P|292:97|254:181,1,150,4|12,0:3|0:3,0:0:0:0:
211,206,234633,1,2,0:3:0:0:
266,312,235264,2,0,P|314:314|327:315,1,50,8|8,0:3|0:3,0:0:0:0:
370,287,235896,6,0,B|377:234|377:234|360:78,1,200,6|2,0:3|0:3,0:0:0:0:
245,56,237791,2,0,L|249:124,1,50,2|8,0:3|0:0,0:0:0:0:
207,150,238422,2,0,P|158:175|54:149,1,150,4|12,0:3|0:3,0:0:0:0:
25,116,239685,1,2,0:3:0:0:
14,235,240317,2,0,L|20:307,1,50,8|8,3:0|3:0,0:0:0:0:
59,328,240948,6,0,B|157:314|157:314|217:325,1,150,2|8,0:3|0:0,0:0:0:0:
266,330,242212,2,0,P|291:291|289:223,1,100,0|2,0:0|0:3,0:0:0:0:
242,129,243475,2,0,L|125:139,1,100,2|0,0:3|0:0,0:0:0:0:
93,27,244738,2,0,L|210:37,1,100,0|2,0:0|0:3,0:0:0:0:
305,76,246001,6,0,B|356:87|406:64|406:64|386:142|386:142|403:187|403:187|388:226|402:266,1,300,4|0,1:0|0:0,0:0:0:0:
306,331,248527,2,0,B|277:289|281:237|281:237|210:296|136:216|79:283,1,300,0|0,0:0|0:0,0:0:0:0:
39,162,251054,6,0,P|91:136|154:138,1,100,0|0,0:0|0:0,0:0:0:0:
252,136,252317,2,0,P|228:92|223:42,1,100,0|0,0:0|0:0,0:0:0:0:
342,56,253580,6,0,B|380:70|435:58|435:58|404:103|423:160|423:160|389:198|403:251|403:251|340:244|306:306,1,400,0|0,0:0|0:0,0:0:0:0:
