osu file format v14

[General]
AudioFilename: crier tout bas2.mp3
AudioLeadIn: 1000
PreviewTime: 118422
Countdown: 0
SampleSet: Soft
StackLeniency: 0.7
Mode: 0
LetterboxInBreaks: 0
EpilepsyWarning: 1
WidescreenStoryboard: 1

[Editor]
Bookmarks: 188554,202765
DistanceSpacing: 1.8
BeatDivisor: 4
GridSize: 4
TimelineZoom: 1.9

[Metadata]
Title:Crier tout bas
TitleUnicode:Crier tout bas
Artist:Coeur de pirate
ArtistUnicode:Cœur de pirate
Creator:sheela
Version:Difficile
Source:
Tags:Béatrice Martin Roses sheela901
BeatmapID:786706
BeatmapSetID:357678

[Difficulty]
HPDrainRate:6
CircleSize:3.6
OverallDifficulty:6
ApproachRate:7
SliderMultiplier:1.35
SliderTickRate:1

[Events]
//Background and Video events
0,0,"coeurdepiraterose.jpg",0,0
//Break Periods
2,162832,181943
//Storyboard Layer 0 (Background)
//Storyboard Layer 1 (Fail)
//Storyboard Layer 2 (Pass)
//Storyboard Layer 3 (Foreground)
//Storyboard Sound Samples

[TimingPoints]
949,631.578947368421,4,2,1,5,1,0
23685,-100,4,2,1,20,0,0
55264,-80,4,2,1,30,0,0
55896,-74.0740740740741,4,2,1,30,0,0
56527,-66.6666666666667,4,2,1,70,0,1
60949,-66.6666666666667,4,3,1,30,0,1
61106,-66.6666666666667,4,3,1,40,0,1
61264,-66.6666666666667,4,3,1,60,0,1
61422,-66.6666666666667,4,3,1,80,0,1
61580,-66.6666666666667,4,2,1,80,0,1
66001,-66.6666666666667,4,3,1,30,0,1
66159,-66.6666666666667,4,3,1,40,0,1
66317,-66.6666666666667,4,3,1,60,0,1
66475,-66.6666666666667,4,3,1,80,0,1
66633,-66.6666666666667,4,2,1,80,0,1
71054,-66.6666666666667,4,3,1,30,0,1
71212,-66.6666666666667,4,3,1,40,0,1
71370,-66.6666666666667,4,3,1,60,0,1
71527,-66.6666666666667,4,3,1,80,0,1
71685,-66.6666666666667,4,2,1,80,0,1
76106,-66.6666666666667,4,3,1,30,0,1
76264,-66.6666666666667,4,3,1,40,0,1
76422,-66.6666666666667,4,3,1,60,0,1
76580,-66.6666666666667,4,3,1,80,0,1
76738,-80,4,2,1,65,0,0
89370,-100,4,2,1,40,0,0
117159,-100,4,2,1,30,0,0
118422,-80,4,2,1,30,0,0
119054,-74.0740740740741,4,2,1,40,0,0
119685,-66.6666666666667,4,2,1,80,0,1
124106,-66.6666666666667,4,3,1,30,0,1
124264,-66.6666666666667,4,3,1,40,0,1
124422,-66.6666666666667,4,3,1,60,0,1
124580,-66.6666666666667,4,3,1,80,0,1
124738,-66.6666666666667,4,2,1,80,0,1
129159,-66.6666666666667,4,3,1,30,0,1
129317,-66.6666666666667,4,3,1,40,0,1
129475,-66.6666666666667,4,3,1,60,0,1
129633,-66.6666666666667,4,3,1,80,0,1
129791,-66.6666666666667,4,2,1,80,0,1
134212,-66.6666666666667,4,3,1,30,0,1
134370,-66.6666666666667,4,3,1,40,0,1
134527,-66.6666666666667,4,3,1,60,0,1
134685,-66.6666666666667,4,3,1,80,0,1
134843,-66.6666666666667,4,2,1,80,0,1
139264,-66.6666666666667,4,3,1,30,0,1
139422,-66.6666666666667,4,3,1,40,0,1
139580,-66.6666666666667,4,3,1,60,0,1
139738,-66.6666666666667,4,3,1,80,0,1
139896,-80,4,2,1,60,0,0
162633,-133.333333333333,4,2,1,30,0,0
182843,-125,4,2,1,20,0,0
183475,-111.111111111111,4,2,1,30,0,0
184106,-100,4,2,1,40,0,0
184422,-100,4,2,1,50,0,0
184738,-80,4,2,1,60,0,0
185054,-80,4,2,1,70,0,0
185370,-66.6666666666667,4,2,1,80,0,1
189791,-66.6666666666667,4,3,1,30,0,1
189948,-66.6666666666667,4,3,1,40,0,1
190106,-66.6666666666667,4,3,1,60,0,1
190264,-66.6666666666667,4,3,1,80,0,1
190422,-66.6666666666667,4,2,1,80,0,1
194843,-66.6666666666667,4,3,1,30,0,1
195001,-66.6666666666667,4,3,1,40,0,1
195159,-66.6666666666667,4,3,1,60,0,1
195317,-66.6666666666667,4,3,1,80,0,1
195475,-66.6666666666667,4,2,1,80,0,1
199896,-66.6666666666667,4,3,1,30,0,1
200054,-66.6666666666667,4,3,1,40,0,1
200212,-66.6666666666667,4,3,1,60,0,1
200370,-66.6666666666667,4,3,1,80,0,1
200527,-66.6666666666667,4,2,1,80,0,1
204948,-66.6666666666667,4,3,1,30,0,1
205106,-66.6666666666667,4,3,1,40,0,1
205264,-66.6666666666667,4,3,1,60,0,0
205422,-66.6666666666667,4,3,1,80,0,0
205580,-66.6666666666667,4,2,1,80,0,1
210001,-66.6666666666667,4,3,1,30,0,1
210159,-66.6666666666667,4,3,1,40,0,1
210317,-66.6666666666667,4,3,1,60,0,1
210475,-66.6666666666667,4,3,1,80,0,1
210633,-66.6666666666667,4,2,1,80,0,1
215054,-66.6666666666667,4,3,1,30,0,1
215212,-66.6666666666667,4,3,1,40,0,1
215370,-66.6666666666667,4,3,1,60,0,1
215527,-66.6666666666667,4,3,1,80,0,1
215685,-66.6666666666667,4,2,1,80,0,1
220106,-66.6666666666667,4,3,1,30,0,1
220264,-66.6666666666667,4,3,1,40,0,1
220422,-66.6666666666667,4,3,1,60,0,1
220580,-66.6666666666667,4,3,1,80,0,1
220738,-66.6666666666667,4,2,1,80,0,1
225159,-66.6666666666667,4,3,1,30,0,1
225317,-66.6666666666667,4,3,1,40,0,1
225475,-66.6666666666667,4,3,1,60,0,1
225633,-66.6666666666667,4,3,1,80,0,1
225791,-80,4,2,1,60,0,0
246001,-133.333333333333,4,2,1,40,0,0
250422,-133.333333333333,4,2,1,30,0,0
254212,-133.333333333333,4,2,1,20,0,0
254843,-133.333333333333,4,2,1,15,0,0
255475,-133.333333333333,4,2,1,10,0,0
256106,-133.333333333333,4,2,1,5,0,0

[Colours]
Combo1 : 245,90,114
Combo2 : 192,192,192
Combo3 : 111,96,115

[HitObjects]
199,113,949,6,0,L|207:220,2,101.25,2|2|0,0:3|0:3|0:0,0:0:0:0:
270,40,2212,1,0,0:0:0:0:
332,119,2527,2,0,L|327:181,2,33.75,2|2|2,0:3|0:3|0:3,0:0:0:0:
372,87,3001,1,2,0:3:0:0:
377,239,3475,6,0,P|315:248|253:221,1,101.25,2|2,0:3|0:3,0:0:0:0:
278,237,4738,1,0,0:0:0:0:
126,297,6001,6,0,P|105:233|122:192,2,101.25,2|2|0,0:3|0:3|0:0,0:0:0:0:
208,238,7264,1,0,0:0:0:0:
239,141,7580,2,0,L|226:106,2,33.75,2|2|2,0:3|0:3|0:3,0:0:0:0:
288,152,8054,1,2,0:3:0:0:
433,108,8527,6,0,B|431:138|431:138|440:179|440:179|435:210,1,101.25,2|2,0:3|0:3,0:0:0:0:
435,207,9791,1,0,0:0:0:0:
336,185,10106,2,0,L|341:122,2,33.75,2|2|2,0:3|0:3|0:3,0:0:0:0:
164,198,11054,6,0,P|108:182|49:203,2,101.25,2|2|0,0:3|0:3|0:0,0:0:0:0:
113,285,12317,1,0,0:0:0:0:
173,365,12633,2,0,P|156:374|138:382,2,33.75,2|2|2,0:3|0:3|0:3,0:0:0:0:
217,341,13106,1,2,0:3:0:0:
268,200,13580,6,0,P|284:144|263:85,2,101.25,2|2|0,0:3|0:3|0:0,0:0:0:0:
206,280,14843,1,0,0:0:0:0:
113,237,15159,2,0,L|61:244,2,33.75,2|2|2,0:3|0:3|0:3,0:0:0:0:
187,48,16106,6,0,L|301:56,2,101.25,2|2|0,0:3|0:3|0:0,0:0:0:0:
124,128,17370,1,0,0:0:0:0:
224,134,17685,2,0,L|269:137,2,33.75,2|2|2,0:3|0:3|0:3,0:0:0:0:
200,179,18159,1,2,0:3:0:0:
351,193,18633,6,0,P|366:143|357:87,2,101.25,2|2|0,0:3|0:3|0:0,0:0:0:0:
281,266,19896,1,0,0:0:0:0:
361,327,20212,2,0,L|415:329,2,33.75,2|2|2,0:3|0:3|0:3,0:0:0:0:
162,288,21159,6,0,L|60:293,1,101.25,2|2,0:3|0:3,0:0:0:0:
84,143,22106,2,0,L|48:140,2,33.75,0|0|0,0:0|0:0|0:0,0:0:0:0:
178,179,22738,2,0,L|214:176,2,33.75,0|0|0,0:3|0:3|0:3,0:0:0:0:
144,212,23212,1,0,0:3:0:0:
310,133,23685,6,0,P|292:192|308:240,2,101.25,2|2|0,0:3|0:3|0:0,0:0:0:0:
394,188,24948,2,0,L|467:178,1,67.5,0|2,0:0|0:3,0:0:0:0:
496,214,25422,1,2,0:3:0:0:
496,214,25580,2,0,P|514:273|498:321,1,101.25,2|0,0:3|0:0,0:0:0:0:
458,331,26212,6,0,L|331:328,1,101.25,2|2,0:3|0:3,0:0:0:0:
214,276,27159,1,0,0:0:0:0:
122,320,27475,2,0,P|110:266|122:229,1,67.5,0|2,0:0|0:3,0:0:0:0:
134,209,27948,1,2,0:3:0:0:
176,181,28106,1,2,0:3:0:0:
228,188,28264,1,0,0:0:0:0:
357,115,28738,6,0,P|408:123|469:96,2,101.25,2|2|0,0:3|0:3|0:0,0:0:0:0:
251,89,30001,1,0,0:0:0:0:
183,164,30317,1,2,0:3:0:0:
181,215,30475,1,2,0:3:0:0:
180,266,30633,1,2,0:3:0:0:
125,351,30948,1,0,0:3:0:0:
55,277,31264,6,0,L|43:176,2,101.25,2|2|0,0:3|0:3|0:0,0:0:0:0:
152,303,32527,2,0,P|191:298|218:287,1,67.5,0|2,0:0|0:3,0:0:0:0:
246,245,33001,1,2,0:3:0:0:
259,196,33159,1,2,0:3:0:0:
255,143,33317,1,0,0:0:0:0:
385,39,33791,6,0,B|397:73|397:73|389:147,2,101.25,2|2|0,0:3|0:3|0:0,0:0:0:0:
299,93,35054,1,0,0:0:0:0:
200,114,35370,2,0,P|200:97|202:80,2,33.75,2|2|2,0:3|0:3|0:3,0:0:0:0:
267,189,36001,1,0,0:0:0:0:
187,273,36317,6,0,P|152:221|158:165,2,101.25,2|2|0,0:3|0:3|0:0,0:0:0:0:
285,297,37580,1,0,0:0:0:0:
357,226,37896,1,2,0:3:0:0:
342,177,38054,1,2,0:3:0:0:
326,128,38212,1,0,0:0:0:0:
309,78,38370,1,2,0:3:0:0:
134,64,38843,6,0,P|89:72|26:57,2,101.25,2|2|0,0:3|0:3|0:0,0:0:0:0:
228,27,40106,1,0,0:0:0:0:
209,126,40422,2,0,L|222:187,2,33.75,2|2|2,0:3|0:3|0:3,0:0:0:0:
303,89,41054,1,0,0:0:0:0:
274,219,41370,6,0,P|230:240|171:229,2,101.25,2|2|0,0:3|0:3|0:0,0:0:0:0:
362,169,42633,1,0,0:0:0:0:
409,269,42949,1,2,0:3:0:0:
442,230,43107,1,2,0:3:0:0:
474,191,43264,1,0,0:0:0:0:
501,153,43422,1,2,0:3:0:0:
328,73,43896,6,0,P|287:65|227:85,2,101.25,2|2|0,0:3|0:3|0:0,0:0:0:0:
365,168,45159,2,0,L|369:241,1,67.5,0|2,0:0|0:3,0:0:0:0:
361,285,45633,1,2,0:3:0:0:
361,285,45791,2,0,L|264:274,1,67.5,2|0,0:3|0:0,0:0:0:0:
200,245,46422,6,0,P|179:199|182:149,2,101.25,2|2|0,0:3|0:3|0:0,0:0:0:0:
279,181,47685,1,0,0:0:0:0:
252,83,48001,1,2,0:3:0:0:
207,59,48159,1,2,0:3:0:0:
156,58,48317,1,2,0:3:0:0:
110,81,48475,1,0,0:0:0:0:
49,230,48949,6,0,L|155:220,2,101.25,2|2|0,0:3|0:3|0:0,0:0:0:0:
108,312,50212,2,0,P|151:303|184:307,1,67.5,0|2,0:0|0:3,0:0:0:0:
213,336,50685,1,2,0:3:0:0:
213,336,50843,2,0,L|211:251,1,67.5,2|0,0:3|0:0,0:0:0:0:
229,172,51475,6,0,P|271:184|330:169,1,101.25,2|2,0:3|0:3,0:0:0:0:
475,143,52422,1,0,0:0:0:0:
482,246,52738,2,0,L|474:316,1,67.5,0|2,0:0|0:3,0:0:0:0:
443,353,53212,1,2,0:3:0:0:
401,366,53370,1,2,0:3:0:0:
351,361,53527,1,2,0:3:0:0:
246,313,54001,6,0,P|188:306|135:320,1,101.25,2|2,0:3|0:3,0:0:0:0:
59,214,54949,1,0,0:0:0:0:
141,156,55264,6,0,L|195:142,3,42.1875,0|0|2|2,3:0|3:0|0:3|0:3,0:0:0:0:
237,161,55896,2,0,L|285:149,3,45.5625001738071,0|0|0|0,3:0|3:0|3:0|3:0,0:0:0:0:
329,170,56527,6,0,P|395:182|472:158,1,101.250003862381,4|8,3:1|0:0,0:0:0:0:
496,106,57001,1,2,3:0:0:0:
428,177,57159,2,0,P|434:235|437:305,1,101.250003862381,2|8,0:0|0:0,0:0:0:0:
309,355,57791,2,0,L|168:351,1,101.250003862381,2|8,3:0|0:0,0:0:0:0:
135,298,58264,1,2,0:3:0:0:
52,361,58422,2,0,P|35:313|43:245,1,101.250003862381,2|8,0:3|0:0,0:0:0:0:
175,198,59054,6,0,L|315:203,1,101.250003862381,4|8,3:0|0:0,0:0:0:0:
351,267,59527,1,2,3:0:0:0:
437,215,59685,2,0,P|451:157|415:83,1,101.250003862381,2|8,0:0|0:0,0:0:0:0:
262,51,60317,2,0,L|119:70,1,101.250003862381,2|8,0:3|0:0,0:0:0:0:
18,134,60949,2,0,P|15:110|17:60,2,50.6250019311906,8|8|8,0:0|0:0|0:0,0:0:0:0:
89,183,61422,1,8,0:0:0:0:
160,234,61580,6,0,P|176:299|151:356,1,101.250003862381,4|8,3:0|0:0,0:0:0:0:
83,288,62054,1,2,3:0:0:0:
167,330,62212,2,0,L|307:305,1,101.250003862381,2|8,0:0|0:0,0:0:0:0:
406,238,62843,2,0,L|264:219,1,101.250003862381,2|8,0:3|0:0,0:0:0:0:
233,168,63317,1,2,0:3:0:0:
149,111,63475,2,0,P|143:204|146:216,1,101.250003862381,2|0,0:3|0:0,0:0:0:0:
275,68,64106,6,0,P|332:101|405:71,1,101.250003862381,4|8,3:0|0:0,0:0:0:0:
448,48,64580,1,2,3:0:0:0:
494,130,64738,2,0,L|474:279,1,101.250003862381,2|8,0:0|0:0,0:0:0:0:
371,318,65370,2,0,L|391:177,1,101.250003862381,2|8,0:3|0:0,0:0:0:0:
306,181,65843,2,0,L|296:262,2,50.6250019311906,2|8|8,3:0|0:0|0:0,0:0:0:0:
377,110,66317,1,8,0:0:0:0:
300,45,66475,1,8,0:0:0:0:
226,112,66633,6,0,L|88:115,1,101.250003862381,4|8,3:1|0:0,0:0:0:0:
53,174,67106,1,2,3:0:0:0:
119,245,67264,2,0,L|261:243,1,101.250003862381,2|8,0:0|0:0,0:0:0:0:
370,313,67896,2,0,P|310:326|236:293,1,101.250003862381,2|8,0:3|0:0,0:0:0:0:
220,243,68370,1,2,0:3:0:0:
180,327,68527,2,0,L|89:329,1,50.6250019311906,2|0,0:3|0:0,0:0:0:0:
53,272,68843,2,0,P|43:241|45:190,1,50.6250019311906,8|0,0:0|3:0,0:0:0:0:
125,179,69159,6,0,P|134:111|98:49,1,101.250003862381,4|8,3:0|0:0,0:0:0:0:
37,37,69633,1,2,3:0:0:0:
123,81,69791,2,0,L|261:76,1,101.250003862381,2|8,0:0|0:0,0:0:0:0:
385,137,70422,2,0,L|390:281,1,101.250003862381,2|8,0:3|0:0,0:0:0:0:
272,372,71054,2,0,P|247:366|212:333,2,50.6250019311906,8|8|8,0:0|0:0|0:0,0:0:0:0:
289,284,71527,1,8,0:0:0:0:
209,229,71685,6,0,L|218:84,1,101.250003862381,4|8,3:0|0:0,0:0:0:0:
252,43,72159,1,2,3:0:0:0:
343,98,72317,2,0,P|398:102|474:55,1,101.250003862381,2|8,0:0|0:0,0:0:0:0:
490,241,72949,2,0,P|504:289|461:373,1,101.250003862381,2|8,0:3|0:0,0:0:0:0:
413,289,73422,1,2,3:0:0:0:
334,330,73580,2,0,L|254:319,1,50.6250019311906,2|0,0:3|0:0,0:0:0:0:
246,237,73896,2,0,L|180:226,1,50.6250019311906,8|0,0:0|3:0,0:0:0:0:
111,163,74212,6,0,L|106:308,1,101.250003862381,4|8,3:0|0:0,0:0:0:0:
153,360,74685,1,2,3:0:0:0:
249,349,74843,2,0,L|391:340,1,101.250003862381,2|8,0:0|0:0,0:0:0:0:
471,251,75475,1,2,0:3:0:0:
313,202,75791,2,0,P|289:209|236:200,2,50.6250019311906,8|2|8,0:0|3:0|0:3,0:0:0:0:
397,159,76264,2,0,P|391:134|388:109,1,50.6250019311906,8|8,0:0|0:0,0:0:0:0:
477,122,76580,1,8,0:0:0:0:
487,228,76738,6,0,L|473:331,1,84.375,4|8,3:1|0:0,0:0:0:0:
412,377,77212,1,2,3:0:0:0:
332,330,77370,2,0,P|276:340|229:316,1,84.375,2|8,0:3|0:0,0:0:0:0:
86,220,78001,2,0,L|127:225,1,42.1875,2|8,0:3|0:0,0:0:0:0:
164,149,78317,2,0,L|230:141,1,42.1875,2|2,0:3|0:3,0:0:0:0:
254,66,78633,2,0,P|212:54|171:60,1,84.375,2|0,0:3|0:0,0:0:0:0:
59,166,79264,6,0,L|64:255,1,84.375,2|8,0:3|0:0,0:0:0:0:
114,315,79738,1,2,3:0:0:0:
114,315,79896,2,0,P|155:325|197:313,1,84.375,2|8,3:3|0:0,0:0:0:0:
286,185,80527,1,2,0:3:0:0:
341,236,80685,2,0,L|341:288,2,42.1875,8|2|2,0:0|0:3|0:3,0:0:0:0:
393,177,81159,2,0,L|401:118,1,42.1875,8|8,0:3|3:0,0:0:0:0:
363,65,81475,2,0,L|355:6,1,42.1875,8|8,3:0|3:0,0:0:0:0:
282,71,81791,6,0,P|231:83|177:74,1,84.375,2|8,0:3|0:0,0:0:0:0:
131,46,82264,1,2,3:0:0:0:
70,92,82422,2,0,P|68:133|79:174,1,84.375,2|8,0:3|0:0,0:0:0:0:
197,222,83054,2,0,L|243:217,2,42.1875,2|8|2,0:3|0:0|3:0,0:0:0:0:
159,287,83527,1,2,3:0:0:0:
216,336,83685,2,0,L|320:321,1,84.375,2|0,0:3|0:0,0:0:0:0:
427,241,84317,6,0,P|451:162|440:136,1,84.375,2|8,0:3|0:0,0:0:0:0:
425,92,84791,1,2,3:0:0:0:
362,48,84949,2,0,L|262:51,1,84.375,2|8,0:3|0:0,0:0:0:0:
204,183,85580,1,2,0:3:0:0:
142,138,85738,2,0,L|153:90,2,42.1875,8|2|2,0:0|3:0|3:0,0:0:0:0:
73,103,86212,2,0,L|82:61,2,42.1875,8|8|8,3:0|3:0|3:0,0:0:0:0:
15,152,86685,1,8,3:0:0:0:
54,219,86843,6,0,P|65:259|51:298,1,84.375,2|8,0:3|0:0,0:0:0:0:
7,361,87317,1,2,3:0:0:0:
82,371,87475,2,0,L|166:369,1,84.375,2|8,0:3|0:0,0:0:0:0:
298,263,88106,2,0,L|223:251,1,42.1875,2|8,0:3|0:0,0:0:0:0:
223,187,88422,2,0,L|298:175,1,42.1875,2|2,3:0|3:0,0:0:0:0:
165,136,88738,2,0,P|145:193|185:256,1,126.5625,2|0,0:3|0:0,0:0:0:0:
219,271,89370,6,0,L|327:263,2,101.25,2|2|0,0:3|0:3|0:0,0:0:0:0:
146,341,90633,1,0,0:0:0:0:
66,278,90949,2,0,L|52:237,2,33.75,2|2|2,0:3|0:3|0:3,0:0:0:0:
139,208,91580,1,0,0:0:0:0:
177,114,91896,6,0,P|127:104|83:124,2,101.25,2|2|0,0:3|0:3|3:2,0:0:0:0:
262,169,93159,1,0,3:2:0:0:
342,107,93475,1,2,0:3:0:0:
389,89,93633,1,2,0:3:0:0:
436,71,93791,1,2,0:3:0:0:
479,50,93949,1,0,0:0:0:0:
431,230,94422,6,0,P|426:271|456:333,2,101.25,2|2|0,0:3|0:3|0:0,0:0:0:0:
333,202,95685,2,0,L|258:204,1,67.5,0|2,0:0|0:3,0:0:0:0:
231,241,96159,1,2,0:3:0:0:
231,241,96317,2,0,P|183:243|150:237,1,67.5,2|0,0:3|0:0,0:0:0:0:
71,198,96949,6,0,P|62:250|81:298,2,101.25,2|2|0,0:3|0:3|3:2,0:0:0:0:
147,131,98212,1,0,3:2:0:0:
244,156,98527,1,2,0:3:0:0:
294,153,98685,1,2,0:3:0:0:
344,150,98843,1,2,0:3:0:0:
396,147,99001,1,0,0:0:0:0:
495,60,99475,6,0,L|509:161,2,101.25,2|2|0,0:3|0:3|0:0,0:0:0:0:
408,35,100738,2,0,P|358:28|325:37,1,67.5,0|2,0:0|0:3,0:0:0:0:
301,68,101212,1,2,0:3:0:0:
261,100,101370,2,0,P|211:107|178:98,1,67.5,2|0,0:3|0:0,0:0:0:0:
80,108,102001,6,0,L|64:7,2,101.25,2|2|0,0:3|0:3|3:2,0:0:0:0:
34,198,103264,2,0,P|44:250|42:273,1,67.5,0|2,3:2|0:3,0:0:0:0:
37,314,103738,1,2,0:3:0:0:
60,359,103896,1,2,0:3:0:0:
106,383,104054,1,0,0:0:0:0:
243,334,104527,6,0,B|295:338|295:338|355:319,2,101.25,2|2|0,0:3|0:3|0:0,0:0:0:0:
255,238,105791,2,0,P|279:182|270:149,1,67.5,0|2,0:0|0:3,0:0:0:0:
266,128,106264,1,2,0:3:0:0:
236,87,106422,2,0,L|154:79,1,67.5,2|0,0:3|0:0,0:0:0:0:
52,132,107054,6,0,P|65:71|49:21,2,101.25,2|2|0,0:3|0:3|3:2,0:0:0:0:
38,232,108317,1,0,3:2:0:0:
27,336,108633,1,2,0:3:0:0:
78,324,108790,1,2,0:3:0:0:
131,312,108948,1,2,0:3:0:0:
183,301,109106,1,0,0:0:0:0:
343,265,109580,6,0,P|396:275|442:260,2,101.25,2|2|0,0:3|0:3|0:0,0:0:0:0:
289,170,110843,1,0,0:0:0:0:
185,111,111159,1,2,0:3:0:0:
185,111,111317,1,2,0:3:0:0:
185,111,111475,2,0,L|193:208,1,67.5,2|0,0:3|0:0,0:0:0:0:
90,110,112106,6,0,P|100:67|140:29,2,101.25,2|2|0,0:3|0:3|3:2,0:0:0:0:
106,210,113370,1,0,3:2:0:0:
39,286,113685,2,0,L|-13:273,2,33.75,2|2|2,0:3|0:3|0:3,0:0:0:0:
85,295,114159,1,0,0:0:0:0:
204,225,114633,6,0,P|247:205|318:222,1,101.25,2|2,0:3|0:3,0:0:0:0:
388,287,115580,1,0,0:0:0:0:
470,211,115896,2,0,L|458:137,1,67.5,0|2,0:0|0:3,0:0:0:0:
451,94,116370,1,2,0:3:0:0:
443,44,116527,1,2,0:3:0:0:
443,44,117159,6,0,B|407:87|368:92|368:92|334:125|334:125|300:132|284:161|284:161|303:170|314:157,1,202.5,2|0,0:3|0:0,0:0:0:0:
264,301,118422,6,0,L|327:290,3,42.1875,0|0|0|0,3:0|3:0|3:0|3:0,0:0:0:0:
336,315,119054,2,0,L|397:328,3,45.5625001738071,0|0|0|0,3:0|3:0|3:0|3:0,0:0:0:0:
416,307,119685,6,0,P|430:250|412:174,1,101.250003862381,4|8,3:1|0:0,0:0:0:0:
390,123,120159,1,2,3:0:0:0:
305,169,120317,2,0,P|242:179|168:150,1,101.250003862381,2|8,0:0|0:0,0:0:0:0:
67,90,120949,2,0,L|85:231,1,101.250003862381,2|8,3:0|0:0,0:0:0:0:
93,274,121422,1,2,0:3:0:0:
109,364,121580,2,0,L|237:349,1,101.250003862381,2|8,0:3|0:0,0:0:0:0:
376,277,122212,6,0,P|388:219|356:149,1,101.250003862381,4|8,3:0|0:0,0:0:0:0:
315,112,122685,1,2,3:0:0:0:
383,36,122843,2,0,L|523:39,1,101.250003862381,2|8,0:0|0:0,0:0:0:0:
478,178,123475,2,0,L|332:179,1,101.250003862381,2|8,0:3|0:0,0:0:0:0:
245,241,124106,2,0,L|247:309,2,50.6250019311906,8|8|8,0:0|0:0|0:0,0:0:0:0:
170,164,124580,1,8,0:0:0:0:
142,60,124738,6,0,P|191:55|234:81,1,101.250003862381,4|8,3:0|0:0,0:0:0:0:
294,158,125212,1,2,3:0:0:0:
382,113,125370,2,0,P|393:174|355:247,1,101.250003862381,2|8,0:0|0:0,0:0:0:0:
293,333,126001,2,0,P|362:303|418:317,1,101.250003862381,2|8,0:3|0:0,0:0:0:0:
473,351,126475,1,2,0:3:0:0:
468,252,126633,2,0,L|475:151,1,101.250003862381,2|8,0:3|0:0,0:0:0:0:
362,49,127264,6,0,P|304:24|224:34,1,101.250003862381,4|8,3:0|0:0,0:0:0:0:
210,96,127738,1,2,3:0:0:0:
126,41,127896,2,0,P|113:90|140:168,1,101.250003862381,2|8,0:0|0:0,0:0:0:0:
248,223,128527,2,0,L|241:368,1,101.250003862381,2|8,0:3|0:0,0:0:0:0:
88,248,129159,2,0,L|80:171,1,50.6250019311906,8|8,0:0|0:0,0:0:0:0:
124,106,129475,1,8,0:0:0:0:
220,141,129633,1,8,0:0:0:0:
308,62,129791,6,0,P|363:39|440:62,1,101.250003862381,4|8,3:1|0:0,0:0:0:0:
479,98,130264,1,2,3:0:0:0:
456,194,130422,2,0,L|316:184,1,101.250003862381,2|8,0:0|0:0,0:0:0:0:
259,67,131054,2,0,L|111:75,1,101.250003862381,2|8,0:3|0:0,0:0:0:0:
59,83,131527,1,2,0:3:0:0:
115,161,131685,2,0,L|136:241,1,50.6250019311906,2|0,0:3|0:0,0:0:0:0:
60,279,132001,2,0,L|40:348,1,50.6250019311906,8|0,0:0|3:0,0:0:0:0:
150,377,132317,6,0,P|212:388|281:361,1,101.250003862381,4|8,3:0|0:0,0:0:0:0:
317,319,132791,1,2,3:0:0:0:
378,244,132948,2,0,P|410:314|388:372,1,101.250003862381,2|8,0:0|0:0,0:0:0:0:
283,228,133580,2,0,P|284:159|326:109,1,101.250003862381,2|8,0:3|0:0,0:0:0:0:
442,82,134212,2,0,L|509:87,2,50.6250019311906,8|8|8,0:0|0:0|0:0,0:0:0:0:
390,165,134685,1,8,0:0:0:0:
299,132,134843,6,0,P|241:124|174:164,1,101.250003862381,4|8,3:0|0:0,0:0:0:0:
136,212,135317,1,2,3:0:0:0:
20,175,135475,2,0,L|35:306,1,101.250003862381,2|8,0:0|0:0,0:0:0:0:
164,341,136106,2,0,P|217:309|265:239,1,101.250003862381,2|8,0:3|0:0,0:0:0:0:
263,183,136580,1,2,0:3:0:0:
350,231,136738,2,0,P|409:235|449:228,1,50.6250019311906,2|0,0:3|0:0,0:0:0:0:
481,181,137054,2,0,P|483:147|478:113,1,50.6250019311906,8|0,0:0|3:0,0:0:0:0:
418,52,137370,6,0,P|359:59|326:94,1,101.250003862381,4|8,3:0|0:0,0:0:0:0:
298,174,137843,1,2,3:0:0:0:
391,159,138001,2,0,P|357:100|291:84,1,101.250003862381,2|8,0:0|0:0,0:0:0:0:
191,155,138633,1,2,0:3:0:0:
63,96,138948,2,0,L|52:21,2,50.6250019311906,8|2|8,0:0|3:0|0:3,0:0:0:0:
99,181,139422,2,0,L|90:251,1,50.6250019311906,8|8,0:0|0:0,0:0:0:0:
74,333,139738,1,8,0:0:0:0:
165,297,139896,6,0,P|210:290|255:303,1,84.375,4|8,3:1|0:0,0:0:0:0:
314,352,140370,1,2,3:0:0:0:
374,307,140527,2,0,L|356:210,1,84.375,2|8,0:3|0:0,0:0:0:0:
240,128,141159,2,0,L|255:210,1,84.375,2|2,0:3|0:3,0:0:0:0:
207,270,141633,1,2,0:3:0:0:
138,237,141791,2,0,P|123:195|130:151,1,84.375,2|0,0:3|0:0,0:0:0:0:
246,47,142422,6,0,P|253:94|238:130,1,84.375,2|8,0:3|0:0,0:0:0:0:
178,81,142896,1,2,0:3:0:0:
112,42,143054,2,0,L|22:46,1,84.375,2|8,0:3|0:0,0:0:0:0:
60,169,143685,1,2,0:3:0:0:
134,185,143843,2,0,L|204:181,2,42.1875,8|2|2,0:0|0:3|0:3,0:0:0:0:
86,264,144317,2,0,P|129:276|202:256,1,84.375,2|0,0:3|0:0,0:0:0:0:
309,217,144948,6,0,P|352:205|425:225,1,84.375,2|8,0:3|0:0,0:0:0:0:
360,286,145422,1,2,0:3:0:0:
240,263,145580,2,0,P|228:220|248:147,1,84.375,2|8,0:3|0:0,0:0:0:0:
291,68,146212,1,2,0:3:0:0:
356,105,146370,2,0,L|407:106,2,42.1875,8|2|2,0:0|0:3|0:3,0:0:0:0:
291,68,146843,2,0,P|249:60|186:81,1,84.375,2|0,0:3|0:0,0:0:0:0:
67,205,147475,6,0,P|109:213|172:192,1,84.375,2|8,0:3|0:0,0:0:0:0:
204,152,147948,1,2,0:3:0:0:
271,185,148106,2,0,L|258:294,1,84.375,2|8,0:3|0:0,0:0:0:0:
407,309,148738,1,2,0:3:0:0:
440,240,148896,2,0,L|436:184,2,42.1875,8|2|2,0:0|0:3|0:3,0:0:0:0:
366,166,149370,2,0,P|401:131|436:122,1,84.375,2|0,0:3|0:0,0:0:0:0:
311,270,150001,6,0,B|293:273|293:273|270:266|270:266|249:278|194:269,1,84.375,4|8,1:0|0:0,0:0:0:0:
160,239,150475,1,2,0:3:0:0:
88,265,150633,2,0,P|85:221|105:185,1,84.375,2|8,0:3|0:0,0:0:0:0:
233,107,151264,2,0,L|279:98,1,42.1875,2|8,0:3|0:0,0:0:0:0:
357,132,151580,2,0,L|366:178,1,42.1875,2|2,0:3|0:3,0:0:0:0:
432,231,151896,2,0,P|399:252|322:256,1,84.375,2|0,0:3|0:0,0:0:0:0:
201,329,152527,6,0,P|182:276|198:227,1,84.375,2|8,0:3|0:0,0:0:0:0:
248,204,153001,1,2,0:3:0:0:
266,278,153159,1,2,0:3:0:0:
338,144,153475,1,8,0:0:0:0:
209,62,153791,1,2,0:3:0:0:
155,114,153948,2,0,L|84:114,2,42.1875,8|2|2,0:0|0:3|0:3,0:0:0:0:
207,170,154422,2,0,L|303:169,1,84.375,2|0,0:3|0:0,0:0:0:0:
390,335,155054,6,0,P|337:347|288:341,1,84.375,2|8,0:3|0:0,0:0:0:0:
255,289,155527,1,2,0:3:0:0:
187,254,155685,2,0,P|134:242|85:248,1,84.375,2|8,0:3|0:0,0:0:0:0:
36,107,156317,1,2,0:3:0:0:
36,107,156475,2,0,L|96:114,1,42.1875,8|2,0:0|0:3,0:0:0:0:
153,122,156791,1,2,0:3:0:0:
227,131,156948,2,0,L|318:124,1,84.375,2|0,0:3|0:0,0:0:0:0:
422,255,157580,6,0,P|380:247|338:253,1,84.375,2|8,0:3|0:0,0:0:0:0:
283,306,158054,1,2,0:3:0:0:
212,276,158212,2,0,B|188:269|188:269|157:274|157:274|127:268,1,84.375,2|8,0:3|0:0,0:0:0:0:
187,127,158843,1,2,0:3:0:0:
111,134,159001,2,0,L|66:136,2,42.1875,8|2|2,0:0|0:3|0:3,0:0:0:0:
144,50,159475,2,0,P|201:41|236:56,1,84.375,2|0,0:3|0:0,0:0:0:0:
386,197,160106,6,0,L|389:313,1,84.375,2|8,0:3|0:0,0:0:0:0:
367,368,160580,1,2,0:3:0:0:
281,344,160738,2,0,P|282:300|277:240,1,84.375,2|8,0:3|0:0,0:0:0:0:
138,205,161370,2,0,P|129:169|134:146,1,42.1875,2|8,0:3|0:0,0:0:0:0:
175,84,161685,1,2,0:3:0:0:
76,61,161843,1,2,0:3:0:0:
32,152,162001,2,0,B|30:160|30:160|35:171|35:171|28:191|28:191|39:212|30:237|30:237|46:280|33:328,1,168.75,10|0,0:3|0:0,0:0:0:0:
256,192,182843,12,0,185054,3:0:0:0:
256,192,185370,6,0,P|297:212|391:180,1,101.250003862381,4|8,3:1|0:0,0:0:0:0:
316,123,185843,1,2,3:0:0:0:
253,56,186001,2,0,L|103:49,1,101.250003862381,2|8,0:0|0:0,0:0:0:0:
31,189,186633,2,0,P|96:178|151:215,1,101.250003862381,2|10,3:0|3:0,0:0:0:0:
150,279,187106,1,2,0:3:0:0:
224,331,187264,2,0,L|306:324,1,50.6250019311906,2|0,0:3|0:0,0:0:0:0:
356,367,187580,1,8,0:0:0:0:
497,252,187896,6,0,L|510:105,1,101.250003862381,4|8,3:0|0:0,0:0:0:0:
463,69,188370,1,2,3:0:0:0:
407,140,188527,2,0,L|267:150,1,101.250003862381,2|8,0:0|0:0,0:0:0:0:
123,149,189159,2,0,P|147:87|136:21,2,101.250003862381,2|8|8,0:3|0:0|0:0,0:0:0:0:
38,184,189948,1,8,0:0:0:0:
84,262,190106,2,0,L|164:258,1,50.6250019311906,8|0,0:0|0:0,0:0:0:0:
218,328,190422,6,0,L|366:326,1,101.250003862381,4|8,3:0|0:0,0:0:0:0:
405,294,190896,1,2,3:0:0:0:
381,199,191054,2,0,L|233:195,1,101.250003862381,2|8,0:0|0:0,0:0:0:0:
144,73,191685,2,0,P|241:84|275:60,1,101.250003862381,2|8,0:3|0:0,0:0:0:0:
317,34,192159,1,2,0:3:0:0:
402,66,192317,2,0,P|412:102|407:142,2,50.6250019311906,2|0|0,0:3|0:0|3:0,0:0:0:0:
262,180,192948,6,0,L|117:170,1,101.250003862381,4|8,3:0|0:0,0:0:0:0:
81,127,193422,1,2,3:0:0:0:
81,127,193580,2,0,P|73:201|103:253,1,101.250003862381,2|8,0:0|0:0,0:0:0:0:
253,287,194212,2,0,P|292:270|325:270,2,50.6250019311906,2|0|8,0:3|0:0|0:0,0:0:0:0:
199,213,194685,2,0,P|214:173|237:150,2,50.6250019311906,2|8|8,3:0|0:0|0:0,0:0:0:0:
107,209,195159,2,0,P|90:170|90:137,1,50.6250019311906,8|8,0:0|0:0,0:0:0:0:
162,60,195475,6,0,P|240:49|292:71,1,101.250003862381,4|8,3:1|0:0,0:0:0:0:
337,103,195948,1,2,3:0:0:0:
424,78,196106,2,0,L|425:212,1,101.250003862381,2|8,0:0|0:0,0:0:0:0:
340,341,196738,2,0,P|321:257|343:205,1,101.250003862381,2|8,0:3|0:0,0:0:0:0:
407,281,197212,1,2,0:3:0:0:
323,244,197370,2,0,P|239:225|187:247,1,101.250003862381,2|8,0:3|0:0,0:0:0:0:
44,237,198001,6,0,P|19:164|36:115,1,101.250003862381,4|8,3:0|0:0,0:0:0:0:
85,74,198475,1,2,3:0:0:0:
166,114,198633,2,0,B|217:108|217:108|311:115,1,101.250003862381,2|8,0:0|0:0,0:0:0:0:
416,215,199264,2,0,L|282:240,1,101.250003862381,2|8,0:3|0:0,0:0:0:0:
252,299,199738,1,2,3:0:0:0:
165,327,199896,2,0,P|162:294|168:261,1,50.6250019311906,8|8,0:0|0:0,0:0:0:0:
82,234,200212,2,0,P|86:200|83:167,1,50.6250019311906,8|8,0:0|0:0,0:0:0:0:
41,88,200527,6,0,P|121:95|183:73,1,101.250003862381,4|8,3:0|0:0,0:0:0:0:
222,49,201001,1,2,3:0:0:0:
286,113,201159,2,0,P|281:193|251:251,1,101.250003862381,2|8,0:0|0:0,0:0:0:0:
85,183,201791,2,0,L|108:323,1,101.250003862381,2|8,0:3|0:0,0:0:0:0:
161,351,202264,1,2,0:3:0:0:
248,325,202422,2,0,L|244:403,2,50.6250019311906,2|0|8,0:3|0:0|0:0,0:0:0:0:
227,160,203054,6,0,P|305:145|361:179,1,101.250003862381,4|8,3:0|0:0,0:0:0:0:
389,214,203527,1,2,3:0:0:0:
348,295,203685,2,0,L|212:289,1,101.250003862381,2|8,0:0|0:0,0:0:0:0:
74,260,204317,2,0,L|66:328,2,50.6250019311906,2|8|2,0:3|0:0|0:3,0:0:0:0:
158,223,204791,2,0,P|168:261|166:291,2,50.6250019311906,2|8|8,0:3|0:3|0:0,0:0:0:0:
81,173,205264,2,0,P|71:135|73:105,1,50.6250019311906,8|8,0:0|0:0,0:0:0:0:
154,51,205580,6,0,L|300:57,1,101.250003862381,4|8,3:1|0:0,0:0:0:0:
329,109,206054,1,2,3:0:0:0:
329,109,206212,2,0,P|339:26|302:-25,1,101.250003862381,2|8,0:0|0:0,0:0:0:0:
276,182,206843,2,0,P|359:192|410:155,1,101.250003862381,2|8,3:0|0:0,0:0:0:0:
439,123,207317,1,2,0:3:0:0:
458,212,207475,2,0,L|480:355,1,101.250003862381,2|8,0:3|0:0,0:0:0:0:
299,368,208106,6,0,L|165:348,1,101.250003862381,4|8,3:0|0:0,0:0:0:0:
123,301,208580,1,2,3:0:0:0:
77,222,208738,2,0,B|132:209|132:209|201:250,1,101.250003862381,2|8,0:0|0:0,0:0:0:0:
343,290,209370,2,0,P|414:309|463:291,2,101.250003862381,2|8|8,0:3|0:0|0:0,0:0:0:0:
327,200,210159,1,8,0:0:0:0:
236,205,210317,2,0,P|228:284|231:304,1,50.6250019311906,8|8,0:0|0:0,0:0:0:0:
170,353,210633,6,0,P|121:264|126:226,1,101.250003862381,4|8,3:0|0:0,0:0:0:0:
157,184,211106,1,2,3:0:0:0:
75,113,211264,2,0,P|123:100|162:68,1,101.250003862381,2|8,0:0|0:0,0:0:0:0:
312,24,211896,2,0,L|454:15,1,101.250003862381,2|8,0:3|0:0,0:0:0:0:
466,92,212370,1,2,0:3:0:0:
390,141,212527,2,0,P|392:183|385:214,1,50.6250019311906,2|0,0:3|0:0,0:0:0:0:
300,175,212843,1,0,0:0:0:0:
358,324,213159,6,0,P|281:349|243:339,1,101.250003862381,4|8,3:0|0:0,0:0:0:0:
182,302,213633,1,2,3:0:0:0:
113,241,213791,2,0,P|88:180|114:119,1,101.250003862381,2|8,0:0|0:0,0:0:0:0:
277,147,214422,2,0,P|189:178|147:169,1,101.250003862381,2|8,0:3|0:0,0:0:0:0:
199,87,214896,1,2,3:0:0:0:
276,39,215054,2,0,L|353:17,1,50.6250019311906,8|8,3:0|0:0,0:0:0:0:
412,50,215370,1,8,0:0:0:0:
446,133,215527,1,8,0:0:0:0:
430,222,215685,6,0,P|365:258|317:250,1,101.250003862381,4|8,3:1|0:0,0:0:0:0:
250,239,216159,1,2,3:0:0:0:
168,280,216317,2,0,L|149:149,1,101.250003862381,2|8,0:0|0:0,0:0:0:0:
249,56,216948,2,0,P|187:29|122:39,1,101.250003862381,2|8,0:3|0:0,0:0:0:0:
74,74,217422,1,2,0:3:0:0:
47,161,217580,1,2,0:3:0:0:
126,297,217896,2,0,L|194:298,1,50.6250019311906,8|0,0:0|3:0,0:0:0:0:
240,363,218212,6,0,P|267:301|241:229,1,101.250003862381,4|8,3:0|0:0,0:0:0:0:
212,193,218685,1,2,3:0:0:0:
285,122,218843,2,0,L|434:119,1,101.250003862381,2|8,0:0|0:0,0:0:0:0:
477,278,219475,2,0,P|405:262|344:283,1,101.250003862381,2|8,0:3|0:0,0:0:0:0:
315,332,219948,1,2,3:0:0:0:
241,277,220106,2,0,L|166:285,1,50.6250019311906,8|8,0:0|0:0,0:0:0:0:
108,323,220422,2,0,P|99:279|106:232,1,50.6250019311906,8|8,0:0|0:0,0:0:0:0:
161,174,220738,6,0,P|85:175|29:139,1,101.250003862381,4|8,3:0|0:0,0:0:0:0:
39,77,221212,1,2,3:0:0:0:
149,51,221370,2,0,P|225:52|281:16,1,101.250003862381,2|8,0:0|0:0,0:0:0:0:
427,17,222001,2,0,L|417:147,1,101.250003862381,2|8,0:3|0:0,0:0:0:0:
410,209,222475,1,2,0:3:0:0:
319,223,222633,2,0,L|331:355,1,101.250003862381,2|8,0:3|0:0,0:0:0:0:
168,352,223264,6,0,P|188:279|160:227,1,101.250003862381,4|8,3:0|0:0,0:0:0:0:
133,178,223738,1,2,3:0:0:0:
99,79,223896,2,0,P|172:99|232:78,1,101.250003862381,2|8,0:0|0:0,0:0:0:0:
359,176,224527,2,0,P|391:123|398:98,2,50.6250019311906,2|8|8,0:3|0:0|0:0,0:0:0:0:
293,240,225001,2,0,P|279:210|259:183,1,50.6250019311906,2|8,0:3|0:3,0:0:0:0:
179,175,225317,2,0,P|164:236|151:258,1,50.6250019311906,8|8,0:3|0:3,0:0:0:0:
88,268,225633,1,8,0:3:0:0:
32,192,225791,6,0,P|42:131|90:91,1,126.5625,4|2,3:1|0:3,0:0:0:0:
159,123,226422,2,0,L|283:131,1,84.375,2|8,0:3|0:0,0:0:0:0:
376,54,227054,1,2,0:3:0:0:
420,115,227212,2,0,L|461:121,1,42.1875,8|2,0:0|0:3,0:0:0:0:
485,193,227527,1,2,0:3:0:0:
418,229,227685,2,0,P|390:282|409:339,1,84.375,2|8,0:3|0:0,0:0:0:0:
242,274,228317,6,0,L|253:366,1,84.375,4|8,0:3|0:0,0:0:0:0:
175,361,228791,1,4,0:3:0:0:
113,316,228948,2,0,P|92:279|93:237,1,84.375,2|12,0:3|0:3,0:0:0:0:
213,143,229580,2,0,L|215:100,1,42.1875,2|8,0:3|0:0,0:0:0:0:
289,85,229896,2,0,P|285:47|286:22,1,42.1875,6|2,0:3|0:3,0:0:0:0:
357,17,230212,2,0,P|377:20|398:22,2,42.1875,8|8|12,3:0|3:0|3:0,0:0:0:0:
370,103,230685,1,8,3:0:0:0:
420,182,230843,6,0,P|367:194|311:178,1,84.375,2|8,0:3|0:0,0:0:0:0:
261,185,231317,1,2,0:3:0:0:
261,185,231475,2,0,L|267:290,1,84.375,2|8,0:3|0:0,0:0:0:0:
146,370,232106,2,0,L|150:285,1,84.375,2|2,0:3|0:3,0:0:0:0:
108,221,232580,1,2,0:3:0:0:
157,163,232738,2,0,P|161:121|157:79,1,84.375,2|0,0:3|0:0,0:0:0:0:
305,42,233370,6,0,B|305:98|305:98|320:146,1,84.375,4|8,0:3|0:0,0:0:0:0:
366,179,233843,2,0,B|393:187|393:187|449:187,1,84.375,4|0,0:3|0:0,0:0:0:0:
503,133,234317,1,12,0:3:0:0:
503,133,234633,2,0,L|508:72,1,42.1875,2|8,0:3|0:0,0:0:0:0:
417,45,234948,2,0,L|421:88,1,42.1875,6|2,0:3|0:3,0:0:0:0:
348,157,235264,2,0,P|297:168|250:156,1,84.375,8|12,0:3|0:3,0:0:0:0:
182,128,235738,1,8,0:3:0:0:
107,188,235896,6,0,P|96:239|108:286,1,84.375,2|8,0:3|0:0,0:0:0:0:
142,334,236370,1,2,0:3:0:0:
219,316,236527,2,0,L|313:309,1,84.375,2|8,0:3|0:0,0:0:0:0:
375,175,237159,1,2,0:3:0:0:
459,301,237475,2,0,L|454:242,1,42.1875,2|2,0:3|0:3,0:0:0:0:
465,183,237791,2,0,L|456:62,1,84.375,2|8,0:3|0:0,0:0:0:0:
317,44,238422,6,0,P|255:36|214:45,1,84.375,4|8,0:3|0:0,0:0:0:0:
149,93,238896,2,0,P|141:31|150:-10,1,84.375,4|0,0:3|0:0,0:0:0:0:
232,129,239370,2,0,P|213:166|186:198,1,84.375,12|2,0:3|0:3,0:0:0:0:
35,190,240001,1,6,0:3:0:0:
61,273,240159,2,0,L|16:291,2,42.1875,2|8|8,0:3|3:0|3:0,0:0:0:0:
139,317,240633,1,12,3:0:0:0:
203,261,240791,1,8,3:0:0:0:
294,313,240948,6,0,P|315:250|314:211,1,84.375,2|8,0:3|0:0,0:0:0:0:
264,141,241422,1,2,0:3:0:0:
264,141,241580,2,0,P|305:144|354:129,1,84.375,0|8,0:0|0:0,0:0:0:0:
186,34,242212,1,0,0:0:0:0:
53,108,242527,1,2,0:3:0:0:
53,108,242685,1,2,0:3:0:0:
53,108,242843,2,0,P|66:157|61:219,1,84.375,2|0,0:3|0:0,0:0:0:0:
142,322,243475,6,0,P|181:328|228:321,1,84.375,2|8,0:3|0:0,0:0:0:0:
263,256,243948,1,2,0:3:0:0:
235,185,244106,2,0,L|145:162,2,84.375,0|8|0,0:0|0:0|0:0,0:0:0:0:
302,129,244896,2,0,L|306:86,1,42.1875,8|2,0:0|0:3,0:0:0:0:
383,47,245212,1,2,0:3:0:0:
450,98,245370,6,0,P|502:94|517:95,1,42.1875,2|2,0:3|3:0,0:0:0:0:
421,201,245685,2,0,P|399:199|379:196,1,42.1875,2|2,3:0|3:0,0:0:0:0:
258,237,246001,6,0,B|214:233|183:233|183:233|161:248|161:248|136:237|136:237|107:255|69:248|69:248|44:206|71:159|71:159|50:135|59:81,1,354.375013518334,4|0,1:0|0:0,0:0:0:0:
126,41,248527,2,0,B|224:32|274:154|274:154|314:105|292:46,1,303.750011587143,0|0,0:0|0:0,0:0:0:0:
187,224,251054,6,0,P|253:259|327:247,1,151.875005793572,0|0,0:0|0:0,0:0:0:0:
374,169,252317,2,0,B|372:209|372:209|382:241|382:241|361:283|385:338,1,151.875005793572,0|0,0:0|0:0,0:0:0:0:
299,238,253580,6,0,B|267:186|202:200|177:263|215:309|271:315|271:315|277:346|315:366|315:366|241:343|197:354,1,405.000015449524,0|0,0:0|0:0,0:0:0:0:
