osu file format v14

[General]
AudioFilename: crier tout bas2.mp3
AudioLeadIn: 1000
PreviewTime: 118422
Countdown: 0
SampleSet: Soft
StackLeniency: 0.7
Mode: 0
LetterboxInBreaks: 0
EpilepsyWarning: 1
WidescreenStoryboard: 1

[Editor]
DistanceSpacing: 1.3
BeatDivisor: 4
GridSize: 4
TimelineZoom: 1.9

[Metadata]
Title:Crier tout bas
TitleUnicode:Crier tout bas
Artist:Coeur de pirate
ArtistUnicode:Cœur de pirate
Creator:sheela
Version:Depression
Source:
Tags:Béatrice Martin Roses sheela901
BeatmapID:786705
BeatmapSetID:357678

[Difficulty]
HPDrainRate:7
CircleSize:4
OverallDifficulty:7
ApproachRate:8.5
SliderMultiplier:1.6
SliderTickRate:1

[Events]
//Background and Video events
0,0,"coeurdepiraterose.jpg",0,0
//Break Periods
2,162833,182168
//Storyboard Layer 0 (Background)
//Storyboard Layer 1 (Fail)
//Storyboard Layer 2 (Pass)
//Storyboard Layer 3 (Foreground)
//Storyboard Sound Samples

[TimingPoints]
949,631.578947368421,4,2,1,5,1,0
23685,-100,4,2,1,20,0,0
55264,-100,4,2,1,30,0,0
56527,-66.6666666666667,4,2,1,80,0,1
58106,-66.6666666666667,4,3,2,80,0,1
58185,-66.6666666666667,4,2,1,80,0,1
60949,-66.6666666666667,4,3,1,30,0,1
61106,-66.6666666666667,4,3,1,40,0,1
61264,-66.6666666666667,4,3,1,60,0,1
61422,-66.6666666666667,4,3,1,80,0,1
61580,-66.6666666666667,4,2,1,80,0,1
63159,-66.6666666666667,4,3,2,80,0,1
63238,-66.6666666666667,4,2,1,80,0,1
66001,-66.6666666666667,4,3,1,30,0,1
66159,-66.6666666666667,4,3,1,40,0,1
66317,-66.6666666666667,4,3,1,60,0,1
66475,-66.6666666666667,4,3,1,80,0,1
66633,-66.6666666666667,4,2,1,80,0,1
68212,-66.6666666666667,4,3,2,80,0,1
68291,-66.6666666666667,4,2,1,80,0,1
71054,-66.6666666666667,4,3,1,30,0,1
71212,-66.6666666666667,4,3,1,40,0,1
71370,-66.6666666666667,4,3,1,60,0,1
71527,-66.6666666666667,4,3,1,80,0,1
71685,-66.6666666666667,4,2,1,80,0,1
73264,-66.6666666666667,4,3,1,80,0,1
73343,-66.6666666666667,4,2,1,80,0,1
76106,-66.6666666666667,4,3,1,30,0,1
76264,-66.6666666666667,4,3,1,40,0,1
76422,-66.6666666666667,4,3,1,60,0,1
76580,-66.6666666666667,4,3,1,80,0,1
76738,-80,4,2,1,65,0,0
89370,-100,4,2,1,40,0,0
117159,-100,4,2,1,30,0,0
118422,-100,4,2,1,30,0,0
119054,-100,4,2,1,40,0,0
119685,-66.6666666666667,4,2,1,80,0,1
121264,-66.6666666666667,4,3,2,80,0,1
121343,-66.6666666666667,4,2,1,80,0,1
124106,-66.6666666666667,4,3,1,30,0,1
124264,-66.6666666666667,4,3,1,40,0,1
124422,-66.6666666666667,4,3,1,60,0,1
124580,-66.6666666666667,4,3,1,80,0,1
124738,-66.6666666666667,4,2,1,80,0,1
126317,-66.6666666666667,4,3,2,80,0,1
126396,-66.6666666666667,4,2,1,80,0,1
129159,-66.6666666666667,4,3,1,30,0,1
129317,-66.6666666666667,4,3,1,40,0,1
129475,-66.6666666666667,4,3,1,60,0,1
129633,-66.6666666666667,4,3,1,80,0,1
129791,-66.6666666666667,4,2,1,80,0,1
131370,-66.6666666666667,4,3,2,80,0,1
131448,-66.6666666666667,4,2,1,80,0,1
134212,-66.6666666666667,4,3,1,30,0,1
134370,-66.6666666666667,4,3,1,40,0,1
134527,-66.6666666666667,4,3,1,60,0,1
134685,-66.6666666666667,4,3,1,80,0,1
134843,-66.6666666666667,4,2,1,80,0,1
136422,-66.6666666666667,4,3,2,80,0,1
136501,-66.6666666666667,4,2,1,80,0,1
139264,-66.6666666666667,4,3,1,30,0,1
139422,-66.6666666666667,4,3,1,40,0,1
139580,-66.6666666666667,4,3,1,60,0,1
139738,-66.6666666666667,4,3,1,80,0,1
139896,-80,4,2,1,60,0,0
162633,-133.333333333333,4,2,1,30,0,0
182843,-125,4,2,1,20,0,0
183475,-111.111111111111,4,2,1,30,0,0
184106,-100,4,2,1,40,0,0
184422,-100,4,2,1,50,0,0
184738,-80,4,2,1,60,0,0
185054,-80,4,2,1,20,0,0
185370,-50,4,2,1,80,0,1
186948,-50,4,3,2,80,0,1
187027,-50,4,2,1,80,0,1
189791,-50,4,3,1,30,0,1
189948,-50,4,3,1,40,0,1
190106,-50,4,3,1,60,0,1
190264,-50,4,3,1,80,0,1
190422,-50,4,2,1,80,0,1
192001,-50,4,3,2,80,0,1
192080,-50,4,2,1,80,0,1
194843,-50,4,3,1,30,0,1
195001,-50,4,3,1,40,0,1
195159,-50,4,3,1,60,0,1
195317,-50,4,3,1,80,0,1
195475,-50,4,2,1,80,0,1
197054,-50,4,3,2,80,0,1
197133,-50,4,2,1,80,0,1
199896,-50,4,3,1,30,0,1
200054,-50,4,3,1,40,0,1
200212,-50,4,3,1,60,0,1
200370,-50,4,3,1,80,0,1
200527,-50,4,2,1,80,0,1
202106,-50,4,3,2,80,0,1
202185,-50,4,2,1,80,0,1
204948,-50,4,3,1,30,0,1
205106,-50,4,3,1,40,0,1
205264,-50,4,3,1,60,0,0
205422,-50,4,3,1,80,0,0
205580,-50,4,2,1,80,0,1
207159,-50,4,3,2,80,0,1
207238,-50,4,2,1,80,0,1
210001,-50,4,3,1,30,0,1
210159,-50,4,3,1,40,0,1
210317,-50,4,3,1,60,0,1
210475,-50,4,3,1,80,0,1
210633,-50,4,2,1,80,0,1
212212,-50,4,3,2,80,0,1
212291,-50,4,2,1,80,0,1
215054,-50,4,3,1,30,0,1
215212,-50,4,3,1,40,0,1
215370,-50,4,3,1,60,0,1
215527,-50,4,3,1,80,0,1
215685,-50,4,2,1,80,0,1
217264,-50,4,3,2,80,0,1
217343,-50,4,2,1,80,0,1
220106,-50,4,3,1,30,0,1
220264,-50,4,3,1,40,0,1
220422,-50,4,3,1,60,0,1
220580,-50,4,3,1,80,0,1
220738,-50,4,2,1,80,0,1
222317,-50,4,3,2,80,0,1
222396,-50,4,2,1,80,0,1
225159,-50,4,3,1,30,0,1
225317,-50,4,3,1,40,0,1
225475,-50,4,3,1,60,0,1
225633,-50,4,3,1,80,0,1
225791,-80,4,2,1,60,0,0
246001,-133.333333333333,4,2,1,40,0,0
250738,-133.333333333333,4,2,1,30,0,0
254212,-133.333333333333,4,2,1,20,0,0
254843,-133.333333333333,4,2,1,15,0,0
255475,-133.333333333333,4,2,1,10,0,0
256106,-133.333333333333,4,2,1,5,0,0

[Colours]
Combo1 : 245,90,114
Combo2 : 192,192,192
Combo3 : 111,96,115

[HitObjects]
196,140,949,5,2,0:3:0:0:
307,94,1422,1,2,0:3:0:0:
389,181,1896,2,0,P|427:191|482:186,1,80
315,276,2527,1,2,0:3:0:0:
275,273,2685,1,2,0:3:0:0:
235,271,2843,1,2,0:3:0:0:
195,269,3001,1,2,0:3:0:0:
79,208,3475,5,2,0:3:0:0:
121,95,3948,1,2,0:3:0:0:
121,95,4738,1,0,0:0:0:0:
113,78,6001,5,2,0:3:0:0:
228,149,6475,1,2,0:3:0:0:
331,88,6949,2,0,P|373:76|420:83,1,80
374,199,7580,1,2,0:3:0:0:
366,238,7738,1,2,0:3:0:0:
358,277,7896,1,2,0:3:0:0:
350,316,8054,1,2,0:3:0:0:
166,200,8527,5,2,0:3:0:0:
143,317,9001,1,2,0:3:0:0:
143,317,10106,2,0,B|148:367,2,40,2|2|2,0:3|0:3|0:3,0:0:0:0:
143,317,11054,5,2,0:3:0:0:
234,239,11527,1,2,0:3:0:0:
147,149,12001,2,0,P|112:153|65:143,1,80
167,30,12633,1,2,0:3:0:0:
206,27,12791,1,2,0:3:0:0:
245,24,12949,1,2,0:3:0:0:
284,20,13106,1,2,0:3:0:0:
240,215,13580,5,2,0:3:0:0:
310,312,14054,1,2,0:3:0:0:
310,312,14843,1,0,0:0:0:0:
310,312,15159,2,0,L|358:305,2,40,2|2|2,0:3|0:3|0:3,0:0:0:0:
161,270,16106,5,2,0:3:0:0:
195,154,16580,1,2,0:3:0:0:
297,216,17054,2,0,P|342:205|372:182,1,80
226,112,17685,1,2,0:3:0:0:
186,109,17843,1,2,0:3:0:0:
146,106,18001,1,2,0:3:0:0:
106,103,18159,1,2,0:3:0:0:
46,280,18633,5,2,0:3:0:0:
153,333,19106,1,2,0:3:0:0:
153,333,20212,2,0,L|83:337,2,40,2|2|2,0:3|0:3|0:3,0:0:0:0:
253,108,21159,5,2,0:3:0:0:
332,197,21633,1,2,0:3:0:0:
416,112,22106,2,0,P|440:85|491:73,1,80
326,31,22738,1,0,0:3:0:0:
293,31,22896,1,0,0:3:0:0:
261,32,23054,1,0,0:3:0:0:
229,33,23212,1,0,0:3:0:0:
118,117,23685,6,0,L|135:249,1,120,2|2,0:3|0:3,0:0:0:0:
242,114,24712,2,0,L|233:154,1,40
266,305,25264,1,2,0:3:0:0:
280,266,25422,1,2,0:3:0:0:
305,233,25580,2,0,P|355:218|424:231,1,120,2|0,0:3|0:0,0:0:0:0:
472,299,26212,5,2,0:3:0:0:
472,299,26685,1,2,0:3:0:0:
484,174,27159,2,0,L|503:139,2,40,0|0|0,0:0|0:0|0:0,0:0:0:0:
325,137,27791,2,0,P|318:168|321:187,1,40,2|2,0:3|0:3,0:0:0:0:
411,83,28106,1,2,0:3:0:0:
317,2,28422,1,0,0:0:0:0:
194,21,28738,6,0,P|141:47|55:19,1,120,2|2,0:3|0:3,0:0:0:0:
30,170,29764,2,0,L|36:234,1,60
99,327,30317,1,2,0:3:0:0:
115,290,30475,1,2,0:3:0:0:
133,248,30633,2,0,L|226:244,1,80,2|0,0:3|0:3,0:3:0:0:
294,310,31264,6,0,P|316:247|294:187,1,120,2|2,0:3|0:3,0:0:0:0:
194,142,32212,2,0,L|132:132,2,40
290,89,32843,1,2,0:3:0:0:
325,71,33001,1,2,0:3:0:0:
362,56,33159,1,2,0:3:0:0:
400,44,33317,2,0,B|398:81|398:81|412:123|412:123|410:140,1,80,0|0,0:0|0:0,0:0:0:0:
345,179,33791,6,0,P|413:207|480:180,1,120,2|2,0:3|0:3,0:0:0:0:
289,52,34738,1,0,0:0:0:0:
207,122,35054,1,0,0:0:0:0:
93,83,35370,2,0,P|98:113|100:125,1,40,2|2,0:3|0:3,0:0:0:0:
70,212,35685,1,2,0:3:0:0:
145,311,36001,1,0,0:0:0:0:
280,326,36317,6,0,P|331:309|366:259,1,80,2|0,0:3|0:0,0:0:0:0:
371,259,36791,2,0,L|358:180,1,80,2|0,0:3|0:0,0:0:0:0:
377,145,37264,2,0,L|430:147,2,40,0|0|0,0:0|0:0|0:0,0:0:0:0:
231,52,37896,1,2,0:3:0:0:
204,82,38054,1,2,0:3:0:0:
179,117,38212,1,0,0:0:0:0:
149,152,38370,2,0,L|157:262,1,80,2|0,0:3|0:0,0:0:0:0:
110,299,38843,6,0,P|159:271|253:292,1,120,2|2,0:3|0:3,0:0:0:0:
420,263,39949,2,0,L|413:212,1,40
455,46,40422,2,0,P|454:65|451:85,1,40,2|2,0:3|0:3,0:0:0:0:
365,136,40738,1,2,0:3:0:0:
246,96,41054,1,0,0:0:0:0:
204,209,41370,6,0,P|206:260|227:303,1,80,2|0,0:3|0:0,0:0:0:0:
247,312,41843,2,0,P|298:310|341:289,1,80,2|0,0:3|0:0,0:0:0:0:
365,301,42317,2,0,L|360:355,2,40
428,189,42949,1,2,0:3:0:0:
416,150,43106,1,2,0:3:0:0:
405,111,43264,1,0,0:0:0:0:
393,76,43422,2,0,P|348:60|294:74,1,80,2|0,0:3|0:0,0:0:0:0:
263,124,43896,6,0,L|269:-11,2,120,2|2|0,0:3|0:3|0:0,0:0:0:0:
268,163,45001,1,0,0:0:0:0:
274,202,45159,1,0,0:0:0:0:
156,291,45475,1,2,0:3:0:0:
163,251,45633,1,2,0:3:0:0:
170,211,45791,2,0,L|159:160,1,40,2|0,0:3|0:0,0:0:0:0:
71,159,46106,2,0,L|62:198,1,40,0|0,0:0|0:0,0:0:0:0:
16,96,46422,6,0,P|53:77|126:97,1,120,2|2,0:3|0:3,0:0:0:0:
219,168,47370,2,0,L|221:120,2,40,0|0|0,0:0|0:0|0:0,0:0:0:0:
292,246,48001,1,2,0:3:0:0:
284,285,48159,1,2,0:3:0:0:
279,324,48317,1,2,0:3:0:0:
271,363,48475,2,0,P|308:382|356:377,1,80,0|0,0:0|0:0,0:0:0:0:
331,262,48949,6,0,L|333:142,1,120,2|2,0:3|0:3,0:0:0:0:
252,27,49975,2,0,L|184:26,1,60
194,159,50527,1,2,0:3:0:0:
194,159,50685,1,2,0:3:0:0:
194,159,50843,2,0,B|151:178|151:178|66:170,1,120,2|0,0:3|0:0,0:0:0:0:
69,309,51475,6,0,P|126:328|192:296,1,120,2|2,0:3|0:3,0:0:0:0:
280,241,52422,2,0,P|275:222|274:183,2,40,0|0|0,0:0|0:0|0:0,0:0:0:0:
372,295,53054,1,2,0:3:0:0:
412,295,53212,1,2,0:3:0:0:
451,293,53370,1,2,0:3:0:0:
490,287,53527,2,0,P|507:231|499:183,1,80,2|0,0:3|0:0,0:0:0:0:
441,164,54001,6,0,P|424:117|446:48,2,120,2|2|0,0:3|0:3|0:0,0:0:0:0:
413,312,55264,5,0,3:0:0:0:
356,312,55422,1,0,3:0:0:0:
299,312,55580,1,2,0:3:0:0:
242,313,55738,1,2,0:3:0:0:
185,308,55896,2,0,L|153:303,3,20,0|0|0|0,3:0|3:0|3:0|3:0,0:0:0:0:
98,270,56212,2,0,L|66:265,3,20,0|0|0|0,3:0|3:0|3:0|3:0,0:0:0:0:
42,181,56527,6,0,P|36:108|54:42,1,120.000004577637,4|8,3:1|0:0,0:0:0:0:
126,9,57001,1,2,3:0:0:0:
223,72,57159,2,0,P|233:130|226:190,1,120.000004577637,2|8,0:0|0:0,0:0:0:0:
152,304,57791,2,0,P|217:326|291:306,1,120.000004577637,2|10,3:0|0:0,0:0:0:0:
296,226,58264,1,2,0:3:0:0:
392,229,58422,2,0,P|430:234|473:231,1,60.0000022888184,2|0,0:3|0:0,0:0:0:0:
346,349,58738,2,0,P|371:331|394:305,1,60.0000022888184,8|0,0:0|3:0,0:0:0:0:
242,291,59054,6,0,P|175:265|102:289,1,120.000004577637,4|8,3:0|0:0,0:0:0:0:
66,345,59527,1,2,3:0:0:0:
20,212,59685,2,0,P|24:153|22:82,1,120.000004577637,2|8,0:0|0:0,0:0:0:0:
208,16,60317,2,0,P|193:80|215:142,1,120.000004577637,2|8,0:3|0:0,0:0:0:0:
281,193,60791,1,2,3:0:0:0:
360,259,60949,5,8,0:0:0:0:
360,172,61106,1,8,0:0:0:0:
282,271,61264,1,8,0:0:0:0:
433,213,61422,1,8,0:0:0:0:
486,314,61580,6,0,P|400:342|327:305,1,120.000004577637,4|8,3:0|0:0,0:0:0:0:
340,243,62054,1,2,3:0:0:0:
249,133,62212,2,0,P|233:199|282:253,1,120.000004577637,2|8,0:0|0:0,0:0:0:0:
440,52,62843,2,0,L|320:43,1,120.000004577637,2|10,0:3|0:0,0:0:0:0:
225,23,63317,1,2,0:3:0:0:
96,85,63475,2,0,P|133:96|176:91,1,60.0000022888184,2|0,0:3|0:0,0:0:0:0:
214,180,63791,1,8,0:0:0:0:
304,144,63949,1,0,3:0:0:0:
390,222,64106,6,0,P|401:281|366:342,1,120.000004577637,4|8,3:0|0:0,0:0:0:0:
305,267,64580,1,2,3:0:0:0:
165,289,64738,2,0,L|37:287,1,120.000004577637,2|8,0:0|0:0,0:0:0:0:
113,107,65370,2,0,L|181:102,1,60.0000022888184,2|0,0:3|0:0,0:0:0:0:
315,117,65685,2,0,L|256:122,1,60.0000022888184,8|2,0:0|3:0,0:0:0:0:
364,197,66001,5,8,0:0:0:0:
328,34,66159,1,8,0:0:0:0:
261,185,66317,1,8,0:0:0:0:
404,102,66475,1,8,0:0:0:0:
239,85,66633,6,0,L|112:92,1,120.000004577637,4|8,3:1|0:0,0:0:0:0:
45,163,67106,1,2,3:0:0:0:
146,252,67264,2,0,P|206:271|277:245,1,120.000004577637,2|8,0:0|0:0,0:0:0:0:
59,186,67896,2,0,L|64:311,1,120.000004577637,2|10,0:3|0:0,0:0:0:0:
161,334,68370,1,2,0:3:0:0:
258,327,68527,2,0,P|304:324|327:329,1,60.0000022888184,2|0,0:3|0:0,0:0:0:0:
233,227,68843,2,0,P|187:230|164:225,1,60.0000022888184,8|0,0:0|3:0,0:0:0:0:
293,145,69159,6,0,P|332:208|314:277,1,120.000004577637,4|8,3:0|0:0,0:0:0:0:
275,332,69633,1,2,3:0:0:0:
417,357,69791,2,0,B|470:345|470:345|510:270,1,120.000004577637,2|8,0:0|0:0,0:0:0:0:
485,58,70422,2,0,B|357:51,1,120.000004577637,2|8,0:3|0:0,0:0:0:0:
271,80,70896,1,2,3:0:0:0:
166,32,71054,5,8,0:0:0:0:
183,153,71212,1,8,0:0:0:0:
79,110,71370,1,8,0:0:0:0:
271,80,71527,1,8,0:0:0:0:
122,244,71685,6,0,P|201:264|255:232,1,120.000004577637,4|8,3:0|0:0,0:0:0:0:
307,188,72159,1,2,3:0:0:0:
424,115,72317,2,0,L|433:255,1,120.000004577637,2|8,0:0|0:0,0:0:0:0:
305,380,72949,2,0,L|299:246,1,120.000004577637,2|10,0:3|0:0,0:0:0:0:
242,183,73422,1,2,3:0:0:0:
196,267,73580,2,0,P|135:273|84:262,1,60.0000022888184,2|0,0:3|0:0,0:0:0:0:
48,297,73896,2,0,P|48:267|54:237,1,60.0000022888184,8|0,0:0|3:0,0:0:0:0:
176,172,74212,6,0,P|144:136|74:127,1,120.000004577637,4|8,3:0|0:0,0:0:0:0:
99,207,74685,1,2,3:0:0:0:
251,131,74843,2,0,P|221:76|201:58,1,60.0000022888184,2|0,0:0|0:0,0:0:0:0:
245,216,75159,1,8,0:0:0:0:
320,250,75317,1,0,0:0:0:0:
398,218,75475,2,0,P|431:159|410:85,1,120.000004577637,2|8,0:3|0:0,0:0:0:0:
344,146,75949,1,2,3:0:0:0:
226,313,76106,5,8,0:3:0:0:
309,230,76264,1,8,0:0:0:0:
162,181,76422,1,8,0:0:0:0:
251,318,76580,1,8,0:0:0:0:
236,110,76738,6,0,P|188:83|121:92,1,100,4|8,3:1|0:0,0:0:0:0:
73,116,77212,1,2,3:0:0:0:
73,116,77370,2,0,P|46:164|55:231,1,100,2|8,0:3|0:0,0:0:0:0:
170,331,78001,1,2,0:3:0:0:
233,280,78159,1,8,0:0:0:0:
233,280,78317,2,0,L|228:200,1,50,2|2,0:3|0:3,0:0:0:0:
370,296,78633,2,0,P|424:314|492:289,1,100,2|0,0:3|0:0,0:0:0:0:
321,97,79264,6,0,P|296:99|272:108,1,50,2|0,0:3|0:0,0:0:0:0:
165,162,79580,1,8,0:0:0:0:
236,211,79738,1,2,3:0:0:0:
318,183,79896,1,2,3:3:0:0:
45,84,80212,2,0,L|60:157,1,50,8|0,0:0|0:0,0:0:0:0:
87,227,80527,1,2,0:3:0:0:
82,335,80685,1,8,0:0:0:0:
56,214,80843,1,2,0:3:0:0:
112,347,81001,1,2,0:3:0:0:
138,146,81159,5,8,0:3:0:0:
288,131,81317,1,8,3:0:0:0:
173,50,81475,1,8,3:0:0:0:
259,226,81633,1,8,3:0:0:0:
438,175,81791,6,0,P|440:237|413:295,1,100,2|8,0:3|0:0,0:0:0:0:
368,326,82264,1,2,3:0:0:0:
368,326,82422,2,0,L|244:331,1,100,2|8,0:3|0:0,0:0:0:0:
97,224,83054,1,2,0:3:0:0:
97,224,83212,1,8,0:0:0:0:
97,224,83370,2,0,P|93:269|101:302,1,50,2|2,3:0|3:0,0:0:0:0:
165,161,83685,2,0,L|156:42,1,100,2|0,0:3|0:0,0:0:0:0:
241,210,84317,6,0,P|295:218|366:177,1,100,2|8,0:3|0:0,0:0:0:0:
407,150,84791,1,2,3:0:0:0:
407,150,84949,2,0,P|422:197|413:245,1,100,2|8,0:3|0:0,0:0:0:0:
269,339,85580,1,2,0:3:0:0:
269,339,85738,1,8,0:0:0:0:
179,321,85896,1,2,3:0:0:0:
237,250,86054,6,0,L|284:243,2,25,2|2|8,3:0|3:0|3:0,0:0:0:0:
160,172,86370,1,8,3:0:0:0:
72,234,86527,1,8,3:0:0:0:
257,149,86685,1,8,3:0:0:0:
64,140,86843,6,0,P|38:86|54:42,1,100,2|8,0:3|0:0,0:0:0:0:
116,83,87317,1,2,3:0:0:0:
184,50,87475,2,0,P|193:98|168:140,1,100,2|8,0:3|0:0,0:0:0:0:
209,305,88106,1,2,0:3:0:0:
270,225,88264,1,8,0:0:0:0:
366,259,88422,2,0,P|391:265|428:264,1,50,2|2,3:0|3:0,0:0:0:0:
326,150,88738,2,0,P|271:147|280:230,1,150,2|0,0:3|0:0,0:0:0:0:
270,225,89370,6,0,P|207:210|146:224,2,120,2|2|0,0:3|0:3|0:0,0:0:0:0:
186,335,90633,2,0,L|101:335,1,80,0|2,0:0|0:3,0:0:0:0:
65,335,91106,1,2,0:3:0:0:
24,335,91264,1,2,0:3:0:0:
50,208,91580,1,0,0:0:0:0:
163,224,91896,6,0,P|164:184|147:148,1,80,2|0,0:3|0:0,0:0:0:0:
122,118,92370,2,0,P|175:122|223:114,1,80,2|0,0:3|0:0,0:0:0:0:
236,100,92843,2,0,P|265:98|287:98,2,40,0|0|0,3:2|0:0|3:2,0:0:0:0:
362,207,93475,5,2,0:3:0:0:
378,171,93633,1,2,0:3:0:0:
382,132,93791,1,2,0:3:0:0:
254,189,94106,1,0,0:0:0:0:
280,322,94422,6,0,P|241:326|203:316,1,80,2|0,0:3|0:0,0:0:0:0:
167,298,94896,2,0,P|126:235|154:139,1,160,2|0,0:3|0:0,0:0:0:0:
170,125,95685,1,0,0:0:0:0:
232,213,96001,1,2,0:3:0:0:
271,205,96159,1,2,0:3:0:0:
310,197,96317,1,2,0:3:0:0:
391,116,96633,1,0,0:0:0:0:
472,198,96949,6,0,L|461:294,1,80,2|0,0:3|0:0,0:0:0:0:
439,309,97422,2,0,P|390:326|293:302,1,120,2|0,0:3|3:2,0:0:0:0:
289,297,98054,1,0,0:0:0:0:
254,280,98212,1,0,3:2:0:0:
99,359,98527,1,2,0:3:0:0:
91,315,98685,1,2,0:3:0:0:
83,271,98843,1,2,0:3:0:0:
76,227,99001,2,0,P|121:217|157:213,1,80
211,232,99475,6,0,B|196:162|196:162|199:113,2,120,2|2|0,0:3|0:3|0:0,0:0:0:0:
255,298,100738,2,0,P|292:302|347:291,1,80,0|2,0:0|0:3,0:0:0:0:
367,272,101212,1,2,0:3:0:0:
387,237,101370,2,0,P|399:179|387:122,1,80,2|0,0:3|0:0,0:0:0:0:
364,23,102001,6,0,P|424:17|481:53,2,120,2|2|0,0:3|0:3|3:2,0:0:0:0:
321,21,103106,1,0,0:0:0:0:
281,38,103264,2,0,L|289:147,1,80,0|2,3:2|0:3,0:0:0:0:
261,152,103738,1,2,0:3:0:0:
221,151,103896,2,0,L|155:141,1,40,2|0,0:3|0:0,0:0:0:0:
197,288,104527,6,0,P|241:295|304:250,2,120,2|2|0,0:3|0:3|0:0,0:0:0:0:
121,236,105791,1,0,0:0:0:0:
237,139,106106,1,2,0:3:0:0:
234,177,106264,1,2,0:3:0:0:
231,215,106422,1,2,0:3:0:0:
148,146,106738,1,0,0:0:0:0:
295,85,107054,6,0,P|315:120|311:165,1,80,2|0,0:3|0:0,0:0:0:0:
322,199,107527,2,0,B|351:191|351:191|400:198,1,80,2|0,0:3|0:0,0:0:0:0:
433,224,108001,2,0,L|425:318,2,80,0|0|2,3:2|3:2|0:3,0:0:0:0:
466,198,108791,1,2,0:3:0:0:
501,177,108949,2,0,P|515:120|483:66,1,120,2|0,0:3|0:0,0:0:0:0:
397,55,109580,6,0,L|266:68,2,120,2|2|0,0:3|0:3|0:0,0:0:0:0:
391,95,110685,1,0,0:0:0:0:
382,134,110843,2,0,L|397:222,1,80,0|2,0:0|0:3,0:0:0:0:
376,256,111317,1,2,0:3:0:0:
376,256,111475,2,0,P|311:241|252:276,1,120,2|0,0:3|0:0,0:0:0:0:
199,332,112106,6,0,P|171:284|184:211,2,120,2|2|0,0:3|0:3|3:2,0:0:0:0:
239,348,113212,1,0,0:0:0:0:
279,338,113370,2,0,P|324:327|364:333,1,80,0|2,3:2|0:3,0:0:0:0:
399,348,113843,1,2,0:3:0:0:
442,336,114001,2,0,L|419:208,1,120,2|0,0:3|0:0,0:0:0:0:
462,135,114633,6,0,P|409:167|348:160,2,120,2|2|0,0:3|0:3|0:0,0:0:0:0:
398,9,115896,2,0,P|388:53|396:95,1,80,0|2,0:0|0:3,0:0:0:0:
414,121,116370,1,2,0:3:0:0:
414,121,116527,2,0,P|357:109|273:130,1,120,2|0,0:3|0:0,0:0:0:0:
229,139,117159,6,0,B|210:92|143:67|75:99|61:146|61:146|101:139|152:168,1,280,2|0,0:3|0:0,0:0:0:0:
170,194,118422,5,0,3:0:0:0:
175,249,118580,1,0,3:0:0:0:
180,304,118738,1,0,3:0:0:0:
183,359,118896,1,0,3:0:0:0:
250,335,119054,2,0,L|253:301,3,20,0|0|0|0,3:0|3:0|3:0|3:0,0:0:0:0:
331,310,119370,2,0,L|334:276,3,20,0|0|0|0,3:0|3:0|3:0|3:0,0:0:0:0:
405,363,119685,6,0,L|416:228,1,120.000004577637,4|8,3:1|0:0,0:0:0:0:
427,147,120159,1,2,3:0:0:0:
359,64,120317,2,0,P|295:48|234:69,1,120.000004577637,2|8,0:0|0:0,0:0:0:0:
186,208,120949,2,0,B|126:231|126:192|68:214,1,120.000004577637,2|10,3:0|0:0,0:0:0:0:
22,299,121422,1,2,0:3:0:0:
101,359,121580,2,0,P|166:363|182:356,1,60.0000022888184,2|0,0:3|0:0,0:0:0:0:
255,286,121896,1,8,0:0:0:0:
356,356,122054,1,0,3:0:0:0:
449,237,122212,6,0,P|461:171|421:77,1,120.000004577637,4|8,3:0|0:0,0:0:0:0:
390,44,122685,1,2,3:0:0:0:
340,181,122843,2,0,L|199:176,1,120.000004577637,2|8,0:0|0:0,0:0:0:0:
65,110,123475,2,0,P|126:101|163:106,1,60.0000022888184,2|0,0:3|0:0,0:0:0:0:
214,23,123791,2,0,P|153:14|116:19,1,60.0000022888184,8|2,0:0|3:0,0:0:0:0:
399,88,124106,5,8,0:0:0:0:
356,200,124264,1,8,0:0:0:0:
448,174,124422,1,8,0:0:0:0:
304,113,124580,1,8,0:0:0:0:
286,302,124738,6,0,L|166:292,1,120.000004577637,4|8,3:0|0:0,0:0:0:0:
114,210,125212,1,2,3:0:0:0:
253,170,125370,2,0,P|307:183|373:180,1,120.000004577637,2|8,0:0|0:0,0:0:0:0:
170,351,126001,2,0,P|139:290|150:221,1,120.000004577637,2|10,0:3|0:0,0:0:0:0:
205,175,126475,1,2,0:3:0:0:
264,100,126633,2,0,P|196:82|165:85,1,60.0000022888184,2|0,0:3|0:0,0:0:0:0:
89,70,126949,2,0,P|124:130|148:150,1,60.0000022888184,8|0,0:0|3:0,0:0:0:0:
332,164,127264,6,0,P|359:112|345:55,1,120.000004577637,4|8,3:0|0:0,0:0:0:0:
249,40,127738,1,2,3:0:0:0:
268,223,127896,2,0,P|320:250|377:236,1,120.000004577637,2|8,0:0|0:0,0:0:0:0:
502,141,128527,2,0,L|508:76,1,60.0000022888184,2|0,0:3|0:0,0:0:0:0:
454,226,128843,2,0,L|460:291,1,60.0000022888184,8|2,0:0|3:0,0:0:0:0:
304,305,129159,5,8,0:0:0:0:
353,212,129317,1,8,0:0:0:0:
276,125,129475,1,8,0:0:0:0:
353,46,129633,1,8,0:0:0:0:
157,26,129791,6,0,P|141:87|189:165,1,120.000004577637,4|8,3:1|0:0,0:0:0:0:
219,216,130264,1,2,3:0:0:0:
354,206,130422,2,0,L|513:201,1,120.000004577637,2|8,0:0|0:0,0:0:0:0:
361,375,131054,2,0,P|309:346|280:294,1,120.000004577637,2|10,0:3|0:0,0:0:0:0:
379,276,131527,1,2,0:3:0:0:
333,174,131685,2,0,L|271:167,1,60.0000022888184,2|0,0:3|0:0,0:0:0:0:
174,169,132001,1,8,0:0:0:0:
243,84,132159,1,0,3:0:0:0:
218,266,132317,6,0,P|153:278|102:251,1,120.000004577637,4|8,3:0|0:0,0:0:0:0:
64,168,132791,1,2,3:0:0:0:
184,91,132948,2,0,L|307:80,1,120.000004577637,2|8,0:0|0:0,0:0:0:0:
473,111,133580,2,0,P|487:63|474:9,1,60.0000022888184,2|0,0:3|0:0,0:0:0:0:
389,1,133896,2,0,P|391:30|402:58,1,60.0000022888184,8|2,0:0|3:0,0:0:0:0:
469,197,134212,5,8,0:0:0:0:
467,324,134370,1,8,0:0:0:0:
355,254,134527,1,8,0:0:0:0:
478,209,134685,1,8,0:0:0:0:
383,336,134843,6,0,P|309:358|239:323,1,120.000004577637,4|8,3:0|0:0,0:0:0:0:
199,280,135317,1,2,3:0:0:0:
61,323,135475,2,0,P|49:264|50:196,1,120.000004577637,2|8,0:0|0:0,0:0:0:0:
185,98,136106,2,0,P|259:120|329:85,1,120.000004577637,2|10,0:3|0:0,0:0:0:0:
399,43,136580,1,2,0:3:0:0:
451,148,136738,2,0,P|454:192|451:231,1,60.0000022888184,2|0,0:3|0:0,0:0:0:0:
358,294,137054,1,8,0:0:0:0:
356,187,137212,1,0,3:0:0:0:
259,339,137370,6,0,P|186:350|126:309,1,120.000004577637,4|8,3:0|0:0,0:0:0:0:
210,251,137843,1,2,3:0:0:0:
356,187,138001,2,0,L|492:190,1,120.000004577637,2|8,0:0|0:0,0:0:0:0:
395,44,138633,2,0,P|306:52|251:27,1,120.000004577637,2|8,0:3|0:0,0:0:0:0:
192,14,139106,1,2,3:0:0:0:
75,111,139264,5,8,0:3:0:0:
159,93,139422,1,8,0:0:0:0:
205,198,139580,1,8,0:0:0:0:
111,187,139738,1,8,0:0:0:0:
284,162,139896,6,0,P|291:222|262:269,1,100,4|8,3:1|0:0,0:0:0:0:
207,324,140370,1,2,3:0:0:0:
207,324,140527,2,0,P|149:335|100:302,1,100,2|8,0:3|0:0,0:0:0:0:
224,119,141159,2,0,L|220:188,1,50,2|8,0:3|0:0,0:0:0:0:
153,224,141475,1,2,0:3:0:0:
79,172,141633,1,2,0:3:0:0:
79,172,141791,2,0,P|62:222|81:280,1,100,2|0,0:3|0:0,0:0:0:0:
274,351,142422,6,0,L|260:248,1,100,2|8,0:3|0:0,0:0:0:0:
382,151,142896,1,2,0:3:0:0:
363,232,143054,2,0,L|376:290,1,50,2|0,0:3|0:0,0:0:0:0:
365,365,143370,1,8,0:0:0:0:
365,365,143685,5,2,0:3:0:0:
277,285,143843,1,8,0:0:0:0:
176,333,144001,1,2,0:3:0:0:
110,265,144159,1,2,0:3:0:0:
52,191,144317,2,0,L|64:88,1,100,2|0,0:3|0:0,0:0:0:0:
256,147,144948,6,0,P|307:162|373:145,1,100,2|8,0:3|0:0,0:0:0:0:
419,101,145422,1,2,0:3:0:0:
475,164,145580,2,0,P|490:215|473:281,1,100,2|8,0:3|0:0,0:0:0:0:
267,363,146212,1,2,0:3:0:0:
302,277,146370,1,8,0:0:0:0:
183,357,146527,2,0,P|177:332|174:297,1,50,2|2,0:3|0:3,0:0:0:0:
228,228,146843,2,0,P|174:209|123:231,1,100,2|0,0:3|0:0,0:0:0:0:
38,60,147475,6,0,P|117:64|143:60,1,100,2|8,0:3|0:0,0:0:0:0:
230,20,147948,1,2,0:3:0:0:
300,77,148106,2,0,P|308:122|297:175,1,100,2|8,0:3|0:0,0:0:0:0:
101,173,148738,1,2,0:3:0:0:
156,95,148896,1,8,0:0:0:0:
195,181,149054,2,0,P|192:222|185:243,1,50,2|2,0:3|0:3,0:0:0:0:
144,316,149370,2,0,P|95:307|34:312,1,100,2|0,0:3|0:0,0:0:0:0:
244,349,150001,6,0,P|303:359|347:346,1,100,4|8,1:3|0:0,0:0:0:0:
417,309,150475,1,2,0:3:0:0:
417,309,150633,2,0,L|394:194,1,100,2|8,0:3|0:0,0:0:0:0:
442,55,151264,2,0,L|374:50,1,50,2|8,0:3|0:0,0:0:0:0:
247,121,151580,1,2,0:3:0:0:
336,160,151738,1,2,0:3:0:0:
254,217,151896,2,0,P|204:209|160:162,1,100,2|0,0:3|0:0,0:0:0:0:
277,38,152527,6,0,P|322:23|386:36,1,100,2|8,0:3|0:0,0:0:0:0:
437,115,153001,1,2,0:3:0:0:
437,115,153159,2,0,L|429:216,1,100,2|8,0:3|0:0,0:0:0:0:
279,325,153791,1,2,0:3:0:0:
331,246,153948,1,8,0:0:0:0:
365,339,154106,2,0,P|397:341|427:339,1,50,2|2,0:3|0:3,0:0:0:0:
199,287,154422,2,0,P|190:326|211:383,1,100,2|0,0:3|0:0,0:0:0:0:
313,100,155054,6,0,P|322:61|301:4,1,100,2|8,0:3|0:0,0:0:0:0:
228,62,155527,1,2,0:3:0:0:
274,179,155685,2,0,P|313:188|370:167,1,100,2|8,0:3|0:0,0:0:0:0:
133,136,156317,2,0,L|132:203,1,50,2|8,0:3|0:0,0:0:0:0:
69,271,156633,1,2,0:3:0:0:
198,251,156791,1,2,0:3:0:0:
279,319,156948,2,0,P|331:326|385:304,1,100,2|0,0:3|0:0,0:0:0:0:
310,81,157580,6,0,L|318:203,1,100,2|8,0:3|0:0,0:0:0:0:
396,236,158054,1,2,0:3:0:0:
396,236,158212,2,0,P|450:239|494:215,1,100,2|8,0:3|0:0,0:0:0:0:
211,122,158843,2,0,L|218:182,1,50,2|8,0:3|0:0,0:0:0:0:
154,257,159159,1,2,0:3:0:0:
60,212,159317,1,2,0:3:0:0:
100,111,159475,2,0,P|86:64|103:2,1,100,2|0,0:3|0:0,0:0:0:0:
330,205,160106,6,0,P|283:219|221:202,1,100,2|8,0:3|0:0,0:0:0:0:
278,131,160580,1,2,0:3:0:0:
400,153,160738,2,0,P|414:200|397:262,1,100,2|8,0:3|0:0,0:0:0:0:
136,125,161370,1,2,0:3:0:0:
86,44,161527,1,8,0:0:0:0:
62,171,161685,2,0,L|65:233,1,50,2|2,0:3|0:3,0:0:0:0:
166,309,162001,5,10,0:3:0:0:
299,218,162159,1,8,3:0:0:0:
275,336,162317,1,8,3:0:0:0:
184,201,162475,1,8,3:0:0:0:
232,265,162633,5,0,0:0:0:0:
256,192,182843,12,0,185054,3:0:0:0:
191,287,185370,6,0,P|234:246|368:313,1,160,4|8,3:1|0:0,0:0:0:0:
405,323,185843,1,2,3:0:0:0:
484,196,186001,2,0,L|464:25,1,160,2|8,0:0|0:0,0:0:0:0:
221,23,186633,2,0,L|241:194,1,160,2|10,3:0|3:0,0:0:0:0:
178,267,187106,1,2,0:3:0:0:
248,341,187264,2,0,P|303:333|331:338,1,80,2|0,0:3|0:0,0:0:0:0:
415,244,187580,2,0,P|360:252|332:247,1,80,8|0,0:0|3:0,0:0:0:0:
503,156,187896,6,0,B|492:207|492:207|499:253|499:253|483:312,1,160,4|8,3:0|0:0,0:0:0:0:
406,383,188370,1,2,3:0:0:0:
395,202,188527,2,0,P|481:273|463:352,1,160,2|8,0:0|0:0,0:0:0:0:
292,238,189159,2,0,L|112:246,1,160,2|8,0:3|0:0,0:0:0:0:
54,315,189633,1,2,3:0:0:0:
66,199,189791,5,8,0:0:0:0:
154,71,189948,1,8,0:0:0:0:
58,105,190106,1,8,0:0:0:0:
186,165,190263,1,0,0:0:0:0:
146,305,190422,6,0,P|224:307|289:263,1,160,4|8,3:0|0:0,0:0:0:0:
365,191,190896,1,2,3:0:0:0:
441,71,191054,2,0,L|456:241,1,160,2|8,0:0|0:0,0:0:0:0:
260,143,191685,2,0,L|274:302,1,160,2|10,0:3|0:0,0:0:0:0:
202,378,192159,1,2,0:3:0:0:
160,282,192317,2,0,P|158:242|164:202,1,80,2|0,0:3|0:0,0:0:0:0:
114,110,192633,2,0,P|84:138|60:170,1,80,0|0,3:0|3:0,0:0:0:0:
219,111,192948,6,0,P|296:124|367:90,1,160,4|8,3:0|0:0,0:0:0:0:
286,22,193422,1,2,3:0:0:0:
445,46,193580,2,0,B|457:94|457:94|439:156|439:156|452:219,1,160,2|8,0:0|0:0,0:0:0:0:
316,362,194212,2,0,L|157:356,1,160,2|8,0:3|0:0,0:0:0:0:
89,275,194685,1,2,3:0:0:0:
251,262,194843,5,8,0:0:0:0:
178,107,195001,1,8,0:0:0:0:
316,178,195159,1,8,0:0:0:0:
156,205,195317,1,8,0:0:0:0:
275,76,195475,6,0,P|237:19|151:9,1,160,4|8,3:1|0:0,0:0:0:0:
56,52,195948,1,2,3:0:0:0:
178,107,196106,2,0,L|188:284,1,160,2|8,0:0|0:0,0:0:0:0:
377,352,196738,2,0,P|441:307|461:231,1,160,2|10,0:3|0:0,0:0:0:0:
357,241,197212,1,2,0:3:0:0:
401,146,197370,2,0,P|403:106|400:66,1,80,2|0,0:3|0:0,0:0:0:0:
302,30,197685,2,0,P|299:69|302:109,1,80,8|0,0:0|3:0,0:0:0:0:
200,209,198001,6,0,P|111:214|22:204,1,160,4|8,3:0|0:0,0:0:0:0:
28,103,198475,1,2,3:0:0:0:
184,57,198633,2,0,B|193:97|178:124|178:124|190:142|190:142|177:179|206:221,1,160,2|8,0:0|0:0,0:0:0:0:
313,382,199264,2,0,P|389:338|368:225,1,160,2|8,0:3|0:0,0:0:0:0:
325,196,199738,1,2,3:0:0:0:
416,145,199896,5,8,0:0:0:0:
455,22,200054,1,8,0:0:0:0:
511,108,200212,1,8,0:0:0:0:
360,58,200370,1,8,0:0:0:0:
414,250,200527,6,0,P|340:225|312:152,1,160,4|8,3:0|0:0,0:0:0:0:
263,60,201001,1,2,3:0:0:0:
143,145,201159,2,0,L|135:322,1,160,2|8,0:0|0:0,0:0:0:0:
333,237,201791,2,0,B|409:199|409:199|500:243,1,160,2|10,0:3|0:0,0:0:0:0:
412,313,202264,1,2,0:3:0:0:
333,237,202422,2,0,P|333:174|306:124,1,80,2|0,0:3|0:0,0:0:0:0:
227,126,202738,2,0,P|227:189|254:239,1,80,8|0,0:0|3:0,0:0:0:0:
287,46,203054,6,0,P|207:26|142:68,1,160,4|8,3:0|0:0,0:0:0:0:
93,155,203527,1,2,3:0:0:0:
144,282,203685,2,0,L|314:266,1,160,2|8,0:0|0:0,0:0:0:0:
404,287,204159,1,0,0:0:0:0:
338,366,204317,1,2,0:3:0:0:
229,249,204475,5,8,0:0:0:0:
206,142,204633,1,2,0:3:0:0:
308,173,204791,1,2,0:3:0:0:
192,253,204948,5,8,0:3:0:0:
326,210,205106,1,8,0:0:0:0:
231,132,205264,1,8,0:0:0:0:
287,313,205422,1,8,0:0:0:0:
121,187,205580,6,0,P|99:100|117:2,1,160,4|8,3:1|0:0,0:0:0:0:
208,6,206054,1,2,3:0:0:0:
285,124,206212,2,0,P|318:125|431:49,1,160,2|8,0:0|0:0,0:0:0:0:
312,238,206843,2,0,P|279:239|166:163,1,160,2|10,3:0|0:0,0:0:0:0:
98,103,207317,1,2,0:3:0:0:
40,189,207475,2,0,P|46:234|44:281,1,80,2|0,0:3|0:0,0:0:0:0:
132,326,207791,2,0,P|125:280|128:234,1,80,8|0,0:0|3:0,0:0:0:0:
220,140,208106,6,0,L|430:124,1,160,4|8,3:0|0:0,0:0:0:0:
478,163,208580,1,2,3:0:0:0:
342,241,208738,2,0,B|385:248|385:248|419:232|419:232|446:254|493:252,1,160,2|8,0:0|0:0,0:0:0:0:
268,184,209370,2,0,B|254:214|265:233|265:233|249:257|249:257|284:293|264:353,1,160,2|8,0:3|0:0,0:0:0:0:
165,327,209843,1,2,3:0:0:0:
166,213,210001,5,8,0:0:0:0:
62,155,210159,1,8,0:0:0:0:
181,128,210317,1,8,0:0:0:0:
61,65,210475,1,8,0:0:0:0:
238,42,210633,6,0,P|282:110|263:190,1,160,4|8,3:0|0:0,0:0:0:0:
171,221,211106,1,2,3:0:0:0:
101,340,211264,2,0,B|132:323|175:355|175:355|216:319|252:341,1,160,2|8,0:0|0:0,0:0:0:0:
456,284,211896,2,0,B|425:301|380:277|380:277|341:305|305:283,1,160,2|10,0:3|0:0,0:0:0:0:
264,186,212370,1,2,0:3:0:0:
166,152,212527,2,0,P|164:171|171:236,1,80,2|0,0:3|0:0,0:0:0:0:
49,230,212843,2,0,P|62:244|92:302,1,80,0|0,3:0|3:0,0:0:0:0:
221,323,213159,6,0,P|268:277|249:166,1,160,4|8,3:0|0:0,0:0:0:0:
234,87,213633,1,2,3:0:0:0:
109,200,213791,2,0,B|188:211|188:211|285:181,1,160,2|8,0:0|0:0,0:0:0:0:
469,223,214422,2,0,L|484:53,1,160,2|8,0:3|0:0,0:0:0:0:
384,29,214896,1,2,3:0:0:0:
307,141,215054,5,8,3:0:0:0:
421,214,215212,1,8,0:0:0:0:
492,85,215370,1,8,0:0:0:0:
356,13,215527,1,8,0:0:0:0:
215,135,215685,6,0,P|242:207|314:237,1,160,4|8,3:1|0:0,0:0:0:0:
421,214,216159,1,2,3:0:0:0:
477,344,216317,2,0,P|397:336|317:334,1,160,2|8,0:0|0:0,0:0:0:0:
149,212,216948,2,0,P|126:309|163:367,1,160,2|10,0:3|0:0,0:0:0:0:
228,285,217422,1,2,0:3:0:0:
230,157,217580,2,0,B|173:166|173:166|125:147|125:147|39:157,1,160,2|8,0:3|0:0,0:0:0:0:
302,51,218212,6,0,L|315:233,1,160,4|8,3:0|0:0,0:0:0:0:
314,314,218685,1,2,3:0:0:0:
460,228,218843,2,0,P|407:196|294:227,1,160,2|8,0:0|0:0,0:0:0:0:
150,198,219475,2,0,L|161:38,1,160,2|8,0:3|0:0,0:0:0:0:
262,15,219948,1,2,3:0:0:0:
323,154,220106,5,8,0:0:0:0:
397,36,220264,1,8,0:0:0:0:
425,156,220422,1,8,0:0:0:0:
269,30,220580,1,8,0:0:0:0:
216,119,220738,6,0,P|217:212|224:287,1,160,4|8,3:0|0:0,0:0:0:0:
299,350,221212,1,2,3:0:0:0:
139,341,221370,2,0,P|142:295|105:169,1,160,2|8,0:0|0:0,0:0:0:0:
267,44,222001,2,0,B|252:80|264:115|264:115|260:128|260:128|286:157|276:221,1,160,2|10,0:3|0:0,0:0:0:0:
243,295,222475,1,2,0:3:0:0:
145,258,222633,2,0,P|130:222|131:176,1,80,2|0,0:3|0:0,0:0:0:0:
55,87,222948,2,0,P|54:126|39:163,1,80,8|0,0:0|3:0,0:0:0:0:
64,312,223264,6,0,P|146:349|225:319,1,160,4|8,3:0|0:0,0:0:0:0:
295,270,223738,1,2,3:0:0:0:
395,165,223896,2,0,L|396:332,1,160,2|8,0:0|0:0,0:0:0:0:
286,148,224527,2,0,L|206:156,1,80,2|8,0:3|0:0,0:0:0:0:
178,257,224843,1,2,0:3:0:0:
75,237,225001,1,2,3:0:0:0:
106,336,225159,5,8,0:3:0:0:
274,277,225317,1,8,0:0:0:0:
185,381,225475,1,8,0:0:0:0:
240,196,225633,1,8,0:0:0:0:
123,104,225791,6,0,P|105:68|91:2,1,100,4|8,3:1|0:0,0:0:0:0:
195,31,226264,1,2,0:3:0:0:
274,69,226422,2,0,P|330:80|392:63,1,100,2|8,0:3|0:0,0:0:0:0:
477,241,227054,2,0,P|416:232|408:233,1,50,2|8,0:3|0:0,0:0:0:0:
336,301,227370,1,2,0:3:0:0:
328,189,227527,1,2,0:3:0:0:
231,249,227685,2,0,P|189:260|121:237,1,100,2|8,0:3|0:0,0:0:0:0:
191,33,228317,6,0,P|202:75|179:143,1,100,4|8,0:3|0:0,0:0:0:0:
73,164,228791,1,4,0:3:0:0:
27,74,228948,2,0,P|69:63|137:86,1,100,2|12,0:3|0:3,0:0:0:0:
164,294,229580,1,2,0:3:0:0:
81,247,229738,1,8,0:0:0:0:
227,228,229896,2,0,L|282:223,1,50,6|2,0:3|0:3,0:0:0:0:
388,48,230212,5,8,3:0:0:0:
343,151,230370,1,8,3:0:0:0:
366,258,230527,1,12,3:0:0:0:
369,368,230685,1,8,3:0:0:0:
440,303,230843,6,0,P|454:258|429:195,1,100,2|8,0:3|0:0,0:0:0:0:
366,258,231317,1,2,0:3:0:0:
289,305,231475,2,0,P|275:260|300:197,1,100,2|8,0:3|0:0,0:0:0:0:
369,81,232106,2,0,P|336:82|304:79,1,50,2|8,0:3|0:0,0:0:0:0:
238,39,232422,1,2,0:3:0:0:
202,121,232580,1,2,0:3:0:0:
115,96,232738,2,0,P|121:160|156:201,1,100,2|0,0:3|0:0,0:0:0:0:
277,306,233370,6,0,L|178:316,1,100,4|8,0:3|0:0,0:0:0:0:
201,229,233843,1,4,0:3:0:0:
332,239,234001,2,0,P|359:288|352:349,1,100,2|12,0:3|0:3,0:0:0:0:
271,171,234633,2,0,P|291:157|315:151,1,50,2|8,0:3|0:0,0:0:0:0:
450,203,234948,2,0,P|425:198|404:185,1,50,6|2,0:3|0:3,0:0:0:0:
299,66,235264,5,8,0:3:0:0:
203,14,235422,1,8,0:3:0:0:
315,89,235580,1,12,0:3:0:0:
160,154,235738,1,8,0:3:0:0:
259,255,235896,6,0,L|366:243,1,100,2|8,0:3|0:0,0:0:0:0:
415,321,236370,1,2,0:3:0:0:
415,321,236527,2,0,P|374:340|308:333,1,100,2|8,0:3|0:0,0:0:0:0:
122,301,237159,2,0,L|121:239,1,50,2|8,0:3|0:0,0:0:0:0:
178,123,237475,2,0,L|177:172,1,50,2|2,0:3|0:3,0:0:0:0:
121,51,237791,2,0,P|166:33|234:51,1,100,2|8,0:3|0:0,0:0:0:0:
353,199,238422,6,0,B|359:156|359:156|354:128|354:128|361:113|360:85,1,100,4|8,0:3|0:0,0:0:0:0:
259,169,238896,2,0,B|257:181|264:196|264:196|259:224|259:224|265:267,1,100,4|0,0:3|0:0,0:0:0:0:
182,337,239370,2,0,P|161:303|168:235,1,100,12|2,0:3|0:3,0:0:0:0:
163,142,239843,1,8,0:0:0:0:
73,129,240001,2,0,P|78:171|88:187,1,50,6|2,0:3|0:3,0:0:0:0:
203,59,240317,5,8,3:0:0:0:
295,96,240475,1,8,3:0:0:0:
394,85,240633,1,12,3:0:0:0:
480,34,240791,1,8,3:0:0:0:
493,133,240948,6,0,P|496:197|489:243,1,100,2|8,0:3|0:0,0:0:0:0:
428,298,241422,1,2,0:3:0:0:
340,277,241580,2,0,L|232:283,1,100,0|8,0:0|0:0,0:0:0:0:
71,347,242212,2,0,L|125:347,1,50,0|8,0:0|0:0,0:0:0:0:
109,257,242527,1,2,0:3:0:0:
95,167,242685,1,2,0:3:0:0:
140,89,242843,2,0,P|181:76|238:89,1,100,2|0,0:3|0:0,0:0:0:0:
347,229,243475,6,0,L|236:227,1,100,2|8,0:3|0:0,0:0:0:0:
159,328,243948,2,0,L|270:326,1,100,2|0,0:3|0:0,0:0:0:0:
83,264,244422,1,8,0:0:0:0:
83,264,244896,1,8,0:0:0:0:
36,187,245054,1,2,0:3:0:0:
42,97,245212,1,2,0:3:0:0:
95,24,245370,5,2,0:3:0:0:
211,132,245527,1,2,3:0:0:0:
118,170,245685,1,2,3:0:0:0:
193,34,245843,1,2,3:0:0:0:
61,59,246001,6,0,B|98:64|126:46|126:46|148:62|173:62|173:62|211:56|236:79|236:79|279:42|322:69|310:132|260:112|231:88|175:106|171:183,1,420.000016021729,4|0,1:0|0:0,0:0:0:0:
145,259,248527,6,0,B|207:272|248:214|248:214|223:283|223:283|274:272|308:317|308:317|355:274|438:293,1,420.000016021729
497,238,251054,6,0,B|501:207|501:207|493:178|493:178|516:151|535:128|523:81|506:61,1,180.000006866455
428,103,252317,2,0,B|404:99|404:99|387:106|387:106|366:102|366:102|346:111|346:111|360:82|338:48|338:48|324:65|309:62,1,180.000006866455
253,198,253580,6,0,B|219:159|227:110|227:110|206:145|176:151|176:151|196:197|196:197|167:222|197:277|197:278|198:278|198:278|235:276|265:304|265:304|285:289|313:289|313:289|308:258|322:231,1,480.000018310548
