osu file format v14

[General]
AudioFilename: audio.mp3
AudioLeadIn: 0
PreviewTime: -1
Countdown: 1
SampleSet: Soft
StackLeniency: 0.7
Mode: 0
LetterboxInBreaks: 0
WidescreenStoryboard: 1

[Editor]
Bookmarks: 4000,8000,11625,15375,19000,22750,26500,30333,34750,40250,45166,48531,50875,54976,60333,67583,75250,78833,82250,82982,84857,86029,89416,94000,97333,101750,104583,107833,111160,115145,117606,120916,124000,124167,124226,124284,127273,131750,134363,137583,139250,142975,146583,149772,153833
DistanceSpacing: 0.3
BeatDivisor: 4
GridSize: 4
TimelineZoom: 2.599999

[Metadata]
Title:Agartha
TitleUnicode:Agartha
Artist:CodeNamePizza
ArtistUnicode:CodeNamePizza
Creator:lli112
Version:the first key
Source:soundcloud
Tags:just for fun
BeatmapID:1527509
BeatmapSetID:718368

[Difficulty]
HPDrainRate:2
CircleSize:3
OverallDifficulty:2
ApproachRate:3
SliderMultiplier:0.999999904632568
SliderTickRate:1

[Events]
//Background and Video events
0,0,"agartha_by_eurypha-d675dhh.png",0,0
//Break Periods
2,70761,71934
//Storyboard Layer 0 (Background)
//Storyboard Layer 1 (Fail)
//Storyboard Layer 2 (Pass)
//Storyboard Layer 3 (Foreground)
//Storyboard Sound Samples

[TimingPoints]
268,937.5,4,2,0,40,1,0
268,-100,4,2,0,40,0,0
4018,-100,4,2,0,40,0,0
7768,-100,4,2,0,40,0,0
11500,937.5,4,2,0,40,1,0
11500,-100,4,2,0,40,0,0
30250,468.75,3,2,0,40,1,0
30250,-200,3,2,0,40,0,0
45250,468.75,4,2,0,40,1,0
45250,-133.333333333333,4,2,0,40,0,0
59781,234.375,4,2,0,40,1,0
59781,-166.666666666667,4,2,0,40,0,1
66812,666.666666666667,4,2,0,40,1,0
66812,-100,4,2,0,40,0,0
67749,234.375,4,2,0,40,1,1
73374,117.1875,4,2,0,40,1,1
73374,-200,4,2,0,40,0,1
75248,857.142857142857,4,2,0,40,1,0
75248,-100,4,2,0,40,0,0
78999,468.75,4,2,0,40,1,0
82045,234.375,4,2,0,40,1,0
82279,468.75,4,2,0,40,1,0
89544,117.1875,4,2,0,40,1,0
89778,468.75,4,2,0,40,1,0
92121,234.375,4,2,0,40,1,0
93996,468.75,4,2,0,40,1,1
97042,117.1875,4,2,0,40,1,0
97276,234.375,4,2,0,40,1,0
101494,234.375,4,2,0,40,1,1
104541,117.1875,4,2,0,40,1,0
104775,234.375,4,2,0,40,1,0
108993,234.375,4,2,0,40,1,0
120008,234.375,4,2,0,40,1,0
122117,117.1875,4,2,0,40,1,1
123992,234.375,4,2,0,40,1,0
127038,-100,4,2,0,40,0,0
127273,-100,4,2,0,40,0,0
131492,234.375,4,2,0,40,1,0
134538,-100,4,2,0,40,0,0
134773,-100,4,2,0,40,0,0
136648,234.375,4,2,0,40,1,0
138991,234.375,4,2,0,40,1,0
142037,-100,4,2,0,40,0,0
142272,-100,4,2,0,40,0,0
145787,-100,4,2,0,40,0,0
146021,-100,4,2,0,40,0,0
149537,-100,4,2,0,40,0,0
149772,-100,4,2,0,40,0,0
152116,234.375,4,2,0,40,1,0
153287,-100,4,2,0,40,0,0
153522,-100,4,2,0,40,0,0

[HitObjects]
304,100,268,6,0,B|372:144|400:192|372:240|304:284,1,224.999978542328
208,284,4018,2,0,B|140:240|112:192|140:144|208:100,1,224.999978542328
304,100,7768,2,0,B|372:144|400:192|372:240|304:284,1,224.999978542328
208,284,11500,2,0,B|140:240|112:192|140:144|208:100,1,224.999978542328
256,116,14312,5,0,0:0:0:0:
256,192,15250,2,0,L|416:192,1,149.999991416931
332,192,18062,1,0,0:0:0:0:
256,192,19000,2,0,L|256:352,1,149.999991416931
256,268,21812,1,0,0:0:0:0:
256,192,22750,2,0,L|96:192,1,149.999991416931
256,192,24859,12,0,29781,0:0:0:0:
256,152,30250,6,0,B|256:96|256:96|272:96,1,62.4999940395355
304,192,31187,2,0,B|360:191|360:191|360:208,1,62.4999940395355
256,232,32125,2,0,B|256:288|256:288|240:288,1,62.4999940395355
208,192,33062,2,0,B|152:192|152:192|152:176,1,62.4999940395355
256,152,34000,6,0,B|256:96|256:96|272:96,1,62.4999940395355
304,192,34937,2,0,B|360:191|360:191|360:208,1,62.4999940395355
256,232,35875,2,0,B|256:288|256:288|240:288,1,62.4999940395355
208,192,36812,2,0,B|152:192|152:192|152:176,1,62.4999940395355
256,152,37750,6,0,B|256:96|256:96|272:96,1,62.4999940395355
304,192,38687,2,0,B|360:191|360:191|360:208,1,62.4999940395355
256,232,39625,2,0,B|256:288|256:288|240:288,1,62.4999940395355
208,192,40562,2,0,B|152:192|152:192|152:176,1,62.4999940395355
256,192,41500,12,0,44781,0:0:0:0:
256,192,45250,5,0,0:0:0:0:
256,116,45718,2,0,P|336:115|336:115,1,74.9999957084654
336,192,46656,2,0,B|336:272|336:272,1,74.9999957084654
260,264,47593,2,0,P|184:264|184:264,1,74.9999957084654
184,192,48531,2,0,B|184:111|184:111,1,74.9999957084654
256,116,49468,2,0,P|336:115|336:115,1,74.9999957084654
336,192,50406,2,0,B|336:272|336:272,1,74.9999957084654
260,264,51343,2,0,P|184:264|184:264,1,74.9999957084654
188,192,52281,5,0,0:0:0:0:
256,192,52750,1,0,0:0:0:0:
256,116,53218,2,0,P|175:115|175:115,1,74.9999957084654
176,192,54156,2,0,B|175:272|175:272,1,74.9999957084654
252,264,55093,2,0,P|328:264|328:264,1,74.9999957084654
336,192,56031,2,0,B|336:111|336:111,1,74.9999957084654
260,116,56968,6,0,P|179:115|179:115,1,74.9999957084654
176,192,57906,2,0,B|175:272|175:272,1,74.9999957084654
252,264,58843,2,0,P|328:264|328:264,1,74.9999957084654
328,188,59781,1,0,0:0:0:0:
408,188,60249,6,0,L|408:112,1,74.9999905586245
408,40,60718,2,0,L|332:40,1,74.9999905586245
260,40,61187,2,0,L|184:40,1,74.9999905586245
112,40,61656,2,0,L|32:36,1,74.9999905586245
40,116,62124,2,0,L|40:192,1,74.9999905586245
40,260,62593,2,0,L|40:336,1,74.9999905586245
116,344,63062,2,0,L|192:344,1,74.9999905586245
264,344,63531,2,0,L|340:344,1,74.9999905586245
408,340,63999,2,0,L|488:340,1,74.9999905586245
472,264,64468,2,0,L|472:188,1,74.9999905586245
472,116,64937,2,0,L|472:40,1,74.9999905586245
396,40,65406,2,0,L|320:40,1,74.9999905586245
252,40,65874,2,0,L|176:40,1,74.9999905586245
180,116,66343,2,0,L|180:192,1,74.9999905586245
256,192,66812,5,0,0:0:0:0:
288,228,67749,6,0,L|492:228,2,199.999980926514
256,176,68920,6,0,L|256:56,2,99.9999904632568
236,228,69624,6,0,L|32:228,2,199.999980926514
256,120,73374,6,0,L|256:192,11,62.4999940395355
208,192,75248,6,0,B|196:236|220:280|292:280|316:236|304:188,2,199.999980926514
