osu file format v14

[General]
AudioFilename: audio.mp3
AudioLeadIn: 0
PreviewTime: -1
Countdown: 1
SampleSet: Soft
StackLeniency: 0.7
Mode: 0
LetterboxInBreaks: 0
WidescreenStoryboard: 1

[Editor]
Bookmarks: 4000,8000,11625,15375,19000,22750,26500,30333,34750,40250,45166,50875,54976,60333,67583,75250,78833,82250,82982,84857,86029,89416,94000,97333,101750,104583,107833,111160,115145,117606,120916,124000,124167,124226,124284,127273,131750,134363,137583,139250,142975,146583,149772,153833
DistanceSpacing: 0.3
BeatDivisor: 4
GridSize: 4
TimelineZoom: 2.599999

[Metadata]
Title:Agartha
TitleUnicode:Agartha
Artist:CodeNamePizza
ArtistUnicode:CodeNamePizza
Creator:lli112
Version:the final key
Source:soundcloud
Tags:just for fun
BeatmapID:1518948
BeatmapSetID:718368

[Difficulty]
HPDrainRate:6
CircleSize:6
OverallDifficulty:6
ApproachRate:9
SliderMultiplier:0.999999904632568
SliderTickRate:1

[Events]
//Background and Video events
0,0,"tumblr_n8e97isiWM1qccjyio1_1280.jpg",0,0
//Break Periods
//Storyboard Layer 0 (Background)
//Storyboard Layer 1 (Fail)
//Storyboard Layer 2 (Pass)
//Storyboard Layer 3 (Foreground)
//Storyboard Sound Samples

[TimingPoints]
268,937.5,4,2,0,40,1,0
268,-78.7401574803149,4,2,0,40,0,0
11500,937.5,4,2,0,40,1,0
11500,-133.333333333333,4,2,0,40,0,0
30250,468.75,3,2,0,40,1,0
30250,-200,3,2,0,40,0,0
31187,-153.846153846154,3,2,0,40,0,0
32125,-125,3,2,0,40,0,0
33062,-105.263157894737,3,2,0,40,0,0
34000,-90.9090909090909,3,2,0,40,0,0
34937,-80,3,2,0,40,0,0
35875,-71.4285714285714,3,2,0,40,0,0
36812,-64.5161290322581,3,2,0,40,0,0
37750,-58.8235294117647,3,2,0,40,0,0
38687,-54.054054054054,3,2,0,40,0,0
39625,-50,3,2,0,40,0,0
45250,468.75,4,2,0,40,1,0
45250,-66.6666666666667,4,2,0,40,0,0
59781,234.375,4,2,0,40,1,0
59781,-50,4,2,0,40,0,1
66812,666.666666666667,4,2,0,40,1,0
66812,-100,4,2,0,40,0,0
67749,234.375,4,2,0,40,1,1
73374,117.1875,4,2,0,40,1,1
75248,857.142857142857,4,2,0,40,1,0
78999,468.75,4,2,0,40,1,0
82045,234.375,4,2,0,40,1,0
82279,468.75,4,2,0,40,1,0
89544,117.1875,4,2,0,40,1,0
89778,468.75,4,2,0,40,1,0
92121,234.375,4,2,0,40,1,0
93996,468.75,4,2,0,40,1,1
97042,117.1875,4,2,0,40,1,0
97276,234.375,4,2,0,40,1,0
101494,234.375,4,2,0,40,1,1
104541,117.1875,4,2,0,40,1,0
104775,234.375,4,2,0,40,1,0
108993,234.375,4,2,0,40,1,0
120008,234.375,4,2,0,40,1,0
122117,117.1875,4,2,0,40,1,1
123992,234.375,4,2,0,40,1,0
127038,-100,4,2,0,40,0,0
127273,-100,4,2,0,40,0,0
131492,234.375,4,2,0,40,1,0
134538,-100,4,2,0,40,0,0
134773,-100,4,2,0,40,0,0
136648,234.375,4,2,0,40,1,0
136882,-133.333333333333,4,2,0,40,0,0
138991,234.375,4,2,0,40,1,0
142037,-100,4,2,0,40,0,0
142272,-100,4,2,0,40,0,0
145787,-100,4,2,0,40,0,0
146021,-100,4,2,0,40,0,0
149537,-100,4,2,0,40,0,0
149772,-100,4,2,0,40,0,0
152116,234.375,4,2,0,40,1,0
153287,-100,4,2,0,40,0,0
153522,-133.333333333333,4,2,0,20,0,0

[HitObjects]
312,76,268,6,0,B|372:128|400:192|400:192|372:256|312:308,1,285.749970568657
256,244,2494,6,0,B|236:216|236:216|276:216|276:216|256:244,1,95.2499901895524
200,308,4018,6,0,B|140:256|112:192|112:192|140:128|200:76,1,285.749970568657
312,76,7768,6,0,B|372:128|400:192|400:192|372:256|312:308,1,285.749970568657
256,300,11500,6,0,B|202:246|202:246|256:192|256:192,1,149.999991416931
310,138,14312,1,0,0:0:0:0:
256,84,15250,2,0,B|202:137|202:137|256:191|256:191,1,149.999991416931
310,246,18062,5,0,0:0:0:0:
256,300,19000,2,0,B|202:246|202:246|256:192|256:192,1,149.999991416931
310,138,21812,1,0,0:0:0:0:
256,84,22750,2,0,B|202:137|202:137|256:191|256:191,1,149.999991416931
310,246,25562,5,0,0:0:0:0:
256,300,26500,2,0,B|202:246|202:246|256:192|256:192,1,149.999991416931
310,138,29312,1,0,0:0:0:0:
256,52,30250,6,0,B|224:76|224:76|256:96,1,74.9999928474426
256,76,31187,2,0,B|300:100|300:100|256:120,1,97.4999862384802
256,100,32125,2,0,B|200:124|200:124|256:144,1,119.999988555908
256,124,33062,2,0,B|324:144|324:144|256:168,1,142.499982604981
256,148,34000,2,0,B|172:168|172:168|256:192,1,164.999989299774
256,172,34937,2,0,B|348:196|348:196|256:216,1,187.499982118607
256,196,35875,2,0,B|152:220|152:220|256:240,1,209.999973564149
256,220,36812,2,0,B|372:240|372:240|256:264,1,232.499979600906
256,244,37750,2,0,B|128:268|128:268|256:288,1,254.999980545043
256,268,38687,2,0,B|396:292|396:292|256:312,1,277.499972476959
256,292,39625,2,0,B|120:312|120:312|256:336,1,266.666641235352
256,192,40562,12,0,45015,0:0:0:0:
256,192,45250,5,0,0:0:0:0:
363,84,45718,5,0,0:0:0:0:
311,136,45953,1,0,0:0:0:0:
256,192,46187,1,0,0:0:0:0:
408,192,46656,5,0,0:0:0:0:
332,191,46890,1,0,0:0:0:0:
257,190,47125,1,0,0:0:0:0:
363,299,47593,5,0,0:0:0:0:
309,245,47827,1,0,0:0:0:0:
257,191,48062,1,0,0:0:0:0:
256,344,48531,5,0,0:0:0:0:
256,268,48765,1,0,0:0:0:0:
257,192,49000,1,0,0:0:0:0:
148,299,49468,5,0,0:0:0:0:
202,245,49702,1,0,0:0:0:0:
256,193,49937,1,0,0:0:0:0:
104,192,50406,5,0,0:0:0:0:
180,192,50640,1,0,0:0:0:0:
255,192,50875,1,0,0:0:0:0:
148,84,51343,5,0,0:0:0:0:
202,138,51577,1,0,0:0:0:0:
256,192,51812,1,0,0:0:0:0:
256,176,51988,6,0,B|276:148|276:148|236:148|236:148|256:176,1,93.7499946355817
256,192,52750,1,0,0:0:0:0:
209,259,53218,5,0,0:0:0:0:
254,111,53453,1,0,0:0:0:0:
304,257,53687,1,0,0:0:0:0:
177,168,54156,1,0,0:0:0:0:
332,165,54390,1,0,0:0:0:0:
209,259,54625,1,0,0:0:0:0:
304,125,55093,5,0,0:0:0:0:
256,273,55328,1,0,0:0:0:0:
209,126,55562,1,0,0:0:0:0:
334,217,56031,1,0,0:0:0:0:
179,217,56265,1,0,0:0:0:0:
304,125,56500,1,0,0:0:0:0:
292,268,56968,5,0,0:0:0:0:
173,210,57203,1,0,0:0:0:0:
256,107,57437,1,0,0:0:0:0:
338,210,57906,5,0,0:0:0:0:
219,267,58140,1,0,0:0:0:0:
190,139,58375,1,0,0:0:0:0:
322,139,58843,5,0,0:0:0:0:
292,268,59078,1,0,0:0:0:0:
173,210,59312,1,0,0:0:0:0:
256,192,59781,5,0,0:0:0:0:
208,257,60249,5,0,0:0:0:0:
332,168,60483,1,0,0:0:0:0:
179,167,60718,1,0,0:0:0:0:
303,257,60953,1,0,0:0:0:0:
256,111,61187,1,0,0:0:0:0:
188,236,61421,5,0,0:0:0:0:
335,196,61655,1,0,0:0:0:0:
193,141,61890,1,0,0:0:0:0:
276,270,62125,1,0,0:0:0:0:
284,116,62359,1,0,0:0:0:0:
176,208,62593,5,0,0:0:0:0:
328,225,62827,1,0,0:0:0:0:
215,122,63062,1,0,0:0:0:0:
247,272,63297,1,0,0:0:0:0:
310,131,63531,1,0,0:0:0:0:
175,183,63765,5,0,0:0:0:0:
314,245,63999,1,0,0:0:0:0:
239,112,64234,1,0,0:0:0:0:
223,265,64469,1,0,0:0:0:0:
325,151,64703,1,0,0:0:0:0:
182,159,64937,5,0,0:0:0:0:
295,261,65171,1,0,0:0:0:0:
264,111,65406,1,0,0:0:0:0:
201,252,65641,1,0,0:0:0:0:
335,175,65875,1,0,0:0:0:0:
195,137,66109,5,0,0:0:0:0:
271,270,66343,1,0,0:0:0:0:
288,118,66578,1,0,0:0:0:0:
186,232,66813,1,0,0:0:0:0:
256,176,66978,6,0,B|236:204|236:204|276:204|276:204|256:176,1,99.9999904632568
256,89,67749,5,0,0:0:0:0:
256,133,67983,1,0,0:0:0:0:
196,274,68217,1,0,0:0:0:0:
221,239,68451,1,0,0:0:0:0:
353,160,68686,1,0,0:0:0:0:
311,173,68920,1,0,0:0:0:0:
158,160,69155,1,0,0:0:0:0:
200,173,69389,1,0,0:0:0:0:
315,274,69624,1,0,0:0:0:0:
290,239,69858,1,0,0:0:0:0:
256,89,70092,5,0,0:0:0:0:
196,274,70327,1,0,0:0:0:0:
353,160,70561,1,0,0:0:0:0:
158,160,70795,1,0,0:0:0:0:
315,274,71030,1,0,0:0:0:0:
256,192,71264,5,0,0:0:0:0:
256,275,71499,5,0,0:0:0:0:
172,192,71733,1,0,0:0:0:0:
256,108,71968,1,0,0:0:0:0:
339,192,72201,1,0,0:0:0:0:
254,306,72436,1,0,0:0:0:0:
140,190,72670,1,0,0:0:0:0:
256,76,72904,1,0,0:0:0:0:
370,192,73139,1,0,0:0:0:0:
144,86,73374,5,0,0:0:0:0:
193,51,73491,1,0,0:0:0:0:
251,38,73608,1,0,0:0:0:0:
311,48,73724,1,0,0:0:0:0:
361,80,73843,1,0,0:0:0:0:
396,129,73959,1,0,0:0:0:0:
409,187,74076,1,0,0:0:0:0:
399,247,74194,1,0,0:0:0:0:
367,297,74311,1,0,0:0:0:0:
318,332,74428,1,0,0:0:0:0:
260,345,74545,1,0,0:0:0:0:
200,335,74663,1,0,0:0:0:0:
150,303,74780,1,0,0:0:0:0:
115,254,74897,1,0,0:0:0:0:
102,196,75014,1,0,0:0:0:0:
112,136,75131,1,0,0:0:0:0:
88,196,75248,6,0,B|96:228|96:228|120:128|204:124|136:252|260:136|208:252|304:156|268:252|312:228|352:156|340:240|388:136|376:208|416:172,1,399.999961853027
256,192,78999,5,0,0:0:0:0:
256,287,79467,5,0,0:0:0:0:
255,287,79702,1,0,0:0:0:0:
173,239,79936,1,0,0:0:0:0:
173,239,80170,1,0,0:0:0:0:
173,144,80405,1,0,0:0:0:0:
173,144,80639,1,0,0:0:0:0:
256,97,80874,1,0,0:0:0:0:
256,97,81108,1,0,0:0:0:0:
338,144,81342,1,0,0:0:0:0:
338,144,81577,1,0,0:0:0:0:
338,239,81811,1,0,0:0:0:0:
265,220,82045,5,0,0:0:0:0:
231,209,82103,1,0,0:0:0:0:
231,174,82162,1,0,0:0:0:0:
265,163,82220,1,0,0:0:0:0:
285,192,82279,1,0,0:0:0:0:
338,239,82513,5,0,0:0:0:0:
256,192,82747,1,0,0:0:0:0:
376,192,83216,1,0,0:0:0:0:
310,191,83450,1,0,0:0:0:0:
256,311,83685,1,0,0:0:0:0:
256,246,83919,1,0,0:0:0:0:
136,192,84154,1,0,0:0:0:0:
201,191,84388,1,0,0:0:0:0:
256,72,84622,1,0,0:0:0:0:
111,213,85091,5,0,0:0:0:0:
122,131,85325,1,0,0:0:0:0:
400,212,85560,1,0,0:0:0:0:
388,130,85794,1,0,0:0:0:0:
255,45,86029,1,0,0:0:0:0:
256,100,86263,1,0,0:0:0:0:
255,338,86497,2,0,L|256:304,1,24.9999976158142
256,284,86966,5,0,0:0:0:0:
255,287,87201,1,0,0:0:0:0:
339,239,87435,1,0,0:0:0:0:
339,239,87669,1,0,0:0:0:0:
339,144,87904,1,0,0:0:0:0:
339,144,88138,1,0,0:0:0:0:
256,97,88373,1,0,0:0:0:0:
256,97,88607,1,0,0:0:0:0:
174,144,88841,1,0,0:0:0:0:
174,144,89076,1,0,0:0:0:0:
174,239,89310,1,0,0:0:0:0:
247,220,89544,5,0,0:0:0:0:
281,209,89602,1,0,0:0:0:0:
281,174,89661,1,0,0:0:0:0:
247,163,89719,1,0,0:0:0:0:
227,192,89778,1,0,0:0:0:0:
174,239,90012,5,0,0:0:0:0:
256,192,90246,1,0,0:0:0:0:
136,192,90715,1,0,0:0:0:0:
202,191,90949,1,0,0:0:0:0:
256,311,91184,1,0,0:0:0:0:
256,246,91418,1,0,0:0:0:0:
376,192,91653,1,0,0:0:0:0:
311,191,91887,1,0,0:0:0:0:
256,72,92121,1,0,0:0:0:0:
401,213,92589,5,0,0:0:0:0:
390,131,92823,1,0,0:0:0:0:
112,212,93058,1,0,0:0:0:0:
124,130,93292,1,0,0:0:0:0:
257,45,93527,1,0,0:0:0:0:
256,100,93761,1,0,0:0:0:0:
256,180,93995,2,0,L|256:228,1,24.9999976158142
256,332,94464,5,0,0:0:0:0:
148,99,94699,1,0,0:0:0:0:
396,170,94933,1,0,0:0:0:0:
180,311,95167,1,0,0:0:0:0:
215,55,95402,1,0,0:0:0:0:
385,249,95636,1,0,0:0:0:0:
127,251,95871,1,0,0:0:0:0:
295,54,96105,1,0,0:0:0:0:
333,310,96339,1,0,0:0:0:0:
115,171,96574,1,0,0:0:0:0:
362,98,96808,1,0,0:0:0:0:
278,173,97042,5,0,0:0:0:0:
280,209,97100,1,0,0:0:0:0:
248,221,97159,1,0,0:0:0:0:
225,193,97217,1,0,0:0:0:0:
245,164,97276,1,0,0:0:0:0:
372,192,97510,5,0,0:0:0:0:
140,192,97744,1,0,0:0:0:0:
409,192,98213,5,0,0:0:0:0:
316,193,98447,1,0,0:0:0:0:
256,39,98682,1,0,0:0:0:0:
256,131,98916,1,0,0:0:0:0:
102,192,99151,1,0,0:0:0:0:
194,193,99385,1,0,0:0:0:0:
256,345,99619,1,0,0:0:0:0:
111,171,100088,5,0,0:0:0:0:
122,253,100322,1,0,0:0:0:0:
400,172,100557,1,0,0:0:0:0:
388,254,100791,1,0,0:0:0:0:
255,339,101026,1,0,0:0:0:0:
256,284,101260,1,0,0:0:0:0:
256,156,101494,2,0,L|256:192,1,24.9999976158142
256,332,101963,5,0,0:0:0:0:
364,99,102198,1,0,0:0:0:0:
116,170,102432,1,0,0:0:0:0:
332,311,102666,1,0,0:0:0:0:
297,55,102901,1,0,0:0:0:0:
127,249,103135,1,0,0:0:0:0:
385,251,103370,1,0,0:0:0:0:
217,54,103604,1,0,0:0:0:0:
179,310,103838,1,0,0:0:0:0:
397,171,104073,1,0,0:0:0:0:
150,98,104307,1,0,0:0:0:0:
234,173,104541,5,0,0:0:0:0:
232,209,104599,1,0,0:0:0:0:
264,221,104658,1,0,0:0:0:0:
287,193,104716,1,0,0:0:0:0:
267,164,104775,1,0,0:0:0:0:
256,308,105009,5,0,0:0:0:0:
256,76,105243,1,0,0:0:0:0:
103,192,105712,5,0,0:0:0:0:
196,193,105946,1,0,0:0:0:0:
256,39,106181,1,0,0:0:0:0:
256,131,106415,1,0,0:0:0:0:
410,192,106650,1,0,0:0:0:0:
318,193,106884,1,0,0:0:0:0:
256,345,107118,1,0,0:0:0:0:
401,171,107587,5,0,0:0:0:0:
390,253,107821,1,0,0:0:0:0:
112,172,108056,1,0,0:0:0:0:
124,254,108290,1,0,0:0:0:0:
257,339,108525,1,0,0:0:0:0:
256,284,108759,1,0,0:0:0:0:
256,156,108993,2,0,L|256:192,1,24.9999976158142
256,320,109461,5,0,0:0:0:0:
456,192,109930,2,0,L|431:192,1,24.9999976158142
256,192,110399,1,0,0:0:0:0:
152,192,110633,1,0,0:0:0:0:
56,192,110868,2,0,L|81:166,1,24.9999976158142
256,64,111336,1,0,0:0:0:0:
456,192,111805,2,0,L|431:192,1,24.9999976158142
256,192,112274,1,0,0:0:0:0:
152,192,112508,1,0,0:0:0:0:
56,192,112743,2,0,L|81:217,1,24.9999976158142
256,320,113211,5,0,0:0:0:0:
56,192,113680,2,0,L|81:192,1,24.9999976158142
256,192,114149,1,0,0:0:0:0:
360,192,114383,1,0,0:0:0:0:
456,192,114618,2,0,L|431:166,1,24.9999976158142
256,64,115086,1,0,0:0:0:0:
56,192,115555,2,0,L|81:192,1,24.9999976158142
256,192,116024,1,0,0:0:0:0:
360,192,116258,1,0,0:0:0:0:
456,192,116493,2,0,L|431:217,1,24.9999976158142
256,320,116961,5,0,0:0:0:0:
456,192,117430,2,0,L|431:192,1,24.9999976158142
256,192,117899,1,0,0:0:0:0:
152,192,118133,1,0,0:0:0:0:
56,192,118368,2,0,L|81:166,1,24.9999976158142
256,64,118836,1,0,0:0:0:0:
456,192,119305,6,0,L|431:217,1,24.9999976158142
256,320,119774,1,0,0:0:0:0:
256,192,120008,1,0,0:0:0:0:
256,275,120242,6,0,L|282:258,1,24.9999976158142
340,192,120477,1,0,0:0:0:0:
256,108,120712,1,0,0:0:0:0:
173,192,120945,1,0,0:0:0:0:
258,306,121179,2,0,L|276:288,1,24.9999976158142
372,190,121414,1,0,0:0:0:0:
256,76,121648,1,0,0:0:0:0:
142,192,121883,1,0,0:0:0:0:
368,86,122117,6,0,L|348:72,1,24.9999976158142
319,51,122234,1,0,0:0:0:0:
261,38,122351,1,0,0:0:0:0:
201,48,122467,1,0,0:0:0:0:
151,80,122586,1,0,0:0:0:0:
116,129,122702,1,0,0:0:0:0:
103,187,122819,1,0,0:0:0:0:
113,247,122937,1,0,0:0:0:0:
145,297,123054,2,0,L|164:312,1,24.9999976158142
194,332,123171,1,0,0:0:0:0:
252,345,123288,1,0,0:0:0:0:
312,335,123406,1,0,0:0:0:0:
362,303,123523,1,0,0:0:0:0:
397,254,123640,1,0,0:0:0:0:
410,196,123757,1,0,0:0:0:0:
400,136,123874,1,0,0:0:0:0:
256,192,123992,5,0,0:0:0:0:
215,214,124460,1,0,0:0:0:0:
295,215,124577,1,0,0:0:0:0:
256,145,124695,1,0,0:0:0:0:
168,280,124929,5,0,0:0:0:0:
344,280,125163,1,0,0:0:0:0:
256,352,125398,1,0,0:0:0:0:
256,280,125515,1,0,0:0:0:0:
256,104,125749,1,0,0:0:0:0:
256,32,125867,1,0,0:0:0:0:
216,168,126335,5,0,0:0:0:0:
257,236,126452,1,0,0:0:0:0:
295,166,126570,1,0,0:0:0:0:
256,192,126804,1,0,0:0:0:0:
164,128,127038,5,0,0:0:0:0:
208,108,127097,1,0,0:0:0:0:
256,96,127156,1,0,0:0:0:0:
304,108,127214,1,0,0:0:0:0:
348,128,127273,1,0,0:0:0:0:
304,192,127507,1,0,0:0:0:0:
208,192,127742,1,0,0:0:0:0:
297,214,128210,5,0,0:0:0:0:
217,215,128327,1,0,0:0:0:0:
256,145,128445,1,0,0:0:0:0:
344,280,128679,5,0,0:0:0:0:
168,280,128913,1,0,0:0:0:0:
256,352,129148,1,0,0:0:0:0:
256,280,129265,1,0,0:0:0:0:
256,104,129499,1,0,0:0:0:0:
256,32,129617,1,0,0:0:0:0:
296,168,130085,5,0,0:0:0:0:
255,236,130202,1,0,0:0:0:0:
217,166,130320,1,0,0:0:0:0:
256,192,130554,1,0,0:0:0:0:
256,80,130788,5,0,0:0:0:0:
256,136,130906,1,0,0:0:0:0:
256,248,131140,1,0,0:0:0:0:
256,356,131492,2,0,L|256:192,1,149.999985694885
297,214,131960,5,0,0:0:0:0:
217,215,132077,1,0,0:0:0:0:
256,145,132195,1,0,0:0:0:0:
344,280,132429,5,0,0:0:0:0:
168,280,132663,1,0,0:0:0:0:
256,352,132898,1,0,0:0:0:0:
256,280,133015,1,0,0:0:0:0:
256,104,133249,1,0,0:0:0:0:
256,32,133367,1,0,0:0:0:0:
296,168,133835,5,0,0:0:0:0:
255,236,133952,1,0,0:0:0:0:
217,166,134070,1,0,0:0:0:0:
256,192,134304,1,0,0:0:0:0:
348,128,134538,5,0,0:0:0:0:
304,108,134597,1,0,0:0:0:0:
256,96,134656,1,0,0:0:0:0:
208,108,134714,1,0,0:0:0:0:
164,128,134773,1,0,0:0:0:0:
208,192,135007,1,0,0:0:0:0:
304,192,135242,1,0,0:0:0:0:
297,214,135710,5,0,0:0:0:0:
217,215,135827,1,0,0:0:0:0:
256,145,135945,1,0,0:0:0:0:
344,280,136179,5,0,0:0:0:0:
168,280,136413,1,0,0:0:0:0:
256,352,136648,1,0,0:0:0:0:
256,280,136765,1,0,0:0:0:0:
256,132,136999,6,0,L|256:169,1,37.4999978542327
256,233,137585,5,0,0:0:0:0:
219,172,137702,1,0,0:0:0:0:
290,171,137819,1,0,0:0:0:0:
256,300,138054,5,0,0:0:0:0:
256,59,138288,1,0,0:0:0:0:
256,129,138405,1,0,0:0:0:0:
256,300,138640,1,0,0:0:0:0:
256,192,138991,5,0,0:0:0:0:
256,239,139459,1,0,0:0:0:0:
215,170,139576,1,0,0:0:0:0:
295,169,139693,1,0,0:0:0:0:
344,104,139928,5,0,0:0:0:0:
168,104,140162,1,0,0:0:0:0:
256,32,140397,1,0,0:0:0:0:
256,104,140514,1,0,0:0:0:0:
256,252,140748,6,0,L|256:200,1,49.9999952316284
296,216,141334,5,0,0:0:0:0:
255,148,141451,1,0,0:0:0:0:
217,218,141569,1,0,0:0:0:0:
256,192,141803,1,0,0:0:0:0:
348,256,142037,5,0,0:0:0:0:
304,276,142096,1,0,0:0:0:0:
256,288,142155,1,0,0:0:0:0:
208,276,142213,1,0,0:0:0:0:
164,256,142272,1,0,0:0:0:0:
208,192,142506,1,0,0:0:0:0:
304,192,142741,1,0,0:0:0:0:
256,239,143209,1,0,0:0:0:0:
297,170,143326,1,0,0:0:0:0:
217,169,143443,1,0,0:0:0:0:
168,104,143678,5,0,0:0:0:0:
344,104,143912,1,0,0:0:0:0:
256,32,144147,1,0,0:0:0:0:
256,104,144264,1,0,0:0:0:0:
256,251,144498,6,0,L|256:200,1,49.9999952316284
216,216,145084,5,0,0:0:0:0:
257,148,145201,1,0,0:0:0:0:
295,218,145319,1,0,0:0:0:0:
256,192,145553,1,0,0:0:0:0:
164,256,145787,5,0,0:0:0:0:
208,276,145846,1,0,0:0:0:0:
256,288,145905,1,0,0:0:0:0:
304,276,145963,1,0,0:0:0:0:
348,256,146022,1,0,0:0:0:0:
304,192,146256,1,0,0:0:0:0:
208,192,146491,1,0,0:0:0:0:
256,239,146959,1,0,0:0:0:0:
215,170,147076,1,0,0:0:0:0:
295,169,147193,1,0,0:0:0:0:
344,104,147428,5,0,0:0:0:0:
168,104,147662,1,0,0:0:0:0:
256,32,147897,1,0,0:0:0:0:
256,104,148014,1,0,0:0:0:0:
256,252,148248,6,0,L|256:200,1,49.9999952316284
296,216,148834,5,0,0:0:0:0:
255,148,148951,1,0,0:0:0:0:
217,218,149069,1,0,0:0:0:0:
256,192,149303,1,0,0:0:0:0:
348,256,149537,5,0,0:0:0:0:
304,276,149596,1,0,0:0:0:0:
256,288,149655,1,0,0:0:0:0:
208,276,149713,1,0,0:0:0:0:
164,256,149772,1,0,0:0:0:0:
208,192,150006,1,0,0:0:0:0:
304,192,150241,1,0,0:0:0:0:
256,239,150709,5,0,0:0:0:0:
297,170,150826,1,0,0:0:0:0:
217,169,150943,1,0,0:0:0:0:
168,104,151178,5,0,0:0:0:0:
344,104,151412,1,0,0:0:0:0:
256,32,151647,1,0,0:0:0:0:
256,104,151764,1,0,0:0:0:0:
256,251,151998,6,0,L|256:200,1,49.9999952316284
216,216,152584,5,0,0:0:0:0:
257,148,152701,1,0,0:0:0:0:
295,218,152819,1,0,0:0:0:0:
256,192,153053,1,0,0:0:0:0:
164,256,153287,5,0,0:0:0:0:
208,276,153346,1,0,0:0:0:0:
256,288,153405,1,0,0:0:0:0:
304,276,153463,1,0,0:0:0:0:
347,256,153522,1,0,0:0:0:0:
256,192,153756,6,0,B|352:204|348:124|348:124|256:48|256:48|164:128|164:128|164:256|164:256|256:336|256:336|348:256,1,749.999957084654
