osu file format v14

[General]
AudioFilename: audio.mp3
AudioLeadIn: 0
PreviewTime: -1
Countdown: 1
SampleSet: Soft
StackLeniency: 0.7
Mode: 0
LetterboxInBreaks: 0
WidescreenStoryboard: 1

[Editor]
Bookmarks: 4000,8000,11625,15375,19000,22750,26500,30333,34750,40250,45166,50875,54976,60333,67583,75250,78833,82250,82982,84857,86029,89416,94000,97333,101750,104583,107833,111160,115145,117606,120916,124000,124167,124226,124284,127273,131750,134363,137583,139250,142975,146583,149772,153833
DistanceSpacing: 0.7
BeatDivisor: 4
GridSize: 4
TimelineZoom: 3.099998

[Metadata]
Title:Agartha
TitleUnicode:Agartha
Artist:CodeNamePizza
ArtistUnicode:CodeNamePizza
Creator:lli112
Version:(H)fist of iron
Source:soundcloud
Tags:just for fun
BeatmapID:1533179
BeatmapSetID:718368

[Difficulty]
HPDrainRate:5
CircleSize:5
OverallDifficulty:4
ApproachRate:7
SliderMultiplier:0.999999904632568
SliderTickRate:1

[Events]
//Background and Video events
0,0,"210930_1394879799283_full.png",0,0
//Break Periods
//Storyboard Layer 0 (Background)
//Storyboard Layer 1 (Fail)
//Storyboard Layer 2 (Pass)
//Storyboard Layer 3 (Foreground)
//Storyboard Sound Samples

[TimingPoints]
268,937.5,4,2,0,40,1,0
268,-78.7401574803149,4,2,0,40,0,0
11500,937.5,4,2,0,40,1,0
11500,-133.333333333333,4,2,0,40,0,0
30250,468.75,3,2,0,40,1,0
30250,-200,3,2,0,40,0,0
31187,-200,3,2,0,40,0,0
32125,-133.333333333333,3,2,0,40,0,0
33062,-133.333333333333,3,2,0,40,0,0
34000,-100,3,2,0,40,0,0
34937,-100,3,2,0,40,0,0
35875,-80,3,2,0,40,0,0
36812,-80,3,2,0,40,0,0
37750,-66.6666666666667,3,2,0,40,0,0
38687,-66.6666666666667,3,2,0,40,0,0
39625,-50,3,2,0,40,0,0
45250,468.75,4,2,0,40,1,0
45250,-66.6666666666667,4,2,0,40,0,0
51812,-133.333333333333,4,2,0,40,0,0
59781,234.375,4,2,0,40,1,0
59781,-50,4,2,0,40,0,1
66812,666.666666666667,4,2,0,40,1,0
66812,-100,4,2,0,40,0,0
67749,234.375,4,2,0,40,1,1
73374,117.1875,4,2,0,40,1,1
75248,857.142857142857,4,2,0,40,1,0
75248,-57.8034682080925,4,2,0,40,0,0
78999,468.75,4,2,0,40,1,0
82045,234.375,4,2,0,40,1,0
82279,468.75,4,2,0,40,1,0
86497,-68.9655172413793,4,2,0,40,0,0
89544,117.1875,4,2,0,40,1,0
89778,468.75,4,2,0,40,1,0
92121,234.375,4,2,0,40,1,0
93996,468.75,4,2,0,40,1,1
97042,117.1875,4,2,0,40,1,0
97276,234.375,4,2,0,40,1,0
101494,234.375,4,2,0,40,1,1
104541,117.1875,4,2,0,40,1,0
104775,234.375,4,2,0,40,1,0
108993,234.375,4,2,0,40,1,0
120008,234.375,4,2,0,40,1,0
122117,117.1875,4,2,0,40,1,1
123992,234.375,4,2,0,40,1,0
123992,-200,4,2,0,40,0,0
127038,-100,4,2,0,40,0,0
127273,-100,4,2,0,40,0,0
131492,234.375,4,2,0,40,1,0
134538,-100,4,2,0,40,0,0
134773,-100,4,2,0,40,0,0
136648,234.375,4,2,0,40,1,0
136882,-133.333333333333,4,2,0,40,0,0
138991,234.375,4,2,0,40,1,0
142037,-100,4,2,0,40,0,0
142272,-100,4,2,0,40,0,0
145787,-100,4,2,0,40,0,0
146021,-100,4,2,0,40,0,0
149537,-100,4,2,0,40,0,0
149772,-100,4,2,0,40,0,0
152116,234.375,4,2,0,40,1,0
153287,-100,4,2,0,40,0,0
153522,-100,4,2,0,40,0,0

[HitObjects]
328,76,268,6,0,B|380:192|380:192|328:308,1,253.999973838806
256,224,2377,2,0,B|236:192|236:192|276:192|276:192|256:224,1,95.2499901895524
184,308,4018,2,0,B|132:192|132:192|184:76,1,253.999973838806
328,76,7768,2,0,B|380:192|380:192|328:308,1,253.999973838806
256,324,11500,6,0,B|208:264|208:264|256:192,1,149.999991416931
256,192,14312,5,0,0:0:0:0:
124,192,15250,2,0,B|184:144|184:144|256:192,1,149.999991416931
256,192,18062,5,0,0:0:0:0:
256,60,19000,2,0,B|304:120|304:120|256:192,1,149.999991416931
256,192,21812,5,0,0:0:0:0:
388,192,22750,2,0,B|328:240|328:240|256:192,1,149.999991416931
256,192,25562,5,0,0:0:0:0:
256,324,26500,2,0,B|208:264|208:264|256:192,1,149.999991416931
256,192,29312,5,0,0:0:0:0:
232,200,30250,6,0,P|256:168|280:200,1,87.4999916553497
232,200,31187,2,0,P|256:168|280:200,1,87.4999916553497
232,208,32125,6,0,P|256:160|280:208,1,131.249992489814
232,208,33062,2,0,P|256:160|280:208,1,131.249992489814
232,216,34000,6,0,P|256:152|280:216,1,174.999983310699
232,216,34937,2,0,P|256:152|280:216,1,174.999983310699
232,224,35875,6,0,P|256:144|280:224,1,218.749979138374
232,224,36812,2,0,P|256:144|280:224,1,218.749979138374
232,232,37750,6,0,P|256:136|280:232,1,262.499984979629
232,232,38687,2,0,P|256:136|280:232,1,262.499984979629
232,248,39625,6,0,P|256:124|280:248,1,349.999966621399
232,248,40562,2,0,P|256:124|280:248,1,349.999966621399
256,192,41500,12,0,45015,0:0:0:0:
136,191,45250,5,0,0:0:0:0:
375,192,45718,5,0,0:0:0:0:
340,107,45953,1,0,0:0:0:0:
256,72,46187,1,0,0:0:0:0:
136,191,46656,5,0,0:0:0:0:
171,276,46891,1,0,0:0:0:0:
256,311,47125,1,0,0:0:0:0:
256,72,47593,5,0,0:0:0:0:
171,107,47828,1,0,0:0:0:0:
136,192,48062,1,0,0:0:0:0:
256,312,48531,5,0,0:0:0:0:
340,276,48766,1,0,0:0:0:0:
375,192,49000,1,0,0:0:0:0:
136,191,49467,5,0,0:0:0:0:
171,276,49702,1,0,0:0:0:0:
256,311,49937,1,0,0:0:0:0:
375,192,50406,5,0,0:0:0:0:
340,107,50641,1,0,0:0:0:0:
256,72,50875,1,0,0:0:0:0:
184,192,51343,5,0,0:0:0:0:
256,264,51578,1,0,0:0:0:0:
328,192,51812,1,0,0:0:0:0:
256,180,52046,6,0,B|272:152|272:152|240:152|240:152|256:180,1,74.9999957084654
255,312,52750,5,0,0:0:0:0:
256,73,53218,5,0,0:0:0:0:
171,108,53453,1,0,0:0:0:0:
136,192,53687,1,0,0:0:0:0:
255,312,54156,5,0,0:0:0:0:
340,277,54391,1,0,0:0:0:0:
375,192,54625,1,0,0:0:0:0:
136,192,55093,5,0,0:0:0:0:
171,277,55328,1,0,0:0:0:0:
256,312,55562,1,0,0:0:0:0:
375,192,56031,5,0,0:0:0:0:
340,108,56266,1,0,0:0:0:0:
256,73,56500,1,0,0:0:0:0:
255,312,56968,5,0,0:0:0:0:
340,277,57203,1,0,0:0:0:0:
375,192,57437,1,0,0:0:0:0:
256,73,57906,5,0,0:0:0:0:
171,108,58141,1,0,0:0:0:0:
136,192,58375,1,0,0:0:0:0:
375,192,58843,5,0,0:0:0:0:
340,108,59078,1,0,0:0:0:0:
256,73,59312,1,0,0:0:0:0:
136,192,59781,5,0,0:0:0:0:
372,296,60249,5,0,0:0:0:0:
256,352,60484,1,0,0:0:0:0:
256,240,60718,1,0,0:0:0:0:
140,296,60952,1,0,0:0:0:0:
256,352,61187,5,0,0:0:0:0:
256,240,61421,1,0,0:0:0:0:
256,140,61656,1,0,0:0:0:0:
256,28,61890,1,0,0:0:0:0:
140,88,62124,5,0,0:0:0:0:
256,32,62359,1,0,0:0:0:0:
256,144,62593,1,0,0:0:0:0:
372,88,62827,1,0,0:0:0:0:
256,28,63062,5,0,0:0:0:0:
256,140,63296,1,0,0:0:0:0:
256,240,63531,1,0,0:0:0:0:
256,352,63765,1,0,0:0:0:0:
372,296,63999,5,0,0:0:0:0:
256,352,64234,1,0,0:0:0:0:
256,240,64468,1,0,0:0:0:0:
140,296,64702,1,0,0:0:0:0:
256,352,64937,5,0,0:0:0:0:
256,240,65171,1,0,0:0:0:0:
256,140,65406,1,0,0:0:0:0:
256,28,65640,1,0,0:0:0:0:
140,88,65874,5,0,0:0:0:0:
256,28,66109,1,0,0:0:0:0:
256,144,66343,1,0,0:0:0:0:
372,88,66577,1,0,0:0:0:0:
256,24,66812,5,0,0:0:0:0:
256,120,66978,6,0,B|240:144|240:144|272:144|272:144|256:120,1,74.9999928474426
124,192,67749,5,0,0:0:0:0:
388,192,67983,1,0,0:0:0:0:
138,132,68217,5,0,0:0:0:0:
373,251,68451,1,0,0:0:0:0:
178,85,68686,5,0,0:0:0:0:
333,298,68920,1,0,0:0:0:0:
235,61,69155,5,0,0:0:0:0:
276,322,69389,1,0,0:0:0:0:
296,66,69624,5,0,0:0:0:0:
215,317,69858,1,0,0:0:0:0:
349,98,70092,5,0,0:0:0:0:
162,285,70326,1,0,0:0:0:0:
381,151,70561,5,0,0:0:0:0:
130,232,70795,1,0,0:0:0:0:
380,234,71030,5,0,0:0:0:0:
131,149,71264,1,0,0:0:0:0:
329,301,71499,5,0,0:0:0:0:
182,82,71733,1,0,0:0:0:0:
249,323,71967,5,0,0:0:0:0:
262,60,72201,1,0,0:0:0:0:
171,293,72436,5,0,0:0:0:0:
340,90,72670,1,0,0:0:0:0:
127,221,72905,5,0,0:0:0:0:
384,162,73139,1,0,0:0:0:0:
124,192,73374,5,0,0:0:0:0:
136,135,73491,1,0,0:0:0:0:
173,89,73608,1,0,0:0:0:0:
226,63,73724,1,0,0:0:0:0:
284,63,73843,1,0,0:0:0:0:
337,88,73960,1,0,0:0:0:0:
374,134,74076,1,0,0:0:0:0:
387,191,74194,1,0,0:0:0:0:
375,248,74311,1,0,0:0:0:0:
338,294,74428,1,0,0:0:0:0:
285,320,74545,1,0,0:0:0:0:
227,320,74663,1,0,0:0:0:0:
174,295,74780,1,0,0:0:0:0:
137,249,74897,1,0,0:0:0:0:
124,192,75014,1,0,0:0:0:0:
136,135,75131,1,0,0:0:0:0:
173,89,75248,6,0,P|368:260|136:136,1,735.249947831534
256,192,78999,5,0,0:0:0:0:
200,312,79467,5,0,0:0:0:0:
312,312,79702,1,0,0:0:0:0:
376,248,79936,1,0,0:0:0:0:
376,136,80171,1,0,0:0:0:0:
136,136,80405,5,0,0:0:0:0:
136,248,80640,1,0,0:0:0:0:
200,312,80874,1,0,0:0:0:0:
312,312,81109,1,0,0:0:0:0:
312,72,81342,5,0,0:0:0:0:
200,72,81577,1,0,0:0:0:0:
136,136,81811,1,0,0:0:0:0:
136,248,82046,5,0,0:0:0:0:
196,252,82103,1,0,0:0:0:0:
256,252,82162,1,0,0:0:0:0:
316,252,82220,1,0,0:0:0:0:
376,248,82279,1,0,0:0:0:0:
344,160,82513,5,0,0:0:0:0:
312,72,82747,1,0,0:0:0:0:
200,312,83216,5,0,0:0:0:0:
312,312,83451,1,0,0:0:0:0:
376,248,83685,1,0,0:0:0:0:
376,136,83920,1,0,0:0:0:0:
136,136,84154,5,0,0:0:0:0:
136,248,84389,1,0,0:0:0:0:
312,312,84622,1,0,0:0:0:0:
376,136,85091,5,0,0:0:0:0:
136,248,85325,1,0,0:0:0:0:
312,312,85560,1,0,0:0:0:0:
200,72,85794,5,0,0:0:0:0:
168,160,86029,1,0,0:0:0:0:
136,248,86263,1,0,0:0:0:0:
376,248,86497,6,0,L|376:120,1,108.749992947578
312,72,86966,5,0,0:0:0:0:
200,72,87201,1,0,0:0:0:0:
136,136,87435,1,0,0:0:0:0:
136,248,87669,1,0,0:0:0:0:
376,248,87904,5,0,0:0:0:0:
376,136,88139,1,0,0:0:0:0:
312,72,88373,1,0,0:0:0:0:
200,72,88607,1,0,0:0:0:0:
200,312,88841,5,0,0:0:0:0:
312,312,89076,1,0,0:0:0:0:
376,248,89310,1,0,0:0:0:0:
376,136,89545,5,0,0:0:0:0:
316,132,89602,1,0,0:0:0:0:
256,132,89661,1,0,0:0:0:0:
196,132,89719,1,0,0:0:0:0:
136,136,89778,1,0,0:0:0:0:
168,224,90012,5,0,0:0:0:0:
200,312,90246,1,0,0:0:0:0:
312,72,90715,5,0,0:0:0:0:
200,72,90950,1,0,0:0:0:0:
136,136,91184,1,0,0:0:0:0:
136,248,91419,1,0,0:0:0:0:
376,248,91653,5,0,0:0:0:0:
376,136,91888,1,0,0:0:0:0:
220,116,92121,1,0,0:0:0:0:
180,227,92590,5,0,0:0:0:0:
331,156,92824,1,0,0:0:0:0:
220,116,93059,1,0,0:0:0:0:
291,267,93293,5,0,0:0:0:0:
311,212,93528,1,0,0:0:0:0:
331,156,93762,1,0,0:0:0:0:
136,156,93996,6,8,L|168:241,1,74.9999928474426
312,312,94464,5,0,0:0:0:0:
376,136,94699,1,0,0:0:0:0:
200,312,94933,1,0,0:0:0:0:
376,248,95167,1,0,0:0:0:0:
136,248,95402,5,0,0:0:0:0:
312,312,95636,1,0,0:0:0:0:
136,136,95871,1,0,0:0:0:0:
200,312,96105,1,0,0:0:0:0:
200,72,96339,5,0,0:0:0:0:
136,248,96574,1,0,0:0:0:0:
312,72,96808,1,0,0:0:0:0:
196,144,97042,5,0,0:0:0:0:
225,167,97100,1,0,0:0:0:0:
254,190,97159,1,0,0:0:0:0:
284,213,97217,1,0,0:0:0:0:
313,237,97276,1,0,0:0:0:0:
208,244,97510,5,0,0:0:0:0:
133,186,97744,1,0,0:0:0:0:
200,312,98213,5,0,0:0:0:0:
312,312,98448,1,0,0:0:0:0:
376,248,98682,1,0,0:0:0:0:
376,136,98917,1,0,0:0:0:0:
136,136,99151,5,0,0:0:0:0:
136,248,99386,1,0,0:0:0:0:
312,312,99619,1,0,0:0:0:0:
376,136,100088,5,0,0:0:0:0:
136,248,100322,1,0,0:0:0:0:
312,312,100557,1,0,0:0:0:0:
200,72,100791,5,0,0:0:0:0:
168,160,101026,1,0,0:0:0:0:
136,248,101260,1,0,0:0:0:0:
376,228,101494,1,0,0:0:0:0:
200,72,101962,5,0,0:0:0:0:
136,248,102197,1,0,0:0:0:0:
312,72,102431,1,0,0:0:0:0:
136,136,102665,1,0,0:0:0:0:
376,136,102900,5,0,0:0:0:0:
200,72,103134,1,0,0:0:0:0:
376,248,103369,1,0,0:0:0:0:
312,72,103603,1,0,0:0:0:0:
312,312,103837,5,0,0:0:0:0:
376,136,104072,1,0,0:0:0:0:
200,312,104306,1,0,0:0:0:0:
316,240,104540,5,0,0:0:0:0:
287,217,104598,1,0,0:0:0:0:
258,194,104657,1,0,0:0:0:0:
228,171,104715,1,0,0:0:0:0:
199,147,104774,1,0,0:0:0:0:
304,140,105009,5,0,0:0:0:0:
379,198,105243,1,0,0:0:0:0:
312,72,105712,5,0,0:0:0:0:
200,72,105947,1,0,0:0:0:0:
136,136,106181,1,0,0:0:0:0:
136,248,106416,1,0,0:0:0:0:
376,248,106650,5,0,0:0:0:0:
376,136,106885,1,0,0:0:0:0:
200,72,107118,1,0,0:0:0:0:
136,248,107587,5,0,0:0:0:0:
376,136,107821,1,0,0:0:0:0:
200,72,108056,1,0,0:0:0:0:
312,312,108290,5,0,0:0:0:0:
344,224,108525,1,0,0:0:0:0:
376,136,108759,1,0,0:0:0:0:
136,156,108993,5,0,0:0:0:0:
136,248,109461,1,0,0:0:0:0:
376,136,109930,1,0,0:0:0:0:
344,224,110399,5,0,0:0:0:0:
312,316,110633,1,0,0:0:0:0:
376,136,110868,1,0,0:0:0:0:
344,224,111336,5,0,0:0:0:0:
131,146,111805,1,0,0:0:0:0:
215,107,112274,5,0,0:0:0:0:
303,65,112508,1,0,0:0:0:0:
131,146,112743,1,0,0:0:0:0:
216,107,113211,5,0,0:0:0:0:
380,237,113680,1,0,0:0:0:0:
297,275,114149,5,0,0:0:0:0:
208,318,114383,1,0,0:0:0:0:
380,237,114618,1,0,0:0:0:0:
295,276,115086,5,0,0:0:0:0:
200,72,115555,1,0,0:0:0:0:
287,104,116024,5,0,0:0:0:0:
379,136,116258,1,0,0:0:0:0:
200,72,116493,1,0,0:0:0:0:
288,104,116961,5,0,0:0:0:0:
312,312,117430,1,0,0:0:0:0:
226,280,117899,5,0,0:0:0:0:
133,248,118133,1,0,0:0:0:0:
312,312,118368,1,0,0:0:0:0:
224,280,118836,5,0,0:0:0:0:
301,67,119305,1,0,0:0:0:0:
340,151,119774,5,0,0:0:0:0:
382,239,120008,1,0,0:0:0:0:
301,67,120243,1,0,0:0:0:0:
212,164,120476,5,0,0:0:0:0:
156,245,120711,1,0,0:0:0:0:
254,252,120945,1,0,0:0:0:0:
173,80,121179,1,0,0:0:0:0:
296,164,121414,5,0,0:0:0:0:
352,245,121649,1,0,0:0:0:0:
254,252,121883,1,0,0:0:0:0:
335,80,122117,1,0,0:0:0:0:
373,114,122234,5,0,0:0:0:0:
394,165,122351,1,0,0:0:0:0:
394,220,122467,1,0,0:0:0:0:
372,270,122586,1,0,0:0:0:0:
333,309,122703,1,0,0:0:0:0:
282,330,122820,1,0,0:0:0:0:
227,330,122936,1,0,0:0:0:0:
152,288,123054,5,0,0:0:0:0:
123,241,123171,1,0,0:0:0:0:
115,187,123288,1,0,0:0:0:0:
127,133,123406,1,0,0:0:0:0:
159,88,123523,1,0,0:0:0:0:
206,59,123639,1,0,0:0:0:0:
260,51,123757,1,0,0:0:0:0:
314,63,123875,1,0,0:0:0:0:
388,143,123992,6,0,P|400:184|396:216,1,74.9999928474426
162,262,124460,5,0,0:0:0:0:
215,344,124577,1,0,0:0:0:0:
301,299,124695,1,0,0:0:0:0:
287,76,124929,5,0,0:0:0:0:
235,270,125163,1,0,0:0:0:0:
248,94,125398,5,0,0:0:0:0:
152,121,125515,1,0,0:0:0:0:
314,112,125749,5,0,0:0:0:0:
384,183,125866,1,0,0:0:0:0:
162,262,126335,5,0,0:0:0:0:
215,344,126452,1,0,0:0:0:0:
301,299,126570,1,0,0:0:0:0:
349,183,126804,5,0,0:0:0:0:
324,94,127038,1,0,0:0:0:0:
311,73,127096,1,0,0:0:0:0:
290,60,127155,1,0,0:0:0:0:
266,59,127213,1,0,0:0:0:0:
244,72,127272,1,0,0:0:0:0:
179,138,127507,5,0,0:0:0:0:
349,183,127742,1,0,0:0:0:0:
162,262,128210,5,0,0:0:0:0:
215,344,128327,1,0,0:0:0:0:
301,299,128445,1,0,0:0:0:0:
287,76,128679,5,0,0:0:0:0:
235,270,128913,1,0,0:0:0:0:
248,94,129148,5,0,0:0:0:0:
152,121,129265,1,0,0:0:0:0:
314,112,129499,5,0,0:0:0:0:
384,183,129616,1,0,0:0:0:0:
301,299,130085,5,0,0:0:0:0:
215,344,130203,1,0,0:0:0:0:
162,262,130320,1,0,0:0:0:0:
252,203,130554,5,0,0:0:0:0:
224,125,130788,1,0,0:0:0:0:
316,150,130906,1,0,0:0:0:0:
279,103,131140,1,0,0:0:0:0:
236,186,131492,6,0,B|268:145|268:145|275:197,1,99.9999904632568
210,299,131960,5,0,0:0:0:0:
296,344,132077,1,0,0:0:0:0:
349,262,132195,1,0,0:0:0:0:
224,76,132429,5,0,0:0:0:0:
276,270,132663,1,0,0:0:0:0:
201,111,132898,5,0,0:0:0:0:
131,182,133015,1,0,0:0:0:0:
266,93,133249,5,0,0:0:0:0:
363,120,133366,1,0,0:0:0:0:
210,299,133835,5,0,0:0:0:0:
296,344,133952,1,0,0:0:0:0:
349,262,134070,1,0,0:0:0:0:
332,138,134304,5,0,0:0:0:0:
266,73,134538,1,0,0:0:0:0:
244,61,134596,1,0,0:0:0:0:
219,60,134655,1,0,0:0:0:0:
198,71,134713,1,0,0:0:0:0:
186,94,134772,1,0,0:0:0:0:
162,183,135007,5,0,0:0:0:0:
332,138,135242,1,0,0:0:0:0:
210,299,135710,5,0,0:0:0:0:
296,344,135827,1,0,0:0:0:0:
349,262,135945,1,0,0:0:0:0:
224,76,136179,5,0,0:0:0:0:
276,270,136413,1,0,0:0:0:0:
201,111,136648,5,0,0:0:0:0:
131,182,136765,1,0,0:0:0:0:
266,93,136999,5,0,0:0:0:0:
363,120,137116,1,0,0:0:0:0:
341,264,137585,5,0,0:0:0:0:
293,331,137703,1,0,0:0:0:0:
217,297,137820,1,0,0:0:0:0:
263,219,138054,5,0,0:0:0:0:
199,165,138288,1,0,0:0:0:0:
292,140,138406,1,0,0:0:0:0:
232,103,138640,1,0,0:0:0:0:
236,197,138991,6,0,B|243:145|243:145|275:186,1,99.9999904632568
184,284,139459,5,0,0:0:0:0:
256,350,139576,1,0,0:0:0:0:
328,284,139694,1,0,0:0:0:0:
256,72,139928,5,0,0:0:0:0:
256,273,140162,1,0,0:0:0:0:
224,100,140397,5,0,0:0:0:0:
138,151,140514,1,0,0:0:0:0:
292,100,140748,5,0,0:0:0:0:
378,151,140865,1,0,0:0:0:0:
184,284,141334,5,0,0:0:0:0:
256,350,141451,1,0,0:0:0:0:
328,284,141569,1,0,0:0:0:0:
344,160,141803,5,0,0:0:0:0:
297,80,142037,1,0,0:0:0:0:
279,63,142095,1,0,0:0:0:0:
255,56,142154,1,0,0:0:0:0:
232,61,142212,1,0,0:0:0:0:
214,80,142271,1,0,0:0:0:0:
168,160,142506,5,0,0:0:0:0:
344,160,142741,1,0,0:0:0:0:
156,253,143209,5,0,0:0:0:0:
201,340,143326,1,0,0:0:0:0:
292,303,143444,1,0,0:0:0:0:
297,79,143678,5,0,0:0:0:0:
228,268,143912,1,0,0:0:0:0:
257,94,144147,5,0,0:0:0:0:
159,113,144264,1,0,0:0:0:0:
321,117,144498,5,0,0:0:0:0:
384,195,144615,1,0,0:0:0:0:
292,303,145084,5,0,0:0:0:0:
201,340,145202,1,0,0:0:0:0:
156,253,145319,1,0,0:0:0:0:
184,131,145553,5,0,0:0:0:0:
254,72,145787,1,0,0:0:0:0:
278,60,145846,1,0,0:0:0:0:
301,63,145904,1,0,0:0:0:0:
321,78,145963,1,0,0:0:0:0:
332,100,146021,1,0,0:0:0:0:
349,192,146256,5,0,0:0:0:0:
184,131,146491,1,0,0:0:0:0:
219,303,146959,5,0,0:0:0:0:
310,340,147076,1,0,0:0:0:0:
355,253,147194,1,0,0:0:0:0:
214,79,147428,5,0,0:0:0:0:
283,268,147662,1,0,0:0:0:0:
194,116,147897,5,0,0:0:0:0:
131,193,148014,1,0,0:0:0:0:
258,93,148248,5,0,0:0:0:0:
356,111,148365,1,0,0:0:0:0:
355,253,148834,5,0,0:0:0:0:
310,340,148952,1,0,0:0:0:0:
219,303,149069,1,0,0:0:0:0:
162,192,149303,5,0,0:0:0:0:
178,101,149537,1,0,0:0:0:0:
188,77,149596,1,0,0:0:0:0:
208,64,149654,1,0,0:0:0:0:
233,62,149713,1,0,0:0:0:0:
256,72,149771,1,0,0:0:0:0:
327,131,150006,5,0,0:0:0:0:
162,192,150241,1,0,0:0:0:0:
184,284,150709,5,0,0:0:0:0:
256,350,150826,1,0,0:0:0:0:
328,284,150944,1,0,0:0:0:0:
256,72,151178,5,0,0:0:0:0:
256,273,151412,1,0,0:0:0:0:
224,100,151647,5,0,0:0:0:0:
138,151,151764,1,0,0:0:0:0:
292,100,151998,5,0,0:0:0:0:
378,151,152115,1,0,0:0:0:0:
328,284,152584,5,0,0:0:0:0:
256,350,152702,1,0,0:0:0:0:
184,284,152819,1,0,0:0:0:0:
168,160,153053,5,0,0:0:0:0:
214,80,153287,1,0,0:0:0:0:
232,61,153346,1,0,0:0:0:0:
255,56,153404,1,0,0:0:0:0:
279,63,153463,1,0,0:0:0:0:
297,80,153521,1,0,0:0:0:0:
256,192,153756,6,0,B|352:204|348:124|348:124|256:48|256:48|164:128|164:128|164:256|164:256|256:336|256:336|348:256,1,749.999957084654
