osu file format v14

[General]
AudioFilename: audio.mp3
AudioLeadIn: 0
PreviewTime: 68810
Countdown: 0
SampleSet: Normal
StackLeniency: 0.7
Mode: 0
LetterboxInBreaks: 0
WidescreenStoryboard: 1

[Editor]
Bookmarks: 14383,55526,68812,96241,109955,122383,137383,144241,151098,178526,192241
DistanceSpacing: 1.2
BeatDivisor: 4
GridSize: 16
TimelineZoom: 1.5

[Metadata]
Title:18 (Dan Winter Edit)
TitleUnicode:18 (Dan Winter Edit)
Artist:Code Red
ArtistUnicode:Code Red
Creator:Nuvolina
Version:Normal
Source:
Tags:Anto russian hands up cover dance eighteen mne uzhe руки вверх восемнадцать мне уже русский
BeatmapID:1556409
BeatmapSetID:734864

[Difficulty]
HPDrainRate:4
CircleSize:3
OverallDifficulty:4
ApproachRate:5
SliderMultiplier:1.1
SliderTickRate:1

[Events]
//Background and Video events
0,0,"18.jpg",0,0
//Break Periods
2,96440,108754
2,137583,143469
//Storyboard Layer 0 (Background)
//Storyboard Layer 1 (Fail)
//Storyboard Layer 2 (Pass)
//Storyboard Layer 3 (Foreground)
//Storyboard Sound Samples

[TimingPoints]
241,428.571428571429,4,2,1,50,1,0
55526,-100,4,2,1,50,0,0
67312,-100,4,2,1,5,0,0
68812,-100,4,1,1,90,0,1
94526,-100,4,1,1,60,0,1
96241,-100,4,2,1,50,0,0
109955,-100,4,3,1,40,0,0
122383,-100,4,2,1,50,0,0
144669,-100,4,2,1,50,0,0
149812,-100,4,2,1,5,0,0
151098,-100,4,1,1,90,0,1
164811,-100,4,3,1,40,0,1
178526,-100,4,1,1,90,0,1
191812,-100,4,2,1,80,0,0

[Colours]
Combo1 : 173,78,31
Combo2 : 253,250,130
Combo3 : 135,139,186

[HitObjects]
56,152,14383,5,2,0:0:0:0:
56,152,14812,2,0,P|78:90|125:81,1,110,2|2,0:0|0:0,0:0:0:0:
224,155,15669,1,2,0:0:0:0:
324,68,16098,6,0,P|383:62|434:87,1,110,2|2,0:0|0:0,0:0:0:0:
454,211,16955,1,2,0:0:0:0:
383,322,17383,1,2,0:0:0:0:
253,346,17812,6,0,L|140:356,1,110,2|2,0:0|0:0,0:0:0:0:
11,364,18669,1,2,0:0:0:0:
49,237,19098,1,2,0:0:0:0:
173,192,19526,6,0,L|287:183,1,110,2|2,0:0|0:0,0:0:0:0:
414,180,20383,1,2,0:0:0:0:
489,71,20812,1,2,0:0:0:0:
358,47,21241,6,0,L|234:36,1,110,2|2,2:2|0:0,0:0:0:0:
147,122,22098,2,0,L|266:138,1,110,2|2,0:0|0:0,0:0:0:0:
386,156,22955,1,2,0:0:0:0:
478,249,23383,1,2,0:0:0:0:
383,341,23812,1,2,0:0:0:0:
286,251,24240,1,2,0:0:0:0:
174,321,24669,6,0,P|149:321|81:266,1,110,2|2,0:0|0:0,0:0:0:0:
48,145,25526,2,0,P|101:155|138:194,1,110,2|2,0:0|0:0,0:0:0:0:
138,194,27669,5,8,0:0:0:0:
138,194,28098,2,0,L|122:122,1,55
112,75,28526,2,0,L|188:61,1,55,8|0,0:0|0:0,0:0:0:0:
231,57,28955,1,0,0:0:0:0:
340,130,29383,1,8,0:0:0:0:
375,257,29812,6,0,L|437:257,1,55
426,323,30241,2,0,L|364:323,1,55,8|0,0:0|0:0,0:0:0:0:
305,324,30669,1,0,0:0:0:0:
190,258,31098,1,8,0:0:0:0:
72,198,31526,5,0,0:0:0:0:
72,198,31955,2,0,P|62:139|81:73,1,110,8|0,0:0|0:0,0:0:0:0:
192,43,32812,1,8,0:0:0:0:
323,57,33241,6,0,P|375:71|416:107,1,110,0|8,0:0|0:0,0:0:0:0:
469,228,34098,1,0,0:0:0:0:
340,259,34526,1,8,0:0:0:0:
231,184,34955,6,0,L|170:177,1,55
110,182,35384,2,0,L|65:221,1,55,8|0,0:0|0:0,0:0:0:0:
18,261,35813,1,0,0:0:0:0:
108,356,36241,1,8,0:0:0:0:
239,358,36669,6,0,L|255:289,1,55
267,240,37097,2,0,L|335:248,1,55,8|0,0:0|0:0,0:0:0:0:
387,256,37526,1,0,0:0:0:0:
439,134,37955,1,8,0:0:0:0:
350,36,38383,6,0,P|296:31|238:36,1,110,0|8,0:0|0:0,0:0:0:0:
110,61,39241,1,0,0:0:0:0:
30,166,39669,1,8,0:0:0:0:
110,270,40098,5,0,0:0:0:0:
220,341,40526,2,0,P|271:352|335:329,1,110,8|0,0:0|0:0,0:0:0:0:
269,215,41383,1,8,0:0:0:0:
401,210,41812,6,0,L|468:192,1,55
487,138,42241,2,0,L|486:70,1,55,8|0,0:0|0:0,0:0:0:0:
487,17,42669,1,0,0:0:0:0:
355,32,43098,1,8,0:0:0:0:
239,95,43526,6,0,L|175:95,1,55
117,99,43955,2,0,L|82:154,1,55,8|0,0:0|0:0,0:0:0:0:
52,201,44383,1,0,0:0:0:0:
108,320,44811,1,8,0:0:0:0:
214,240,45241,6,0,P|269:237|325:209,1,110,0|8,0:0|0:0,0:0:0:0:
419,130,46098,1,0,0:0:0:0:
324,37,46526,1,8,0:0:0:0:
191,40,46955,6,0,P|135:29|68:56,1,110,0|8,0:0|0:0,0:0:0:0:
147,175,47812,1,0,0:0:0:0:
273,138,48241,1,8,0:0:0:0:
397,180,48669,6,0,P|401:206|397:233,1,55
401,300,49098,2,8,P|373:304|341:296,1,55,8|0,0:0|0:0,0:0:0:0:
281,300,49526,1,0,0:0:0:0:
155,338,49954,1,8,0:0:0:0:
51,256,50383,6,0,L|40:195,1,55
29,136,50812,2,0,L|103:124,1,55,8|0,0:0|0:0,0:0:0:0:
149,120,51241,1,0,0:0:0:0:
256,43,51669,1,8,0:0:0:0:
379,91,52098,5,0,0:0:0:0:
379,91,52526,2,0,P|375:145|357:197,1,110,8|0,0:0|0:0,0:0:0:0:
286,309,53383,1,8,0:0:0:0:
156,333,53811,5,0,0:0:0:0:
156,333,54240,2,0,L|29:298,1,110,8|0,0:0|0:0,0:0:0:0:
21,174,55098,1,8,0:0:0:0:
108,75,55526,6,0,P|161:64|214:76,1,110,2|2,0:0|0:0,0:0:0:0:
168,200,56383,2,0,P|221:212|274:201,1,110,2|2,0:0|0:0,0:0:0:0:
361,101,57241,6,0,L|424:120,1,55,2|2,0:0|0:0,0:0:0:0:
464,158,57669,2,0,L|457:228,1,55,2|0,0:0|0:0,0:0:0:0:
462,278,58098,2,0,L|404:295,1,55,2|0,0:0|0:0,0:0:0:0:
345,310,58526,1,2,0:0:0:0:
215,336,58955,6,0,P|162:343|97:334,1,110,2|2,0:0|0:0,0:0:0:0:
29,228,59812,2,0,P|81:221|146:230,1,110,2|2,0:0|0:0,0:0:0:0:
266,198,60669,6,0,P|294:182|316:153,1,55,2|0,0:0|0:0,0:0:0:0:
356,118,61098,2,0,P|339:96|315:84,1,55,2|0,0:0|0:0,0:0:0:0:
256,49,61526,2,0,P|230:59|209:77,1,55,2|0,0:0|0:0,0:0:0:0:
160,121,61955,1,2,0:0:0:0:
87,230,62383,6,0,L|205:260,1,110,2|2,0:0|0:0,0:0:0:0:
320,294,63240,1,2,0:0:0:0:
336,162,63669,1,2,0:0:0:0:
452,99,64098,6,0,L|488:156,1,55,2|0,0:0|0:0,0:0:0:0:
488,210,64526,2,0,L|476:277,1,55,2|0,0:0|0:0,0:0:0:0:
446,321,64955,2,0,L|392:333,1,55,2|0,0:0|0:0,0:0:0:0:
327,347,65383,1,2,0:0:0:0:
256,192,65812,12,0,67526,0:0:0:0:
243,86,68812,5,8,0:0:0:0:
243,86,69241,2,0,L|182:90,1,55,8|0,0:0|0:0,0:0:0:0:
122,86,69669,2,8,L|127:160,1,55,8|0,0:0|0:0,0:0:0:0:
132,206,70098,1,8,0:0:0:0:
189,324,70526,1,8,0:0:0:0:
320,322,70954,6,0,L|400:312,1,55,8|0,0:0|0:0,0:0:0:0:
440,308,71383,2,0,L|466:242,1,55,8|0,0:0|0:0,0:0:0:0:
480,193,71812,1,8,0:0:0:0:
385,100,72240,1,8,0:0:0:0:
263,49,72669,6,0,L|196:37,1,55,8|0,0:0|0:0,0:0:0:0:
142,40,73098,2,0,L|76:53,1,55,8|0,0:0|0:0,0:0:0:0:
24,67,73526,2,0,L|24:133,1,55,8|0,0:0|0:0,0:0:0:0:
23,188,73955,1,8,0:0:0:0:
100,294,74383,6,0,L|165:310,1,55,8|0,0:0|0:0,0:0:0:0:
219,310,74812,2,0,L|275:294,1,55,8|0,0:0|0:0,0:0:0:0:
337,294,75240,2,0,L|337:238,1,55,8|0,0:0|0:0,0:0:0:0:
337,172,75669,1,8,0:0:0:0:
437,86,76098,6,0,L|393:51,1,55,8|0,0:0|0:0,0:0:0:0:
331,29,76526,2,8,L|270:28,1,55,8|0,0:0|0:0,0:0:0:0:
209,27,76955,1,8,0:0:0:0:
88,80,77383,1,8,0:0:0:0:
93,212,77812,6,0,L|38:212,1,55,8|0,0:0|0:0,0:0:0:0:
31,277,78240,2,0,L|86:277,1,55,8|0,0:0|0:0,0:0:0:0:
152,281,78669,1,8,0:0:0:0:
280,250,79098,1,8,0:0:0:0:
408,279,79526,6,0,P|415:247|437:216,1,55,8|0,0:0|0:0,0:0:0:0:
493,221,79955,2,0,P|497:189|488:152,1,55,8|0,0:0|0:0,0:0:0:0:
495,100,80383,2,0,P|464:97|440:100,1,55,8|0,0:0|0:0,0:0:0:0:
374,102,80812,1,8,0:0:0:0:
254,46,81241,6,0,P|226:42|198:46,1,55,8|0,0:0|0:0,0:0:0:0:
137,66,81669,2,0,P|133:94|137:122,1,55,8|0,0:0|0:0,0:0:0:0:
188,161,82098,2,0,P|191:188|188:215,1,55,8|0,0:0|0:0,0:0:0:0:
133,252,82526,1,8,0:0:0:0:
217,353,82955,6,0,L|272:353,1,55,8|0,0:0|0:0,0:0:0:0:
338,351,83384,2,0,L|338:283,1,55,8|0,0:0|0:0,0:0:0:0:
338,229,83813,1,8,0:0:0:0:
447,155,84241,1,8,0:0:0:0:
343,74,84669,6,0,L|262:82,1,55,8|0,0:0|0:0,0:0:0:0:
225,59,85098,2,0,L|167:45,1,55,8|0,0:0|0:0,0:0:0:0:
105,52,85526,1,8,0:0:0:0:
42,167,85954,1,8,0:0:0:0:
102,284,86383,6,0,P|128:289|170:280,1,55,8|0,0:0|0:0,0:0:0:0:
221,294,86812,2,0,L|220:240,1,55,8|0,0:0|0:0,0:0:0:0:
286,235,87241,2,0,P|315:228|341:235,1,55,8|0,0:0|0:0,0:0:0:0:
394,269,87669,1,8,0:0:0:0:
470,161,88098,6,0,P|472:131|464:94,1,55,8|0,0:0|0:0,0:0:0:0:
444,44,88527,2,0,L|377:46,1,55,8|0,0:0|0:0,0:0:0:0:
323,38,88956,2,0,L|260:45,1,55,8|0,0:0|0:0,0:0:0:0:
203,55,89384,1,8,0:0:0:0:
87,118,89812,6,0,L|72:185,1,55,8|0,0:0|0:0,0:0:0:0:
50,233,90241,2,0,L|122:241,1,55,8|0,0:0|0:0,0:0:0:0:
170,246,90669,1,8,0:0:0:0:
264,338,91098,1,8,0:0:0:0:
395,338,91526,6,0,L|451:289,1,55,8|0,0:0|0:0,0:0:0:0:
496,273,91955,2,0,P|478:246|449:229,1,55,8|0,0:0|0:0,0:0:0:0:
404,197,92383,1,8,0:0:0:0:
458,76,92812,1,8,0:0:0:0:
334,29,93241,5,8,0:0:0:0:
212,79,93669,2,0,P|219:113|212:143,2,55,8|0|8,0:0|0:0|0:0,0:0:0:0:
89,29,94526,1,8,0:0:0:0:
90,161,94955,6,0,P|69:178|55:202,2,55,8|0|8,0:0|0:0|1:0,0:0:0:0:
193,243,95812,2,0,P|181:264|157:285,2,55,8|0|8,0:0|0:0|1:0,0:0:0:0:
160,217,109954,5,8,0:0:0:0:
160,217,110383,2,0,P|138:162|169:106,1,110,8|8,0:0|0:0,0:0:0:0:
267,45,111241,1,8,0:0:0:0:
393,81,111669,1,8,0:0:0:0:
363,209,112098,6,0,P|382:267|361:323,1,110,8|8,0:0|0:0,0:0:0:0:
238,333,112955,1,8,0:0:0:0:
120,273,113383,1,8,0:0:0:0:
58,155,113812,6,0,P|48:101|87:56,1,110,8|8,0:0|0:0,0:0:0:0:
208,27,114669,1,8,0:0:0:0:
289,130,115098,1,8,0:0:0:0:
396,53,115526,6,0,P|420:107|408:166,1,110,8|8,0:0|0:0,0:0:0:0:
374,282,116383,1,8,0:0:0:0:
253,335,116812,1,8,0:0:0:0:
144,259,117241,5,8,0:0:0:0:
144,259,117669,2,0,L|22:214,1,110,8|8,0:0|0:0,0:0:0:0:
66,91,118526,1,8,0:0:0:0:
190,133,118954,6,0,P|219:81|271:54,1,110,8|8,0:0|0:0,0:0:0:0:
390,86,119812,2,0,P|360:137|308:164,1,110,8|8,0:0|0:0,0:0:0:0:
202,226,120669,5,8,0:0:0:0:
202,226,121098,2,0,L|322:279,1,110,8|8,0:0|0:0,0:0:0:0:
421,328,121955,1,8,0:0:0:0:
449,199,122383,6,0,L|498:141,2,55,2|2|2,0:0|0:0|0:0,0:0:0:0:
365,96,123241,2,0,L|411:41,2,55,2|2|2,0:0|0:0|0:0,0:0:0:0:
251,163,124098,6,0,L|198:147,1,55
136,123,124527,2,0,L|103:174,1,55,8|0,0:0|0:0,0:0:0:0:
73,226,124955,1,0,0:0:0:0:
73,226,125383,1,8,0:0:0:0:
154,330,125812,6,0,L|218:336,1,55
273,349,126241,2,0,P|273:314|283:286,1,55,8|0,0:0|0:0,0:0:0:0:
262,231,126669,2,0,P|293:228|329:247,1,55
379,248,127098,1,8,0:0:0:0:
470,153,127526,6,0,P|476:121|465:88,1,55
481,34,127954,2,0,P|450:31|408:47,1,55,8|0,0:0|0:0,0:0:0:0:
362,52,128383,1,0,0:0:0:0:
362,52,128812,1,8,0:0:0:0:
230,67,129241,6,0,P|178:50|126:66,1,110,0|8,0:0|0:0,0:0:0:0:
32,159,130098,1,0,0:0:0:0:
73,284,130526,1,8,0:0:0:0:
194,334,130955,6,0,L|250:336,1,55
264,271,131384,2,0,L|208:235,1,55,8|0,0:0|0:0,0:0:0:0:
163,204,131812,1,0,0:0:0:0:
252,106,132241,1,8,0:0:0:0:
369,45,132669,6,0,L|424:45,1,55
487,26,133098,2,0,P|492:58|478:94,1,55,8|0,0:0|0:0,0:0:0:0:
472,143,133526,2,0,L|417:143,1,55
350,144,133955,1,8,0:0:0:0:
371,274,134383,5,0,0:0:0:0:
371,274,134812,2,0,L|258:285,1,110,8|0,0:0|0:0,0:0:0:0:
131,310,135669,1,8,0:0:0:0:
44,210,136098,6,0,P|28:158|45:106,1,110,0|8,0:0|0:0,0:0:0:0:
163,47,136955,1,0,0:0:0:0:
279,108,137383,1,8,0:0:0:0:
477,40,144669,6,0,B|411:133,1,110,10|10,0:0|0:0,0:0:0:0:
333,234,145526,1,10,0:0:0:0:
413,339,145955,1,10,0:0:0:0:
281,347,146383,6,0,B|160:333,1,110,10|10,0:0|0:0,0:0:0:0:
41,314,147240,1,10,0:0:0:0:
36,181,147669,1,10,0:0:0:0:
256,192,148097,12,0,149812,0:0:0:0:
58,330,151098,5,8,0:0:0:0:
58,330,151526,2,0,P|25:301|14:257,1,73.3333333333333,8|0,0:0|0:0,0:0:0:0:
15,222,151955,2,0,P|9:176|25:141,1,73.3333333333333,8|0,0:0|0:0,0:0:0:0:
42,114,152383,1,8,0:0:0:0:
159,54,152812,1,8,0:0:0:0:
239,158,153241,6,0,P|274:148|319:165,1,73.3333333333333,8|0,0:0|0:0,0:0:0:0:
352,165,153669,2,0,P|365:198|360:234,1,73.3333333333333,8|0,0:0|0:0,0:0:0:0:
335,270,154097,1,8,0:0:0:0:
226,345,154526,1,8,0:0:0:0:
99,305,154955,6,0,P|61:299|20:271,1,73.3333333333333,8|0,0:0|0:0,0:0:0:0:
13,241,155383,2,0,B|65:178,1,73.3333333333333,8|0,0:0|0:0,0:0:0:0:
91,154,155811,1,8,0:0:0:0:
178,54,156241,1,8,0:0:0:0:
302,98,156669,6,0,P|340:88|381:101,1,73.3333333333333,8|0,0:0|0:0,0:0:0:0:
414,108,157098,2,0,P|422:146|414:181,1,73.3333333333333,8|0,0:0|0:0,0:0:0:0:
383,210,157526,1,8,0:0:0:0:
300,313,157955,1,8,0:0:0:0:
169,331,158383,6,0,L|169:257,1,73.3333333333333,8|0,0:0|0:0,0:0:0:0:
149,217,158812,2,0,L|70:196,1,73.3333333333333,8|0,0:0|0:0,0:0:0:0:
36,182,159241,1,8,0:0:0:0:
37,50,159669,1,8,0:0:0:0:
165,80,160098,6,0,B|238:80,1,73.3333333333333,8|0,0:0|0:0,0:0:0:0:
280,94,160526,2,0,P|273:138|281:168,1,73.3333333333333,8|0,0:0|0:0,0:0:0:0:
321,179,160954,1,8,0:0:0:0:
443,130,161383,1,8,0:0:0:0:
482,256,161812,6,0,P|488:305|481:332,1,73.3333333333333,8|0,0:0|0:0,0:0:0:0:
441,344,162241,1,8,0:0:0:0:
317,296,162669,2,0,P|278:285|244:296,1,73.3333333333333,8|0,0:0|0:0,0:0:0:0:
208,315,163098,1,8,0:0:0:0:
99,240,163526,6,0,P|64:193|63:128,2,110,8|8|8,0:0|0:0|0:0,0:0:0:0:
196,151,164811,5,8,0:0:0:0:
325,124,165241,2,0,P|361:117|403:124,1,73.3333333333333,8|0,0:0|0:0,0:0:0:0:
440,129,165669,2,0,P|456:171|443:206,1,73.3333333333333,8|0,0:0|0:0,0:0:0:0:
423,233,166098,2,0,P|387:240|345:233,1,73.3333333333333,8|0,0:0|0:0,0:0:0:0:
307,229,166526,1,8,0:0:0:0:
175,221,166955,6,0,P|168:258|133:313,1,73.3333333333333,8|0,0:0|0:0,0:0:0:0:
115,313,167383,2,0,P|82:323|22:308,1,73.3333333333333,8|0,0:0|0:0,0:0:0:0:
21,280,167812,2,0,P|10:240|16:192,1,73.3333333333333,8|0,0:0|0:0,0:0:0:0:
26,166,168241,1,8,0:0:0:0:
150,122,168669,6,0,L|195:52,1,73.3333333333333,8|0,0:0|0:0,0:0:0:0:
229,41,169098,2,0,P|267:31|302:41,1,73.3333333333333,8|0,0:0|0:0,0:0:0:0:
337,60,169526,2,0,L|376:121,1,73.3333333333333,8|0,0:0|0:0,0:0:0:0:
404,156,169955,1,8,0:0:0:0:
435,284,170383,6,0,P|395:278|348:287,1,73.3333333333333,8|0,0:0|0:0,0:0:0:0:
354,325,170812,2,0,P|316:331|279:323,1,73.3333333333333,8|0,0:0|0:0,0:0:0:0:
270,281,171240,2,0,P|230:274|181:282,1,73.3333333333333,8|0,0:0|0:0,0:0:0:0:
153,280,171669,1,8,0:0:0:0:
38,213,172098,6,0,L|44:140,1,73.3333333333333,8|0,0:0|0:0,0:0:0:0:
48,96,172526,2,0,L|120:86,1,73.3333333333333,8|0,0:0|0:0,0:0:0:0:
164,77,172955,2,0,L|227:113,1,73.3333333333333,8|0,0:0|0:0,0:0:0:0:
264,137,173383,1,8,0:0:0:0:
393,163,173812,6,0,L|389:236,1,73.3333333333333,8|0,0:0|0:0,0:0:0:0:
377,279,174241,2,0,P|335:287|299:279,1,73.3333333333333,8|0,0:0|0:0,0:0:0:0:
275,249,174669,2,0,P|233:241|197:249,1,73.3333333333333,8|0,0:0|0:0,0:0:0:0:
167,272,175098,1,8,0:0:0:0:
36,260,175526,6,0,P|29:220|37:175,1,73.3333333333333,8|0,0:0|0:0,0:0:0:0:
33,143,175955,2,0,P|78:139|112:149,1,73.3333333333333,8|0,0:0|0:0,0:0:0:0:
147,156,176383,2,0,P|154:116|146:71,1,73.3333333333333,8|0,0:0|0:0,0:0:0:0:
147,39,176812,1,8,0:0:0:0:
277,60,177241,6,0,P|334:32|404:32,2,110
252,189,178526,5,8,0:0:0:0:
167,290,178954,2,0,L|106:281,1,55,8|0,0:0|0:0,0:0:0:0:
47,271,179383,2,0,L|32:204,1,55,8|0,0:0|0:0,0:0:0:0:
44,151,179812,2,0,L|121:134,1,55,8|0,0:0|0:0,0:0:0:0:
162,125,180241,1,8,0:0:0:0:
289,91,180669,6,0,L|366:100,1,55,8|0,0:0|0:0,0:0:0:0:
408,111,181098,2,0,P|418:147|400:176,1,55,8|0,0:0|0:0,0:0:0:0:
349,180,181526,2,0,P|339:216|357:245,1,55,8|0,0:0|0:0,0:0:0:0:
398,269,181955,1,8,0:0:0:0:
287,340,182383,6,0,L|219:338,1,55,8|0,0:0|0:0,0:0:0:0:
182,293,182812,2,0,P|154:287|122:293,1,55,8|0,0:0|0:0,0:0:0:0:
69,322,183241,2,0,P|53:298|56:259,1,55,8|0,0:0|0:0,0:0:0:0:
52,206,183669,1,8,0:0:0:0:
88,78,184098,6,0,L|153:89,1,55,8|0,0:0|0:0,0:0:0:0:
198,52,184527,2,0,L|265:48,1,55,8|0,0:0|0:0,0:0:0:0:
319,49,184956,2,0,P|326:85|313:120,1,55,8|0,0:0|0:0,0:0:0:0:
295,162,185384,1,8,0:0:0:0:
392,250,185812,6,0,P|420:243|452:252,1,55,8|0,0:0|0:0,0:0:0:0:
510,258,186240,2,0,P|516:290|509:312,1,55,8|0,0:0|0:0,0:0:0:0:
460,355,186669,2,0,P|432:362|400:353,1,55,8|0,0:0|0:0,0:0:0:0:
342,339,187098,1,8,0:0:0:0:
210,347,187526,6,0,L|132:336,1,55,8|0,0:0|0:0,0:0:0:0:
91,325,187955,2,0,P|92:291|110:255,1,55,8|0,0:0|0:0,0:0:0:0:
101,205,188383,2,0,B|173:212,1,55,8|0,0:0|0:0,0:0:0:0:
221,219,188812,1,8,0:0:0:0:
282,102,189241,5,8,0:0:0:0:
400,160,189669,2,0,P|427:155|456:161,2,55,8|0|8,0:0|0:0|0:0,0:0:0:0:
392,293,190526,1,8,0:0:0:0:
260,278,190954,6,0,L|246:335,2,55,8|0|8,0:0|0:0|0:0,0:0:0:0:
288,148,191812,1,2,0:0:0:0:
