osu file format v14

[General]
AudioFilename: audio.mp3
AudioLeadIn: 0
PreviewTime: 68810
Countdown: 0
SampleSet: Normal
StackLeniency: 0.2
Mode: 0
LetterboxInBreaks: 0
WidescreenStoryboard: 1

[Editor]
Bookmarks: 14383,17812,27669,55526,68812,96241,109955,122383,137812,171241,178526
DistanceSpacing: 2
BeatDivisor: 4
GridSize: 4
TimelineZoom: 1.6

[Metadata]
Title:18 (Dan Winter Edit)
TitleUnicode:18 (Dan Winter Edit)
Artist:Code Red
ArtistUnicode:Code Red
Creator:Nuvolina
Version:Light Insane
Source:
Tags:Anto russian hands up cover dance eighteen mne uzhe руки вверх восемнадцать мне уже русский
BeatmapID:1569743
BeatmapSetID:734864

[Difficulty]
HPDrainRate:6
CircleSize:4
OverallDifficulty:7
ApproachRate:8
SliderMultiplier:1.5
SliderTickRate:1

[Events]
//Background and Video events
0,0,"18.jpg",0,0
//Break Periods
2,96440,109205
//Storyboard Layer 0 (Background)
//Storyboard Layer 1 (Fail)
//Storyboard Layer 2 (Pass)
//Storyboard Layer 3 (Foreground)
//Storyboard Sound Samples

[TimingPoints]
241,428.571428571429,4,2,1,50,1,0
14383,-133.333333333333,4,2,1,50,0,0
27669,-100,4,2,1,50,0,0
55526,-133.333333333333,4,2,1,50,0,0
68598,-133.333333333333,4,2,1,5,0,0
68812,-66.6666666666667,4,1,1,90,0,1
94526,-66.6666666666667,4,1,1,60,0,1
96241,-100,4,2,1,50,0,0
109955,-100,4,3,1,40,0,0
122383,-100,4,2,1,50,0,0
124098,-76.9230769230769,4,2,1,50,0,0
137811,-100,4,3,1,40,0,0
144669,-100,4,2,1,50,0,0
151098,-100,4,1,1,90,0,1
164811,-100,4,3,1,40,0,1
178526,-66.6666666666667,4,1,1,90,0,1
191812,-100,4,2,1,80,0,0

[Colours]
Combo1 : 173,78,31
Combo2 : 253,250,130
Combo3 : 135,139,186

[HitObjects]
148,128,14383,5,2,0:0:0:0:
164,272,14598,1,0,0:0:0:0:
308,256,14812,1,2,0:0:0:0:
192,192,15025,1,0,0:0:0:0:
116,328,15241,1,2,0:0:0:0:
236,264,15455,1,0,0:0:0:0:
148,128,15668,1,2,0:0:0:0:
388,292,16098,6,0,P|376:320|348:348,1,56.2500021457673,2|0,0:0|0:0,0:0:0:0:
288,252,16526,2,0,P|270:230|259:204,1,56.2500021457673,2|0,0:0|0:0,0:0:0:0:
368,176,16955,2,0,P|385:154|409:137,1,56.2500021457673,2|0,0:0|0:0,0:0:0:0:
323,64,17383,1,2,0:0:0:0:
109,135,17812,5,2,0:0:0:0:
203,264,18026,1,0,0:0:0:0:
203,104,18241,1,2,0:0:0:0:
109,233,18455,1,0,0:0:0:0:
260,184,18669,2,0,P|287:188|315:184,1,56.2500021457673,2|0,0:0|0:0,0:0:0:0:
428,184,19098,1,2,0:0:0:0:
279,352,19526,6,0,L|211:352,1,56.2500021457673,2|0,0:0|0:0,0:0:0:0:
110,336,19955,1,2,0:0:0:0:
110,336,20169,1,0,0:0:0:0:
174,244,20383,2,0,L|174:164,1,56.2500021457673,2|0,0:0|0:0,0:0:0:0:
61,189,20812,1,2,0:0:0:0:
202,66,21241,5,2,0:0:0:0:
276,239,21455,1,0,0:0:0:0:
296,122,21669,2,0,L|358:96,1,56.2500021457673,2|0,0:0|0:0,0:0:0:0:
178,172,22098,2,0,L|123:196,1,56.2500021457673,2|0,0:0|0:0,0:0:0:0:
202,66,22526,1,2,0:0:0:0:
355,105,22955,6,0,P|386:99|414:106,1,56.2500021457673,2|0,0:0|0:0,0:0:0:0:
377,211,23383,1,2,0:0:0:0:
377,211,23598,1,0,0:0:0:0:
409,318,23812,2,0,P|382:324|355:318,1,56.2500021457673,2|0,0:0|0:0,0:0:0:0:
377,211,24241,1,2,0:0:0:0:
377,211,24456,1,0,0:0:0:0:
409,104,24669,2,0,P|382:98|355:105,1,56.2500021457673,2|0,0:0|0:0,0:0:0:0:
244,204,25097,5,2,0:0:0:0:
244,220,25204,1,0,0:0:0:0:
244,236,25311,1,0,0:0:0:0:
244,252,25418,1,0,0:0:0:0:
244,268,25525,1,2,0:0:0:0:
244,284,25633,1,0,0:0:0:0:
244,300,25740,1,0,0:0:0:0:
244,316,25847,1,0,0:0:0:0:
244,332,25954,1,2,0:0:0:0:
8,32,27669,5,8,0:0:0:0:
242,85,28098,6,0,P|266:61|286:21,1,75
383,141,28526,2,0,P|359:117|343:77,1,75,8|0,0:0|0:0,0:0:0:0:
240,212,28955,2,0,P|264:188|284:148,1,75
384,270,29383,2,0,P|360:246|340:206,1,75,8|0,0:0|0:0,0:0:0:0:
240,212,29812,5,0,0:0:0:0:
116,136,30027,1,0,0:0:0:0:
58,270,30241,1,8,0:0:0:0:
170,197,30454,1,0,0:0:0:0:
86,66,30670,1,0,0:0:0:0:
85,202,30884,1,0,0:0:0:0:
244,193,31097,1,8,0:0:0:0:
400,307,31526,6,0,L|472:343,1,75
447,221,31955,2,0,L|379:189,1,75,8|0,0:0|0:0,0:0:0:0:
433,82,32383,2,0,L|500:113,1,75
501,113,32811,1,8,0:0:0:0:
269,47,33240,6,0,L|181:47,1,75
253,151,33669,1,8,0:0:0:0:
192,254,33883,1,0,0:0:0:0:
79,296,34098,2,0,L|79:212,1,75
192,254,34526,1,8,0:0:0:0:
417,335,34954,6,0,P|453:342|490:337,1,75
452,223,35383,2,0,L|377:223,1,75,8|0,0:0|0:0,0:0:0:0:
344,107,35812,2,0,P|306:100|270:104,1,75
272,223,36240,2,0,L|272:298,1,75,8|0,0:0|0:0,0:0:0:0:
158,338,36669,5,0,0:0:0:0:
164,194,36884,1,0,0:0:0:0:
20,186,37098,1,8,0:0:0:0:
124,267,37311,1,0,0:0:0:0:
220,151,37527,1,0,0:0:0:0:
92,189,37741,1,0,0:0:0:0:
158,338,37954,1,8,0:0:0:0:
122,100,38383,6,0,L|197:100,1,75
292,27,38812,2,0,L|217:27,1,75,8|0,0:0|0:0,0:0:0:0:
309,103,39240,2,0,L|384:103,1,75
350,218,39668,1,8,0:0:0:0:
114,248,40097,5,0,0:0:0:0:
114,248,40311,1,0,0:0:0:0:
194,337,40526,2,0,P|230:344|266:335,1,75,8|0,0:0|0:0,0:0:0:0:
186,251,40955,2,0,P|148:241|112:248,1,75
33,158,41383,1,8,0:0:0:0:
239,35,41812,5,0,0:0:0:0:
241,155,42026,1,0,0:0:0:0:
346,97,42241,1,8,0:0:0:0:
239,35,42454,1,0,0:0:0:0:
346,97,42669,2,0,L|426:97,1,75
385,211,43097,1,8,0:0:0:0:
165,309,43526,6,0,P|143:278|137:241,1,75
257,229,43955,2,0,P|252:195|225:161,1,75,8|0,0:0|0:0,0:0:0:0:
212,44,44383,1,0,0:0:0:0:
212,44,44597,1,0,0:0:0:0:
319,99,44812,2,0,L|394:99,1,75,8|0,0:0|0:0,0:0:0:0:
330,201,45241,6,0,P|336:237|358:267,1,75
276,355,45669,1,8,0:0:0:0:
166,307,45883,1,0,0:0:0:0:
62,246,46097,2,0,P|68:206|82:170,1,75
178,141,46526,2,0,P|172:181|158:217,1,75,8|0,0:0|0:0,0:0:0:0:
279,172,46955,5,0,0:0:0:0:
246,56,47169,1,0,0:0:0:0:
362,26,47383,1,8,0:0:0:0:
400,140,47598,1,0,0:0:0:0:
366,255,47812,2,0,L|434:285,1,75
434,285,48240,1,8,0:0:0:0:
199,338,48669,6,0,P|165:346|125:338,1,75
63,235,49098,2,0,P|97:227|138:240,1,75,8|0,0:0|0:0,0:0:0:0:
251,266,49526,2,0,P|257:231|246:187,1,75
369,194,49955,2,0,P|361:229|380:283,1,75,8|0,0:0|0:0,0:0:0:0:
457,184,50383,5,0,0:0:0:0:
458,63,50598,1,0,0:0:0:0:
339,46,50812,2,0,P|298:39|249:51,1,75,8|0,0:0|0:0,0:0:0:0:
168,125,51241,2,0,P|204:130|241:123,1,75
158,42,51669,2,0,P|117:35|68:47,1,75,8|0,0:0|0:0,0:0:0:0:
26,145,52097,6,0,P|19:194|25:234,1,75
85,321,52526,1,8,0:0:0:0:
149,219,52740,1,0,0:0:0:0:
127,337,52954,1,0,0:0:0:0:
193,236,53169,1,0,0:0:0:0:
244,345,53383,1,8,0:0:0:0:
456,234,53811,5,0,0:0:0:0:
456,234,54026,1,0,0:0:0:0:
413,104,54240,1,8,0:0:0:0:
314,194,54454,1,0,0:0:0:0:
413,104,54669,1,0,0:0:0:0:
287,59,54883,1,0,0:0:0:0:
314,194,55097,1,8,0:0:0:0:
314,194,55526,6,0,L|255:228,1,56.2500021457673,2|0,0:0|0:0,0:0:0:0:
209,293,55955,1,2,0:0:0:0:
188,206,56169,1,0,0:0:0:0:
109,171,56383,1,2,0:0:0:0:
122,260,56598,1,0,0:0:0:0:
122,260,56812,1,2,0:0:0:0:
314,194,57241,6,0,L|371:194,1,56.2500021457673,2|0,0:0|0:0,0:0:0:0:
460,193,57669,1,2,0:0:0:0:
460,193,57883,1,0,0:0:0:0:
437,105,58098,2,0,L|380:105,1,56.2500021457673,2|0,0:0|0:0,0:0:0:0:
290,106,58526,1,2,0:0:0:0:
111,128,58955,6,0,L|59:175,1,56.2500021457673,2|0,0:0|0:0,0:0:0:0:
8,218,59383,1,2,0:0:0:0:
34,93,59598,1,0,0:0:0:0:
135,214,59812,1,2,0:0:0:0:
34,93,60026,1,0,0:0:0:0:
135,214,60241,1,2,0:0:0:0:
327,268,60669,6,0,L|379:221,1,56.2500021457673,2|0,0:0|0:0,0:0:0:0:
426,177,61097,1,2,0:0:0:0:
406,302,61311,1,0,0:0:0:0:
304,181,61526,1,2,0:0:0:0:
406,302,61740,1,0,0:0:0:0:
304,181,61955,1,2,0:0:0:0:
124,184,62383,6,0,L|106:113,1,56.2500021457673,2|0,0:0|0:0,0:0:0:0:
159,44,62812,2,0,L|222:59,1,56.2500021457673,2|0,0:0|0:0,0:0:0:0:
265,130,63241,1,2,0:0:0:0:
354,130,63455,1,0,0:0:0:0:
265,130,63669,1,2,0:0:0:0:
366,279,64098,6,0,P|289:279|289:279,1,56.2500021457673,2|0,0:0|0:0,0:0:0:0:
309,279,64526,1,2,0:0:0:0:
254,352,64740,1,0,0:0:0:0:
256,204,64955,1,2,0:0:0:0:
160,321,65169,1,0,0:0:0:0:
160,223,65383,1,2,0:0:0:0:
309,279,65812,6,0,L|379:279,2,56.2500021457673,2|0|2,0:0|0:0|0:0,0:0:0:0:
333,192,66455,1,0,0:0:0:0:
407,107,66669,1,2,0:0:0:0:
333,192,66883,1,0,0:0:0:0:
220,196,67098,5,2,0:0:0:0:
202,209,67205,1,0,0:0:0:0:
184,221,67312,1,0,0:0:0:0:
165,232,67419,1,0,0:0:0:0:
145,241,67526,1,2,0:0:0:0:
124,247,67633,1,0,0:0:0:0:
103,251,67740,1,0,0:0:0:0:
81,251,67847,1,0,0:0:0:0:
60,248,67955,2,0,L|-6:198,1,56.2500021457673,2|0,0:0|0:0,0:0:0:0:
54,128,68383,6,0,P|41:74|54:30,1,84.3750032186509
2,25,68812,6,0,P|60:15|116:26,1,112.500004291535,8|0,0:0|0:0,0:0:0:0:
247,35,69241,1,8,0:0:0:0:
310,154,69455,1,0,0:0:0:0:
175,167,69669,2,0,P|165:224|182:280,1,112.500004291535,8|0,0:0|0:0,0:0:0:0:
306,263,70098,2,0,P|318:197|305:141,1,112.500004291535,8|0,0:0|0:0,0:0:0:0:
310,154,70526,1,8,0:0:0:0:
50,332,70954,6,0,L|164:354,1,112.500004291535,8|0,0:0|0:0,0:0:0:0:
119,236,71383,2,0,L|232:222,1,112.500004291535,8|0,0:0|0:0,0:0:0:0:
167,115,71811,2,0,L|255:43,1,112.500004291535,8|0,0:0|0:0,0:0:0:0:
345,127,72240,1,8,0:0:0:0:
208,333,72669,6,0,P|265:345|321:333,1,112.500004291535,8|0,0:0|0:0,0:0:0:0:
452,333,73098,1,8,0:0:0:0:
365,229,73312,1,0,0:0:0:0:
503,137,73526,2,0,P|445:148|390:135,1,112.500004291535,8|0,0:0|0:0,0:0:0:0:
447,26,73955,1,8,0:0:0:0:
447,26,74383,6,0,P|389:15|334:28,1,112.500004291535,8|0,0:0|0:0,0:0:0:0:
262,125,74812,2,0,L|147:109,1,112.500004291535,8|0,0:0|0:0,0:0:0:0:
59,212,75241,2,0,P|117:223|172:210,1,112.500004291535,8|0,0:0|0:0,0:0:0:0:
286,247,75669,1,8,0:0:0:0:
474,354,76098,6,0,P|485:296|472:241,1,112.500004291535,8|0,0:0|0:0,0:0:0:0:
375,319,76526,2,0,P|364:261|377:206,1,112.500004291535,8|0,0:0|0:0,0:0:0:0:
476,142,76954,1,8,0:0:0:0:
379,69,77169,1,0,0:0:0:0:
275,137,77383,1,8,0:0:0:0:
48,236,77812,6,0,P|53:294|81:344,1,112.500004291535,8|0,0:0|0:0,0:0:0:0:
174,261,78241,2,0,P|168:202|140:152,1,112.500004291535,8|0,0:0|0:0,0:0:0:0:
33,75,78668,1,8,0:0:0:0:
163,39,78883,1,0,0:0:0:0:
33,75,79098,1,8,0:0:0:0:
301,46,79526,6,0,P|359:33|417:61,1,112.500004291535,8|0,0:0|0:0,0:0:0:0:
347,168,79955,1,8,0:0:0:0:
347,168,80169,1,0,0:0:0:0:
396,293,80383,2,0,P|342:303|288:285,1,112.500004291535,8|0,0:0|0:0,0:0:0:0:
152,286,80812,1,8,0:0:0:0:
170,16,81241,5,8,0:0:0:0:
38,84,81455,1,0,0:0:0:0:
178,192,81669,1,8,0:0:0:0:
106,52,81883,1,0,0:0:0:0:
249,75,82098,1,8,0:0:0:0:
119,135,82312,1,0,0:0:0:0:
119,135,82526,1,8,0:0:0:0:
318,315,82954,6,0,P|373:323|449:307,1,112.500004291535,8|0,0:0|0:0,0:0:0:0:
354,201,83383,2,0,P|299:193|223:209,1,112.500004291535,8|0,0:0|0:0,0:0:0:0:
151,101,83812,2,0,L|151:217,1,112.500004291535,8|0,0:0|0:0,0:0:0:0:
207,344,84240,1,8,0:0:0:0:
237,96,84669,6,0,P|274:54|325:31,1,112.500004291535,8|0,0:0|0:0,0:0:0:0:
440,76,85098,2,0,P|402:117|351:140,1,112.500004291535,8|0,0:0|0:0,0:0:0:0:
279,240,85526,2,0,L|279:352,1,112.500004291535,8|0,0:0|0:0,0:0:0:0:
279,352,85954,1,8,0:0:0:0:
86,325,86383,5,8,0:0:0:0:
91,146,86598,1,0,0:0:0:0:
34,227,86812,2,0,P|92:239|148:227,1,112.500004291535,8|0,0:0|0:0,0:0:0:0:
144,65,87241,2,0,P|88:54|32:65,1,112.500004291535,8|0,0:0|0:0,0:0:0:0:
231,213,87669,2,0,P|240:154|231:99,1,112.500004291535,8|0,0:0|0:0,0:0:0:0:
454,201,88098,5,8,0:0:0:0:
360,72,88312,1,0,0:0:0:0:
360,232,88527,1,8,0:0:0:0:
454,103,88741,1,0,0:0:0:0:
303,152,88955,2,0,L|183:153,1,112.500004291535,8|0,0:0|0:0,0:0:0:0:
360,232,89384,1,8,0:0:0:0:
123,360,89811,5,8,0:0:0:0:
29,261,90026,1,0,0:0:0:0:
153,259,90241,2,0,P|207:244|251:210,2,112.500004291535,8|0|8,0:0|0:0|0:0,0:0:0:0:
175,124,90883,1,0,0:0:0:0:
175,124,91098,1,8,0:0:0:0:
318,49,91526,6,0,L|430:49,1,112.500004291535,8|0,0:0|0:0,0:0:0:0:
373,170,91954,2,0,L|260:170,1,112.500004291535,8|0,0:0|0:0,0:0:0:0:
192,287,92383,1,8,0:0:0:0:
323,255,92597,1,0,0:0:0:0:
192,287,92811,1,8,0:0:0:0:
72,44,93240,6,0,L|184:44,1,112.500004291535,8|0,0:0|0:0,0:0:0:0:
105,153,93669,1,8,0:0:0:0:
219,224,93883,1,0,0:0:0:0:
317,132,94097,1,8,0:0:0:0:
183,152,94311,1,0,0:0:0:0:
303,212,94526,1,8,0:0:0:0:
160,350,94955,5,8,0:0:0:0:
144,206,95170,1,0,0:0:0:0:
0,222,95384,1,8,0:0:0:0:
116,286,95597,1,0,0:0:0:0:
191,150,95813,1,8,0:0:0:0:
72,214,96027,1,0,0:0:0:0:
160,350,96240,1,8,1:0:0:0:
480,32,109955,5,8,0:0:0:0:
480,32,110383,6,0,P|444:40|400:72,1,75,8|0,0:0|0:0,0:0:0:0:
481,157,110811,1,8,0:0:0:0:
430,266,111026,1,0,0:0:0:0:
322,213,111240,2,0,L|322:117,1,75,8|0,0:0|0:0,0:0:0:0:
205,168,111669,1,8,0:0:0:0:
26,328,112098,6,0,P|64:334|106:328,1,75,8|0,0:0|0:0,0:0:0:0:
55,218,112526,2,0,P|93:212|135:218,1,75,8|0,0:0|0:0,0:0:0:0:
234,274,112955,1,8,0:0:0:0:
353,275,113169,1,0,0:0:0:0:
353,275,113383,1,8,0:0:0:0:
176,104,113811,6,0,L|208:16,1,75,8|0,0:0|0:0,0:0:0:0:
312,32,114240,2,0,B|344:120,1,75,8|0,0:0|0:0,0:0:0:0:
294,204,114669,2,0,L|202:204,1,75,8|0,0:0|0:0,0:0:0:0:
256,308,115098,1,8,0:0:0:0:
88,60,115526,6,0,L|88:148,1,75,8|0,0:0|0:0,0:0:0:0:
18,235,115955,1,8,0:0:0:0:
18,235,116169,1,0,0:0:0:0:
100,321,116383,2,0,L|180:321,1,75,8|0,0:0|0:0,0:0:0:0:
175,321,116812,1,8,0:0:0:0:
403,249,117240,6,0,B|403:333,1,75,8|0,0:0|0:0,0:0:0:0:
479,273,117669,1,8,0:0:0:0:
326,300,117883,1,0,0:0:0:0:
291,185,118097,2,0,B|291:109,1,75,8|0,0:0|0:0,0:0:0:0:
291,110,118526,1,8,0:0:0:0:
164,313,118954,6,0,B|164:217,1,75,8|0,0:0|0:0,0:0:0:0:
93,140,119383,2,0,L|93:215,1,75,8|0,0:0|0:0,0:0:0:0:
93,215,119812,1,8,0:0:0:0:
87,334,120026,1,0,0:0:0:0:
87,334,120240,1,8,0:0:0:0:
278,188,120669,5,8,0:0:0:0:
288,69,120882,1,0,0:0:0:0:
362,163,121097,1,8,0:0:0:0:
362,163,121312,1,0,0:0:0:0:
362,163,121526,1,8,0:0:0:0:
249,122,121740,1,0,0:0:0:0:
364,88,121955,1,8,0:0:0:0:
131,28,122383,6,0,L|56:28,1,75,2|0,0:0|0:0,0:0:0:0:
84,145,122812,2,0,L|159:145,1,75,2|0,0:0|0:0,0:0:0:0:
124,260,123241,2,0,L|49:260,1,75,2|0,0:0|0:0,0:0:0:0:
49,260,123669,1,2,0:0:0:0:
302,228,124098,6,0,P|255:250|220:294,1,97.4999955368044
334,341,124526,2,0,P|381:319|416:275,1,97.4999955368044,8|0,0:0|0:0,0:0:0:0:
373,140,124955,2,0,P|420:118|455:74,1,97.4999955368044
342,19,125383,2,0,P|295:41|260:85,1,97.4999955368044,8|0,0:0|0:0,0:0:0:0:
91,189,125811,6,0,B|91:295,1,97.4999955368044
215,234,126240,2,0,B|216:131,1,97.4999955368044,8|0,0:0|0:0,0:0:0:0:
342,188,126669,2,0,B|342:290,1,97.4999955368044
468,235,127097,2,0,B|469:128,1,97.4999955368044,8|0,0:0|0:0,0:0:0:0:
342,188,127526,6,0,B|357:242|392:274,1,97.4999955368044
342,188,127954,2,0,B|302:152|254:139,1,97.4999955368044,8|0,0:0|0:0,0:0:0:0:
258,140,128383,1,0,0:0:0:0:
359,48,128597,1,0,0:0:0:0:
468,137,128811,1,8,0:0:0:0:
410,363,129240,5,0,0:0:0:0:
341,245,129454,1,0,0:0:0:0:
341,245,129669,2,0,B|241:256|241:256,1,97.4999955368044,8|0,0:0|0:0,0:0:0:0:
149,355,130098,2,0,L|45:334,1,97.4999955368044
53,335,130526,1,8,0:0:0:0:
92,70,130954,5,0,0:0:0:0:
92,70,131169,1,0,0:0:0:0:
220,146,131383,2,0,P|267:166|323:162,1,97.4999955368044,8|0,0:0|0:0,0:0:0:0:
356,53,131812,2,0,P|308:32|252:36,1,97.4999955368044
313,166,132240,1,8,0:0:0:0:
40,192,132669,5,0,0:0:0:0:
176,190,132883,1,0,0:0:0:0:
104,305,133097,1,8,0:0:0:0:
104,305,133311,1,0,0:0:0:0:
238,328,133526,2,0,L|347:328,1,97.4999955368044
335,328,133954,1,8,0:0:0:0:
170,92,134383,5,0,0:0:0:0:
306,92,134597,1,0,0:0:0:0:
138,144,134811,1,8,0:0:0:0:
338,144,135026,1,0,0:0:0:0:
170,200,135240,1,0,0:0:0:0:
302,196,135454,1,0,0:0:0:0:
238,328,135669,1,8,0:0:0:0:
238,328,136098,5,0,0:0:0:0:
144,199,136312,1,0,0:0:0:0:
238,168,136527,1,8,0:0:0:0:
144,297,136741,1,0,0:0:0:0:
144,297,136955,2,0,L|34:297,1,97.4999955368044
46,297,137383,1,8,0:0:0:0:
24,76,137811,5,8,0:0:0:0:
184,72,138098,2,0,L|184:132,1,50,0|8,0:0|0:0,0:0:0:0:
49,208,138526,2,0,L|49:260,1,50,0|8,0:0|0:0,0:0:0:0:
209,266,138955,2,8,L|209:318,1,50,0|8,0:0|0:0,0:0:0:0:
448,332,139525,5,8,0:0:0:0:
472,173,139812,2,0,L|416:173,1,50,0|8,0:0|0:0,0:0:0:0:
344,32,140240,1,0,0:0:0:0:
344,32,140383,1,8,0:0:0:0:
228,142,140669,2,0,L|292:142,1,50,0|8,0:0|0:0,0:0:0:0:
65,30,141240,5,8,0:0:0:0:
31,185,141525,1,0,0:0:0:0:
0,225,141668,1,8,0:0:0:0:
157,253,141954,1,0,0:0:0:0:
201,277,142097,1,8,0:0:0:0:
52,336,142383,1,0,0:0:0:0:
16,372,142526,1,8,0:0:0:0:
298,350,142955,6,8,P|284:301|298:254,1,100,8|0,0:0|0:0,0:0:0:0:
438,254,143383,2,8,P|451:301|437:348,1,100,8|0,0:0|0:0,0:0:0:0:
366,230,143812,2,8,P|352:181|366:134,1,100,8|0,0:0|0:0,0:0:0:0:
370,54,144240,1,8,0:0:0:0:
173,190,144668,5,10,0:0:0:0:
93,50,144954,1,0,0:0:0:0:
93,50,145097,1,10,0:0:0:0:
23,194,145383,2,0,L|91:194,1,50,0|10,0:0|0:0,0:0:0:0:
54,353,145812,1,0,0:0:0:0:
54,353,145954,1,10,0:0:0:0:
293,364,146383,5,10,0:0:0:0:
175,255,146669,2,0,L|175:311,1,50,0|10,0:0|0:0,0:0:0:0:
303,208,147098,2,0,L|303:158,1,50,0|10,0:0|0:0,0:0:0:0:
175,61,147526,1,0,0:0:0:0:
175,61,147669,1,10,0:0:0:0:
335,60,147955,5,0,0:0:0:0:
335,60,148097,1,10,0:0:0:0:
358,218,148383,2,0,L|358:146,1,50,10|10,0:0|0:0,0:0:0:0:
281,142,148669,2,0,L|281:202,1,50,8|8,0:0|0:0,0:0:0:0:
208,226,148955,1,10,0:0:0:0:
208,250,149098,1,8,0:0:0:0:
208,274,149241,1,8,0:0:0:0:
208,298,149383,1,10,0:0:0:0:
256,192,149526,12,0,150669,0:0:0:0:
512,56,151097,6,0,P|448:40|416:48,1,100,8|0,0:0|0:0,0:0:0:0:
344,120,151526,2,0,P|408:136|440:128,1,100,8|0,0:0|0:0,0:0:0:0:
511,224,151955,2,0,P|464:208|416:216,1,100,8|0,0:0|0:0,0:0:0:0:
351,298,152383,2,0,P|399:313|448:304,1,100,8|0,0:0|0:0,0:0:0:0:
447,304,152811,1,8,0:0:0:0:
257,155,153240,5,8,0:0:0:0:
153,33,153526,2,0,L|97:33,1,50,0|8,0:0|0:0,0:0:0:0:
11,165,153955,1,0,0:0:0:0:
11,165,154098,1,8,0:0:0:0:
133,267,154383,1,0,0:0:0:0:
133,267,154526,1,8,0:0:0:0:
336,348,154955,6,8,B|316:300|316:300|336:256,1,100,8|0,0:0|0:0,0:0:0:0:
472,260,155383,2,8,B|492:304|492:304|472:352,1,100,8|0,0:0|0:0,0:0:0:0:
404,228,155812,2,8,L|404:128,1,100,8|0,0:0|0:0,0:0:0:0:
404,128,156240,1,8,0:0:0:0:
32,176,156669,6,8,P|81:190|128:176,1,100,8|0,0:0|0:0,0:0:0:0:
128,44,157097,2,8,P|80:30|33:44,1,100,8|0,0:0|0:0,0:0:0:0:
168,112,157526,2,0,P|217:126|264:112,1,100,8|0,0:0|0:0,0:0:0:0:
262,112,157954,1,8,0:0:0:0:
255,352,158383,5,8,0:0:0:0:
412,321,158669,1,0,0:0:0:0:
456,345,158812,1,8,0:0:0:0:
483,187,159098,1,0,0:0:0:0:
447,155,159241,1,8,0:0:0:0:
337,38,159526,1,0,0:0:0:0:
289,31,159669,1,8,0:0:0:0:
228,263,160098,5,8,0:0:0:0:
175,112,160383,2,0,L|110:94,1,50,0|8,0:0|0:0,0:0:0:0:
20,190,160812,2,0,L|104:190,1,50,0|8,0:0|0:0,0:0:0:0:
144,308,161241,2,0,L|79:317,1,50,0|8,0:0|0:0,0:0:0:0:
327,172,161812,6,0,P|279:160|222:175,1,100,8|0,0:0|0:0,0:0:0:0:
231,308,162241,2,0,P|279:320|327:308,1,100,8|0,0:0|0:0,0:0:0:0:
230,170,162669,2,0,P|181:182|133:170,1,100,8|0,0:0|0:0,0:0:0:0:
135,31,163098,2,0,P|183:19|231:31,1,100,8|0,0:0|0:0,0:0:0:0:
396,24,163526,5,8,0:0:0:0:
230,172,163955,1,8,0:0:0:0:
409,330,164383,1,8,0:0:0:0:
230,172,164812,1,8,0:0:0:0:
409,330,165240,6,8,P|441:290|441:242,1,100,8|0,0:0|0:0,0:0:0:0:
352,192,165669,2,0,P|322:234|326:282,1,100,8|0,0:0|0:0,0:0:0:0:
441,243,166097,2,0,P|473:203|473:155,1,100,8|0,0:0|0:0,0:0:0:0:
473,156,166526,1,8,0:0:0:0:
200,24,166955,6,0,L|96:24,1,100,8|0,0:0|0:0,0:0:0:0:
0,104,167383,2,0,L|100:104,1,100,8|0,0:0|0:0,0:0:0:0:
200,184,167812,2,0,L|100:184,1,100,8|0,0:0|0:0,0:0:0:0:
44,244,168240,1,8,0:0:0:0:
224,352,168669,6,0,L|336:352,1,100,8|0,0:0|0:0,0:0:0:0:
404,348,169097,2,0,P|444:312|444:268,1,100,8|0,0:0|0:0,0:0:0:0:
448,188,169526,2,0,L|448:84,1,100,8|0,0:0|0:0,0:0:0:0:
392,28,169954,1,8,0:0:0:0:
184,148,170383,6,0,L|184:252,1,100,8|0,0:0|0:0,0:0:0:0:
140,316,170812,2,0,P|92:328|44:316,1,100,8|0,0:0|0:0,0:0:0:0:
8,244,171241,2,0,L|8:144,1,100,8|0,0:0|0:0,0:0:0:0:
8,64,171669,1,8,0:0:0:0:
248,52,172098,6,0,B|272:108|328:132,1,100,8|0,0:0|0:0,0:0:0:0:
392,148,172526,2,0,P|412:192|392:236,1,100,8|0,0:0|0:0,0:0:0:0:
316,268,172955,2,0,P|296:312|316:356,1,100,8|0,0:0|0:0,0:0:0:0:
316,356,173383,1,8,0:0:0:0:
120,352,173812,6,0,B|54:373|20:339,1,100,8|0,0:0|0:0,0:0:0:0:
14,263,174240,2,0,B|14:151,1,100,8|0,0:0|0:0,0:0:0:0:
36,78,174669,2,0,B|92:62|138:81,1,100,8|0,0:0|0:0,0:0:0:0:
134,79,175098,1,8,0:0:0:0:
290,194,175526,5,8,0:0:0:0:
337,72,175812,2,0,L|337:128,1,50,0|8,0:0|0:0,0:0:0:0:
451,184,176241,2,0,L|375:184,1,50,0|8,0:0|0:0,0:0:0:0:
351,304,176669,2,0,L|351:248,1,50,0|8,0:0|0:0,0:0:0:0:
186,147,177241,5,0,0:0:0:0:
337,72,177669,1,0,0:0:0:0:
279,258,178098,1,0,0:0:0:0:
184,140,178526,6,0,P|189:77|175:23,1,112.500004291535,8|0,0:0|0:0,0:0:0:0:
272,141,178955,2,0,P|267:78|281:24,1,112.500004291535,8|0,0:0|0:0,0:0:0:0:
279,258,179383,2,0,P|227:238|175:258,1,112.500004291535,8|0,0:0|0:0,0:0:0:0:
296,340,179812,2,0,P|348:360|400:340,1,112.500004291535,8|0,0:0|0:0,0:0:0:0:
355,200,180241,1,8,0:0:0:0:
91,74,180669,6,0,L|224:85,1,112.500004291535,8|0,0:0|0:0,0:0:0:0:
331,40,181098,2,0,L|453:64,1,112.500004291535,8|0,0:0|0:0,0:0:0:0:
355,200,181526,1,8,0:0:0:0:
203,83,181740,1,0,0:0:0:0:
57,203,181954,1,8,0:0:0:0:
327,314,182383,6,0,P|376:331|451:313,2,112.500004291535,8|0|8,0:0|0:0|0:0,0:0:0:0:
391,182,183026,1,0,0:0:0:0:
449,47,183241,2,0,P|394:30|331:44,2,112.500004291535,8|0|8,0:0|0:0|0:0,0:0:0:0:
194,191,184098,5,8,0:0:0:0:
340,192,184312,1,0,0:0:0:0:
313,335,184526,2,0,P|369:343|433:331,1,112.500004291535,8|0,0:0|0:0,0:0:0:0:
230,337,184954,2,0,P|174:329|110:341,1,112.500004291535,8|0,0:0|0:0,0:0:0:0:
119,337,185383,1,8,0:0:0:0:
177,25,185812,6,0,P|227:50|265:93,1,112.500004291535,8|0,0:0|0:0,0:0:0:0:
163,227,186241,2,0,P|112:201|74:158,1,112.500004291535,8|0,0:0|0:0,0:0:0:0:
172,128,186669,1,8,0:0:0:0:
286,184,186883,1,0,0:0:0:0:
286,184,187097,1,8,0:0:0:0:
493,70,187526,6,0,P|504:126|493:182,1,112.500004291535,8|0,0:0|0:0,0:0:0:0:
403,252,187955,2,0,P|392:196|403:140,1,112.500004291535,8|0,0:0|0:0,0:0:0:0:
285,95,188383,1,8,0:0:0:0:
165,10,188597,1,0,0:0:0:0:
156,156,188812,1,8,0:0:0:0:
156,156,189241,6,0,L|44:156,1,112.500004291535,8|0,0:0|0:0,0:0:0:0:
256,229,189669,2,0,L|256:341,1,112.500004291535,8|0,0:0|0:0,0:0:0:0:
348,151,190098,2,0,L|460:151,1,112.500004291535,8|0,0:0|0:0,0:0:0:0:
255,36,190526,5,8,0:0:0:0:
255,50,190633,1,0,0:0:0:0:
255,64,190740,1,0,0:0:0:0:
255,78,190847,1,0,0:0:0:0:
255,92,190954,1,8,0:0:0:0:
255,106,191061,1,0,0:0:0:0:
255,120,191168,1,0,0:0:0:0:
255,134,191276,1,0,0:0:0:0:
255,148,191383,1,8,0:0:0:0:
255,162,191490,1,0,0:0:0:0:
255,176,191597,1,0,0:0:0:0:
255,190,191704,1,0,0:0:0:0:
255,206,191812,1,2,0:0:0:0:
