osu file format v14

[General]
AudioFilename: audio.mp3
AudioLeadIn: 0
PreviewTime: 68810
Countdown: 0
SampleSet: Soft
StackLeniency: 0.4
Mode: 0
LetterboxInBreaks: 0
WidescreenStoryboard: 0

[Editor]
Bookmarks: 24241,55526,64526,124098,137812,162241
DistanceSpacing: 1.6
BeatDivisor: 3
GridSize: 4
TimelineZoom: 1.6

[Metadata]
Title:18 (Dan Winter Edit)
TitleUnicode:18 (Dan Winter Edit)
Artist:Code Red
ArtistUnicode:Code Red
Creator:Nuvolina
Version:Hard
Source:
Tags:Anto russian hands up cover dance eighteen mne uzhe руки вверх восемнадцать мне уже русский
BeatmapID:1551413
BeatmapSetID:734864

[Difficulty]
HPDrainRate:5
CircleSize:3.5
OverallDifficulty:6
ApproachRate:7.5
SliderMultiplier:1.4
SliderTickRate:1

[Events]
//Background and Video events
0,0,"18.jpg",0,0
//Break Periods
2,96440,109129
//Storyboard Layer 0 (Background)
//Storyboard Layer 1 (Fail)
//Storyboard Layer 2 (Pass)
//Storyboard Layer 3 (Foreground)
//Storyboard Sound Samples

[TimingPoints]
241,428.571428571429,4,2,1,50,1,0
14383,-133.333333333333,4,2,1,50,0,0
27669,-100,4,2,1,50,0,0
55526,-133.333333333333,4,2,1,50,0,0
68812,-100,4,1,1,90,0,1
94526,-100,4,1,1,60,0,1
96241,-100,4,2,1,50,0,0
109955,-100,4,3,1,40,0,0
122383,-100,4,2,1,50,0,0
137811,-100,4,3,1,40,0,0
144669,-100,4,2,1,50,0,0
151526,-100,4,1,1,90,0,1
164811,-100,4,3,1,40,0,1
178526,-100,4,1,1,90,0,1
191812,-100,4,2,1,80,0,0

[Colours]
Combo1 : 173,78,31
Combo2 : 253,250,130
Combo3 : 135,139,186

[HitObjects]
48,344,14383,6,0,L|116:328,1,52.5000020027161,2|0,0:0|0:0,0:0:0:0:
64,256,14812,2,0,L|132:240,1,52.5000020027161,2|0,0:0|0:0,0:0:0:0:
80,168,15241,2,0,L|148:152,1,52.5000020027161,2|0,0:0|0:0,0:0:0:0:
212,132,15668,1,2,0:0:0:0:
461,19,16097,6,0,L|496:72,1,52.5000020027161,2|0,0:0|0:0,0:0:0:0:
424,116,16526,2,0,L|460:168,1,52.5000020027161,2|0,0:0|0:0,0:0:0:0:
456,244,16955,2,0,L|426:287,1,52.5000020027161,2|0,0:0|0:0,0:0:0:0:
376,356,17383,1,2,0:0:0:0:
166,237,17811,5,2,0:0:0:0:
108,296,18025,1,0,0:0:0:0:
84,216,18241,2,0,L|36:164,1,52.5000020027161,2|0,0:0|0:0,0:0:0:0:
84,100,18669,2,0,L|132:152,1,52.5000020027161,2|0,0:0|0:0,0:0:0:0:
119,138,19098,1,2,0:0:0:0:
367,37,19526,5,2,0:0:0:0:
436,84,19740,1,0,0:0:0:0:
368,132,19954,1,2,0:0:0:0:
197,279,20383,5,2,0:0:0:0:
256,340,20597,1,0,0:0:0:0:
317,279,20811,1,2,0:0:0:0:
498,147,21240,6,0,L|436:116,1,52.5000020027161,2|0,0:0|0:0,0:0:0:0:
368,124,21669,2,0,L|306:93,1,52.5000020027161,2|0,0:0|0:0,0:0:0:0:
236,100,22098,2,0,L|174:131,1,52.5000020027161,2|0,0:0|0:0,0:0:0:0:
112,160,22526,1,2,0:0:0:0:
156,320,22954,5,2,0:0:0:0:
72,320,23168,1,0,0:0:0:0:
156,320,23383,1,2,0:0:0:0:
256,184,23811,5,2,0:0:0:0:
340,184,24025,1,0,0:0:0:0:
256,184,24240,1,2,0:0:0:0:
256,192,24668,12,0,26811,0:0:0:0:
303,36,27669,5,8,0:0:0:0:
80,36,28098,6,0,L|-8:36,1,70
44,144,28526,2,0,L|44:224,1,70,8|0,0:0|0:0,0:0:0:0:
8,320,28955,2,0,L|96:320,1,70
189,321,29383,1,8,0:0:0:0:
189,321,29811,6,0,L|253:369,1,70
356,364,30241,2,0,L|428:316,1,70,8|0,0:0|0:0,0:0:0:0:
336,244,30669,2,0,L|256:244,1,70
266,244,31098,1,8,0:0:0:0:
123,138,31526,6,0,L|51:138,1,70
21,33,31955,2,0,L|93:33,1,70,8|0,0:0|0:0,0:0:0:0:
199,72,32384,2,0,L|269:72,1,70
380,75,32812,1,8,0:0:0:0:
512,240,33241,5,0,0:0:0:0:
512,240,33454,1,0,0:0:0:0:
400,220,33669,2,0,P|365:227|326:251,1,70,8|0,0:0|0:0,0:0:0:0:
404,332,34098,2,0,P|374:348|339:355,1,70
232,328,34526,1,8,0:0:0:0:
16,264,34955,6,0,L|16:188,1,70
100,120,35383,2,0,L|100:192,1,70,8|0,0:0|0:0,0:0:0:0:
212,192,35812,2,0,L|296:192,1,70
282,192,36241,1,8,0:0:0:0:
464,64,36668,6,0,L|414:14,1,70
300,16,37098,2,0,L|220:16,1,70,8|0,0:0|0:0,0:0:0:0:
292,108,37526,2,0,L|364:108,1,70
362,108,37955,1,8,0:0:0:0:
110,67,38383,6,0,L|38:67,1,70
40,180,38812,2,0,L|112:180,1,70,8|0,0:0|0:0,0:0:0:0:
108,292,39241,2,0,L|36:292,1,70
38,292,39669,1,8,0:0:0:0:
256,352,40098,5,0,0:0:0:0:
200,256,40312,1,0,0:0:0:0:
312,256,40526,1,8,0:0:0:0:
500,136,40954,5,0,0:0:0:0:
404,192,41169,1,0,0:0:0:0:
500,248,41383,1,8,0:0:0:0:
284,192,41811,6,0,L|200:192,1,70
100,192,42241,2,0,P|68:176|44:144,1,70,8|0,0:0|0:0,0:0:0:0:
108,56,42668,2,0,P|86:30|55:14,1,70
54,13,43097,1,8,0:0:0:0:
272,64,43526,6,0,P|294:37|325:21,1,70
328,132,43955,2,0,P|305:158|274:174,1,70,8|0,0:0|0:0,0:0:0:0:
344,260,44383,2,0,P|377:268|411:259,1,70
411,259,44812,1,8,0:0:0:0:
204,344,45240,5,0,0:0:0:0:
92,344,45455,1,0,0:0:0:0:
148,248,45669,1,8,0:0:0:0:
36,248,45883,1,0,0:0:0:0:
36,248,46098,2,0,P|36:250|36:178,2,70,0|0|8,0:0|0:0|0:0,0:0:0:0:
216,116,46955,5,0,0:0:0:0:
312,60,47169,1,0,0:0:0:0:
408,116,47383,2,0,L|460:180,1,70,8|0,0:0|0:0,0:0:0:0:
452,284,47812,2,0,L|407:338,1,70
407,338,48241,1,8,0:0:0:0:
184,340,48669,6,0,L|88:340,1,70
40,256,49098,2,0,L|120:256,1,70,8|0,0:0|0:0,0:0:0:0:
184,172,49526,2,0,P|104:172|112:172,1,70
0,172,49955,1,8,0:0:0:0:
176,32,50383,5,0,0:0:0:0:
272,88,50597,1,0,0:0:0:0:
368,28,50811,1,8,0:0:0:0:
464,88,51026,1,0,0:0:0:0:
432,196,51240,2,0,L|352:228,1,70
367,221,51669,1,8,0:0:0:0:
144,188,52098,5,0,0:0:0:0:
36,220,52312,1,0,0:0:0:0:
92,316,52526,2,0,L|148:372,1,70,8|0,0:0|0:0,0:0:0:0:
252,368,52954,2,0,L|316:312,1,70
304,321,53383,1,8,0:0:0:0:
472,172,53812,6,0,P|504:108|480:44,1,140,0|8,0:0|0:0,0:0:0:0:
384,100,54455,1,0,0:0:0:0:
384,100,54669,2,0,P|351:160|372:225,1,140,0|8,0:0|0:0,0:0:0:0:
72,128,55526,6,0,L|72:64,1,52.5000020027161,2|0,0:0|0:0,0:0:0:0:
136,20,55954,2,0,L|206:20,1,52.5000020027161,2|0,0:0|0:0,0:0:0:0:
252,76,56383,2,0,L|253:146,1,52.5000020027161,2|0,0:0|0:0,0:0:0:0:
252,128,56812,1,2,0:0:0:0:
144,256,57241,6,0,L|144:316,1,52.5000020027161,2|0,0:0|0:0,0:0:0:0:
208,364,57669,2,0,L|276:364,1,52.5000020027161,2|0,0:0|0:0,0:0:0:0:
324,308,58097,2,0,L|323:236,1,52.5000020027161,2|0,0:0|0:0,0:0:0:0:
323,255,58527,1,2,0:0:0:0:
472,176,58955,6,0,L|472:112,1,52.5000020027161,2|0,0:0|0:0,0:0:0:0:
388,124,59383,2,0,L|388:71,1,52.5000020027161,2|0,0:0|0:0,0:0:0:0:
304,72,59811,2,0,L|304:0,1,52.5000020027161,2|0,0:0|0:0,0:0:0:0:
220,20,60241,1,2,0:0:0:0:
100,136,60668,6,0,L|25:122,1,52.5000020027161,2|0,0:0|0:0,0:0:0:0:
32,208,61098,2,0,L|93:221,2,52.5000020027161,2|0|2,0:0|0:0|0:0,0:0:0:0:
12,288,61741,1,0,0:0:0:0:
12,288,61955,1,2,0:0:0:0:
168,348,62383,6,0,L|168:272,1,52.5000020027161,2|0,0:0|0:0,0:0:0:0:
248,272,62812,2,0,L|248:340,1,52.5000020027161,2|0,0:0|0:0,0:0:0:0:
328,352,63240,2,0,L|328:284,1,52.5000020027161,2|0,0:0|0:0,0:0:0:0:
328,299,63669,1,2,0:0:0:0:
471,151,64098,6,0,P|448:156|420:152,1,52.5000020027161,2|0,0:0|0:0,0:0:0:0:
392,72,64526,2,0,P|415:67|443:71,2,52.5000020027161,2|0|2,0:0|0:0|0:0,0:0:0:0:
340,136,65168,1,0,0:0:0:0:
340,136,65383,1,2,0:0:0:0:
204,36,65811,6,0,L|136:36,1,52.5000020027161,2|0,0:0|0:0,0:0:0:0:
76,76,66241,1,2,0:0:0:0:
28,144,66454,1,0,0:0:0:0:
76,212,66669,6,0,L|76:256,3,26.2500010013581,2|0|0|0,0:0|0:0|0:0|0:0,0:0:0:0:
108,212,67097,2,0,L|107:173,3,26.2500010013581,2|0|0|0,0:0|0:0|0:0|0:0,0:0:0:0:
140,212,67526,2,0,L|139:245,3,26.2500010013581,2|0|0|0,0:0|0:0|0:0|0:0,0:0:0:0:
172,212,67955,2,0,L|280:212,1,105.000004005432
460,344,68812,5,8,0:0:0:0:
460,344,69241,6,0,L|372:304,1,70,8|0,0:0|0:0,0:0:0:0:
392,204,69669,2,0,L|455:175,1,70,8|0,0:0|0:0,0:0:0:0:
456,64,70097,2,0,L|368:24,1,70,8|0,0:0|0:0,0:0:0:0:
280,32,70526,1,8,0:0:0:0:
56,32,70955,5,8,0:0:0:0:
112,128,71168,1,0,0:0:0:0:
0,128,71383,1,8,0:0:0:0:
56,224,71597,1,0,0:0:0:0:
0,320,71812,1,8,0:0:0:0:
112,324,72026,1,0,0:0:0:0:
112,324,72241,1,8,0:0:0:0:
332,356,72669,6,0,L|412:356,1,70,8|0,0:0|0:0,0:0:0:0:
368,248,73098,2,0,L|440:248,1,70,8|0,0:0|0:0,0:0:0:0:
404,140,73526,2,0,L|476:140,1,70,8|0,0:0|0:0,0:0:0:0:
474,140,73954,1,8,0:0:0:0:
276,36,74383,6,0,P|244:28|208:36,1,70,8|0,0:0|0:0,0:0:0:0:
242,142,74812,2,0,L|242:214,1,70,8|0,0:0|0:0,0:0:0:0:
276,320,75241,2,0,P|244:328|208:320,1,70,8|0,0:0|0:0,0:0:0:0:
208,320,75669,1,8,0:0:0:0:
24,192,76098,5,8,0:0:0:0:
88,284,76312,1,0,0:0:0:0:
152,192,76526,1,8,0:0:0:0:
88,100,76741,1,0,0:0:0:0:
152,192,76955,2,0,L|240:192,1,70,8|0,0:0|0:0,0:0:0:0:
222,192,77383,1,8,0:0:0:0:
368,364,77812,6,0,L|416:308,1,70,8|0,0:0|0:0,0:0:0:0:
508,248,78241,2,0,L|508:176,1,70,8|0,0:0|0:0,0:0:0:0:
464,76,78668,2,0,L|416:4,1,70,8|0,0:0|0:0,0:0:0:0:
425,17,79098,1,8,0:0:0:0:
204,36,79526,6,8,P|137:19|76:50,1,140
152,136,80169,1,0,0:0:0:0:
224,220,80383,2,8,P|163:251|96:234,1,140
96,234,81241,5,8,0:0:0:0:
20,316,81455,1,0,0:0:0:0:
128,348,81669,2,0,L|216:348,1,70,8|0,0:0|0:0,0:0:0:0:
312,348,82098,2,0,L|382:348,1,70,8|0,0:0|0:0,0:0:0:0:
382,348,82526,1,8,0:0:0:0:
484,148,82955,6,0,L|460:228,1,70,8|0,0:0|0:0,0:0:0:0:
352,232,83383,2,0,L|372:164,1,70,8|0,0:0|0:0,0:0:0:0:
296,80,83812,2,0,L|275:147,1,70,8|0,0:0|0:0,0:0:0:0:
275,147,84241,1,8,0:0:0:0:
88,268,84669,5,8,0:0:0:0:
88,268,84883,1,0,0:0:0:0:
32,172,85097,2,0,L|32:92,2,70,8|0|8,0:0|0:0|0:0,0:0:0:0:
144,172,85741,1,0,0:0:0:0:
144,172,85954,1,8,0:0:0:0:
272,356,86383,6,8,P|330:319|341:253,1,140
392,152,87026,1,0,0:0:0:0:
444,252,87241,2,8,P|455:319|512:355,1,140
500,132,88098,6,0,L|500:56,1,70,8|0,0:0|0:0,0:0:0:0:
392,96,88526,2,0,P|360:104|324:96,1,70,8|0,0:0|0:0,0:0:0:0:
228,36,88955,2,0,P|196:26|160:38,1,70,8|0,0:0|0:0,0:0:0:0:
68,96,89383,1,8,0:0:0:0:
144,304,89811,5,8,0:0:0:0:
240,360,90026,1,0,0:0:0:0:
240,248,90241,1,8,0:0:0:0:
336,304,90455,1,0,0:0:0:0:
432,248,90669,2,0,L|432:168,1,70,8|0,0:0|0:0,0:0:0:0:
432,64,91098,1,8,0:0:0:0:
212,20,91525,5,8,0:0:0:0:
128,96,91741,1,0,0:0:0:0:
212,172,91954,1,8,0:0:0:0:
128,248,92169,1,0,0:0:0:0:
128,248,92383,2,0,L|128:336,1,70,8|0,0:0|0:0,0:0:0:0:
236,352,92811,1,8,0:0:0:0:
236,352,93241,6,0,L|332:352,1,70,8|0,0:0|0:0,0:0:0:0:
416,332,93669,1,8,0:0:0:0:
484,244,93883,1,0,0:0:0:0:
484,132,94098,1,8,0:0:0:0:
416,44,94312,1,0,0:0:0:0:
416,44,94526,6,0,L|336:44,1,70,8|0,0:0|0:0,0:0:0:0:
284,136,94954,2,0,L|188:136,1,70,8|0,0:0|0:0,0:0:0:0:
100,136,95383,2,0,L|100:184,3,35,8|0|0|0,0:0|0:0|0:0|0:0,0:0:0:0:
56,136,95812,2,0,L|56:96,4,35,8|0|0|0|8,0:0|0:0|0:0|0:0|1:0,0:0:0:0:
128,32,109954,5,8,0:0:0:0:
128,32,110383,5,8,0:0:0:0:
28,84,110597,1,0,0:0:0:0:
8,196,110812,2,0,P|32:224|76:232,1,70,8|0,0:0|0:0,0:0:0:0:
172,220,111240,1,8,0:0:0:0:
216,116,111454,1,0,0:0:0:0:
216,116,111669,1,8,0:0:0:0:
424,36,112097,5,8,0:0:0:0:
480,132,112312,1,0,0:0:0:0:
368,132,112526,2,0,L|280:132,2,70,8|0|8,0:0|0:0|0:0,0:0:0:0:
480,132,113169,1,0,0:0:0:0:
424,228,113383,1,8,0:0:0:0:
424,228,113812,5,8,0:0:0:0:
424,340,114026,1,0,0:0:0:0:
312,360,114241,1,8,0:0:0:0:
312,248,114455,1,0,0:0:0:0:
200,264,114668,2,0,L|104:264,1,70,8|0,0:0|0:0,0:0:0:0:
16,264,115098,1,8,0:0:0:0:
48,44,115526,5,8,0:0:0:0:
112,136,115741,1,0,0:0:0:0:
48,44,115955,1,8,0:0:0:0:
268,92,116383,5,8,0:0:0:0:
360,28,116598,1,0,0:0:0:0:
268,92,116812,1,8,0:0:0:0:
256,316,117241,5,8,0:0:0:0:
356,364,117455,1,0,0:0:0:0:
456,316,117669,2,0,L|512:252,1,70,8|0,0:0|0:0,0:0:0:0:
504,152,118098,2,0,L|504:72,1,70,8|0,0:0|0:0,0:0:0:0:
504,82,118526,1,8,0:0:0:0:
504,82,118955,5,8,0:0:0:0:
408,28,119168,1,0,0:0:0:0:
308,80,119383,2,0,L|308:176,1,70,8|0,0:0|0:0,0:0:0:0:
208,204,119811,1,8,0:0:0:0:
108,152,120026,1,0,0:0:0:0:
108,152,120240,1,8,0:0:0:0:
16,356,120669,6,0,L|96:356,1,70,8|0,0:0|0:0,0:0:0:0:
188,308,121098,2,0,L|284:308,1,70,8|0,0:0|0:0,0:0:0:0:
360,356,121526,2,0,L|440:356,1,70,8|0,0:0|0:0,0:0:0:0:
508,276,121955,1,8,0:0:0:0:
508,52,122383,6,0,L|422:52,1,70,2|0,0:0|0:0,0:0:0:0:
332,16,122812,2,0,L|332:86,1,70,2|0,0:0|0:0,0:0:0:0:
368,192,123241,2,0,L|290:192,1,70,2|0,0:0|0:0,0:0:0:0:
298,192,123669,1,2,0:0:0:0:
128,44,124098,5,0,0:0:0:0:
16,44,124312,1,0,0:0:0:0:
128,60,124526,1,8,0:0:0:0:
16,60,124741,1,0,0:0:0:0:
128,72,124955,1,0,0:0:0:0:
16,72,125168,1,0,0:0:0:0:
72,168,125383,1,8,0:0:0:0:
288,228,125812,6,8,L|288:300,1,70,0|0,0:0|0:0,0:0:0:0:
376,368,126240,2,0,L|376:280,1,70,8|0,0:0|0:0,0:0:0:0:
464,228,126669,2,0,L|464:308,1,70
464,298,127098,1,8,0:0:0:0:
304,140,127526,6,0,L|208:140,1,70
124,140,127954,2,0,P|132:100|124:68,1,70,8|0,0:0|0:0,0:0:0:0:
20,36,128383,2,0,P|12:76|20:108,1,70
124,140,128811,1,8,0:0:0:0:
286,39,129241,5,0,0:0:0:0:
396,40,129455,1,0,0:0:0:0:
340,136,129668,1,8,0:0:0:0:
256,344,130098,5,0,0:0:0:0:
368,348,130311,1,0,0:0:0:0:
312,248,130526,1,8,0:0:0:0:
156,88,130955,6,0,L|156:160,1,70
48,192,131383,1,8,0:0:0:0:
48,304,131597,1,0,0:0:0:0:
156,340,131811,2,0,L|228:340,1,70
226,340,132240,1,8,0:0:0:0:
420,228,132669,6,0,L|420:300,2,70,0|0|8,0:0|0:0|0:0,0:0:0:0:
420,116,133311,1,0,0:0:0:0:
308,116,133526,2,0,L|220:116,2,70,0|0|8,0:0|0:0|0:0,0:0:0:0:
192,32,134383,5,0,0:0:0:0:
100,96,134598,1,0,0:0:0:0:
12,164,134812,2,0,L|12:234,1,70,8|0,0:0|0:0,0:0:0:0:
124,232,135241,2,0,L|124:302,1,70
124,302,135669,1,8,0:0:0:0:
344,352,136098,6,0,L|344:268,1,70
456,276,136526,1,8,0:0:0:0:
500,172,136740,1,0,0:0:0:0:
420,96,136955,2,0,L|368:48,1,70
368,48,137383,1,8,0:0:0:0:
144,44,137812,6,0,L|144:149,1,93.3333333333333,8|0,0:0|0:0,0:0:0:0:
68,140,138241,2,0,L|68:256,1,93.3333333333333,8|0,0:0|0:0,0:0:0:0:
144,244,138669,2,0,L|144:353,1,93.3333333333333,8|0,0:0|0:0,0:0:0:0:
144,337,139098,1,8,0:0:0:0:
256,144,139526,5,8,0:0:0:0:
372,48,139812,1,0,0:0:0:0:
372,48,139955,2,0,L|458:126,1,93.3333333333333,8|0,0:0|0:0,0:0:0:0:
444,184,140383,2,0,L|374:246,1,93.3333333333333,8|0,0:0|0:0,0:0:0:0:
374,246,140811,1,8,0:0:0:0:
180,360,141241,6,0,P|151:322|154:260,1,93.3333333333333,8|0,0:0|0:0,0:0:0:0:
104,220,141669,2,0,B|80:176|80:176|34:155,1,93.3333333333333,8|0,0:0|0:0,0:0:0:0:
24,84,142098,2,0,L|100:28,1,93.3333333333333,8|0,0:0|0:0,0:0:0:0:
99,28,142526,1,8,0:0:0:0:
324,28,142955,6,0,B|363:45|363:45|387:89,1,93.3333333333333,8|0,0:0|0:0,0:0:0:0:
320,120,143383,2,0,B|344:164|344:164|390:185,1,93.3333333333333,8|0,0:0|0:0,0:0:0:0:
452,212,143812,2,0,B|434:251|434:251|390:275,1,93.3333333333333,8|0,0:0|0:0,0:0:0:0:
390,275,144240,1,8,0:0:0:0:
180,352,144669,5,10,0:0:0:0:
44,292,144955,1,0,0:0:0:0:
44,292,145098,2,0,B|62:253|62:253|106:229,1,93.3333333333333,10|0,0:0|0:0,0:0:0:0:
180,212,145526,2,0,B|163:173|163:173|119:149,1,93.3333333333333,10|0,0:0|0:0,0:0:0:0:
118,148,145955,1,10,0:0:0:0:
340,112,146383,6,0,L|415:38,1,93.3333333333333,10|0,0:0|0:0,0:0:0:0:
480,68,146812,2,0,L|498:183,1,93.3333333333333,10|0,0:0|0:0,0:0:0:0:
480,236,147241,2,0,L|413:301,1,93.3333333333333,10|0,0:0|0:0,0:0:0:0:
413,300,147669,1,10,0:0:0:0:
192,348,148098,5,10,0:0:0:0:
54,289,148383,1,8,0:0:0:0:
54,289,148526,2,0,L|54:233,6,46.6666666666667,10|8|8|10|8|8|10,0:0|0:0|0:0|0:0|0:0|0:0|0:0,0:0:0:0:
127,158,149669,6,0,L|183:158,1,46.6666666666667,0|2,0:0|0:0,0:0:0:0:
261,279,150098,2,0,L|261:331,1,46.6666666666667,0|2,0:0|0:0,0:0:0:0:
261,279,150669,6,0,B|200:309|200:309|135:277,1,140
116,52,151526,6,0,B|164:52|164:52|196:84,1,93.3333333333333,8|0,0:0|0:0,0:0:0:0:
272,96,151955,2,0,P|312:104|344:144,1,93.3333333333333,8|0,0:0|0:0,0:0:0:0:
416,164,152383,2,0,L|512:164,1,93.3333333333333,8|0,0:0|0:0,0:0:0:0:
509,164,152811,1,8,0:0:0:0:
392,356,153240,6,0,B|344:372|344:372|296:356,1,93.3333333333333,8|0,0:0|0:0,0:0:0:0:
300,284,153669,2,0,L|300:188,1,93.3333333333333,8|0,0:0|0:0,0:0:0:0:
224,188,154097,2,0,P|176:172|136:188,1,93.3333333333333,8|0,0:0|0:0,0:0:0:0:
137,186,154526,1,8,0:0:0:0:
0,12,154955,6,0,L|100:74,1,93.3333333333333,8|0,0:0|0:0,0:0:0:0:
80,136,155383,2,0,L|-20:198,1,93.3333333333333,8|0,0:0|0:0,0:0:0:0:
0,260,155812,2,0,L|100:322,1,93.3333333333333,8|0,0:0|0:0,0:0:0:0:
140,352,156241,1,8,0:0:0:0:
364,352,156669,6,0,L|364:256,1,93.3333333333333,8|0,0:0|0:0,0:0:0:0:
424,212,157098,2,0,L|503:139,1,93.3333333333333,8|0,0:0|0:0,0:0:0:0:
492,72,157526,2,0,L|409:16,1,93.3333333333333,8|0,0:0|0:0,0:0:0:0:
414,19,157955,1,8,0:0:0:0:
212,116,158383,6,0,L|212:19,1,93.3333333333333,8|0,0:0|0:0,0:0:0:0:
136,20,158812,2,0,L|48:84,1,93.3333333333333,8|0,0:0|0:0,0:0:0:0:
108,132,159241,2,0,L|183:186,1,93.3333333333333,8|0,0:0|0:0,0:0:0:0:
183,186,159669,1,8,0:0:0:0:
256,344,160097,5,8,0:0:0:0:
400,312,160383,1,0,0:0:0:0:
400,312,160526,2,0,L|400:200,1,93.3333333333333,8|0,0:0|0:0,0:0:0:0:
448,160,160955,2,0,L|448:64,1,93.3333333333333,8|0,0:0|0:0,0:0:0:0:
448,66,161383,1,8,0:0:0:0:
224,44,161812,6,0,P|176:32|128:44,1,93.3333333333333,8|0,0:0|0:0,0:0:0:0:
132,116,162241,2,0,L|132:224,1,93.3333333333333,8|0,0:0|0:0,0:0:0:0:
208,212,162669,2,0,L|208:324,1,93.3333333333333,8|0,0:0|0:0,0:0:0:0:
160,364,163098,1,8,0:0:0:0:
160,364,163526,5,8,0:0:0:0:
20,192,163954,2,0,L|20:52,1,140,8|8,0:0|0:0,0:0:0:0:
240,16,164812,5,8,0:0:0:0:
456,80,165240,2,0,P|464:128|456:172,1,93.3333333333333,8|0,0:0|0:0,0:0:0:0:
384,188,165669,2,0,P|376:236|384:281,1,93.3333333333333,8|0,0:0|0:0,0:0:0:0:
364,352,166097,2,0,L|270:352,1,93.3333333333333,8|0,0:0|0:0,0:0:0:0:
204,320,166526,2,0,P|196:272|204:228,1,93.3333333333333,8|0,0:0|0:0,0:0:0:0:
236,160,166955,2,0,P|244:112|236:68,1,93.3333333333333,8|0,0:0|0:0,0:0:0:0:
172,32,167383,2,0,L|78:32,1,93.3333333333333,8|0,0:0|0:0,0:0:0:0:
32,92,167812,2,0,L|32:196,1,93.3333333333333,8|0,0:0|0:0,0:0:0:0:
32,185,168240,1,8,0:0:0:0:
219,332,168669,6,0,P|267:344|328:320,1,93.3333333333333,8|0,0:0|0:0,0:0:0:0:
267,262,169098,2,0,P|315:250|374:279,1,93.3333333333333,8|0,0:0|0:0,0:0:0:0:
432,264,169526,2,0,P|444:219|433:174,1,93.3333333333333,8|0,0:0|0:0,0:0:0:0:
433,174,169955,1,8,0:0:0:0:
212,204,170383,6,0,L|212:92,1,93.3333333333333,8|0,0:0|0:0,0:0:0:0:
136,108,170812,2,0,L|32:108,1,93.3333333333333,8|0,0:0|0:0,0:0:0:0:
44,32,171241,2,0,L|144:32,1,93.3333333333333,8|0,0:0|0:0,0:0:0:0:
137,32,171669,1,8,0:0:0:0:
360,32,172097,6,0,B|344:80|344:80|360:128,1,93.3333333333333,8|0,0:0|0:0,0:0:0:0:
432,124,172526,2,0,B|448:172|448:172|434:212,1,93.3333333333333,8|0,0:0|0:0,0:0:0:0:
432,288,172955,2,0,L|328:288,1,93.3333333333333,8|0,0:0|0:0,0:0:0:0:
308,356,173383,2,0,L|204:356,1,93.3333333333333,8|0,0:0|0:0,0:0:0:0:
156,308,173812,2,0,P|172:260|156:212,1,93.3333333333333,8|0,0:0|0:0,0:0:0:0:
100,176,174240,2,0,P|89:131|105:87,1,93.3333333333333,8|0,0:0|0:0,0:0:0:0:
156,32,174669,2,0,L|268:32,1,93.3333333333333,8|0,0:0|0:0,0:0:0:0:
249,32,175097,1,8,0:0:0:0:
240,256,175526,6,0,B|288:272|288:272|336:256,1,93.3333333333333,8|0,0:0|0:0,0:0:0:0:
332,184,175955,2,0,B|380:168|380:168|420:182,1,93.3333333333333,8|0,0:0|0:0,0:0:0:0:
480,224,176384,2,0,L|480:336,1,93.3333333333333,8|0,0:0|0:0,0:0:0:0:
480,317,176812,1,8,0:0:0:0:
260,352,177241,1,0,0:0:0:0:
112,184,177669,1,0,0:0:0:0:
260,352,178098,1,0,0:0:0:0:
112,184,178526,6,0,L|112:264,1,70,8|0,0:0|0:0,0:0:0:0:
220,220,178955,2,0,L|220:292,1,70,8|0,0:0|0:0,0:0:0:0:
328,252,179384,2,0,L|328:324,2,70,8|0|8,0:0|0:0|0:0,0:0:0:0:
436,288,180026,1,0,0:0:0:0:
436,288,180241,1,8,0:0:0:0:
436,288,180669,5,8,0:0:0:0:
508,204,180883,1,0,0:0:0:0:
400,176,181098,1,8,0:0:0:0:
400,64,181312,1,0,0:0:0:0:
308,128,181526,1,8,0:0:0:0:
308,16,181740,1,0,0:0:0:0:
208,68,181955,1,8,0:0:0:0:
40,216,182383,6,0,L|-8:288,1,70,8|0,0:0|0:0,0:0:0:0:
68,364,182812,2,0,L|105:304,1,70,8|0,0:0|0:0,0:0:0:0:
176,216,183241,2,0,L|272:216,2,70,8|0|8,0:0|0:0|0:0,0:0:0:0:
344,364,184098,6,0,L|392:300,1,70,8|0,0:0|0:0,0:0:0:0:
386,308,184526,1,8,0:0:0:0:
500,308,184741,1,0,0:0:0:0:
440,216,184955,2,0,L|440:144,2,70,8|0|8,0:0|0:0|0:0,0:0:0:0:
312,32,185812,5,8,0:0:0:0:
200,32,186026,1,0,0:0:0:0:
256,132,186241,1,8,0:0:0:0:
144,128,186454,1,0,0:0:0:0:
144,128,186669,1,8,0:0:0:0:
200,224,186883,1,0,0:0:0:0:
200,224,187098,1,8,0:0:0:0:
20,360,187526,6,0,L|88:304,1,70,8|0,0:0|0:0,0:0:0:0:
188,316,187955,2,0,L|242:360,1,70,8|0,0:0|0:0,0:0:0:0:
352,364,188383,2,0,L|428:364,1,70,8|0,0:0|0:0,0:0:0:0:
508,292,188812,1,8,0:0:0:0:
508,68,189241,5,8,0:0:0:0:
408,20,189455,1,0,0:0:0:0:
340,108,189669,1,8,0:0:0:0:
256,36,189883,1,0,0:0:0:0:
172,108,190098,1,8,0:0:0:0:
104,20,190312,1,0,0:0:0:0:
4,68,190526,1,8,0:0:0:0:
76,280,190954,6,0,L|76:360,1,70,8|0,0:0|0:0,0:0:0:0:
164,280,191383,2,0,L|164:200,1,70,8|0,0:0|0:0,0:0:0:0:
164,210,191812,1,2,0:0:0:0:
