osu file format v14

[General]
AudioFilename: audio.mp3
AudioLeadIn: 0
PreviewTime: 56177
Countdown: 1
SampleSet: Normal
StackLeniency: 0.7
Mode: 1
LetterboxInBreaks: 0
WidescreenStoryboard: 0

[Editor]
Bookmarks: 7684,14259,27410,40561,56999,63574,70150,76725
DistanceSpacing: 0.5
BeatDivisor: 4
GridSize: 32
TimelineZoom: 1.5

[Metadata]
Title:Mikansei Stride (TV Size)
TitleUnicode:未完成ストライド (TV Size)
Artist:Codama Saori
ArtistUnicode:こだまさおり
Creator:gaston_2199
Version:Oni
Source:氷菓
Tags:Hyouka op opening 2 anime pop j-pop jpop japanese kyoto animation single 中山真斗 Masato Nakayama Elements Garden Chitanda Eru 千反田 える Oreki Houtarou 折木 奉太郎 Mayaka Ibara 伊原 摩耶花 Satoshi Fukube 福部 里志
BeatmapID:1593305
BeatmapSetID:757379

[Difficulty]
HPDrainRate:5
CircleSize:2
OverallDifficulty:5
ApproachRate:10
SliderMultiplier:1.4
SliderTickRate:1

[Events]
//Background and Video events
0,0,"BG Oni.jpg",0,60
//Break Periods
//Storyboard Layer 0 (Background)
//Storyboard Layer 1 (Fail)
//Storyboard Layer 2 (Pass)
//Storyboard Layer 3 (Foreground)
//Storyboard Layer 4 (Overlay)
//Storyboard Sound Samples

[TimingPoints]
1111,410.958904109589,4,1,0,80,1,0
1111,-111.111111111111,4,1,0,70,0,0
6761,-109.58904109589,4,1,0,70,0,0
6864,-108.108108108108,4,1,0,70,0,0
6967,-106.666666666667,4,1,0,70,0,0
7069,-105.263157894737,4,1,0,70,0,0
7275,-103.896103896104,4,1,0,70,0,0
7378,-102.564102564103,4,1,0,70,0,0
7480,-101.26582278481,4,1,0,70,0,0
7686,-100,4,1,0,80,0,0
14467,-111.111111111111,4,1,0,60,0,0
26384,-109.58904109589,4,1,0,60,0,0
26487,-108.108108108108,4,1,0,60,0,0
26590,-106.666666666667,4,1,0,60,0,0
26795,-105.263157894737,4,1,0,60,0,0
27001,-103.896103896104,4,1,0,60,0,0
27206,-102.564102564103,4,1,0,60,0,0
27309,-101.26582278481,4,1,0,60,0,0
27412,-100,4,1,0,80,0,0
40768,-111.111111111111,4,1,0,70,0,0
56076,-109.58904109589,4,1,0,70,0,0
56179,-108.108108108108,4,1,0,70,0,0
56282,-106.666666666667,4,1,0,70,0,0
56384,-105.263157894737,4,1,0,70,0,0
56590,-103.896103896104,4,1,0,70,0,0
56795,-102.564102564103,4,1,0,70,0,0
56898,-101.26582278481,4,1,0,70,0,0
57001,-100,4,1,0,90,0,1
69330,-100,4,1,0,80,0,0
70152,-100,4,1,0,90,0,1
83302,-100,4,1,0,80,0,0

[HitObjects]
256,192,1111,5,0,0:0:0:0:
256,192,1316,1,0,0:0:0:0:
256,192,1521,1,0,0:0:0:0:
256,192,2138,1,8,0:0:0:0:
256,192,2343,1,8,0:0:0:0:
256,192,2549,1,8,0:0:0:0:
256,192,4398,1,0,0:0:0:0:
256,192,4604,1,0,0:0:0:0:
256,192,4809,1,0,0:0:0:0:
256,192,5426,1,8,0:0:0:0:
256,192,5631,1,8,0:0:0:0:
256,192,5837,1,8,0:0:0:0:
256,192,6247,1,0,0:0:0:0:
256,192,6453,1,12,0:0:0:0:
256,192,6761,1,0,0:0:0:0:
256,192,6864,1,8,0:0:0:0:
256,192,6967,1,8,0:0:0:0:
256,192,7069,1,0,0:0:0:0:
256,192,7275,1,8,0:0:0:0:
256,192,7378,1,8,0:0:0:0:
256,192,7480,1,0,0:0:0:0:
256,192,7686,1,12,0:0:0:0:
256,192,7891,1,0,0:0:0:0:
256,192,7994,1,0,0:0:0:0:
256,192,8097,1,8,0:0:0:0:
256,192,8302,1,0,0:0:0:0:
256,192,8508,1,8,0:0:0:0:
256,192,8713,1,0,0:0:0:0:
256,192,8816,1,0,0:0:0:0:
256,192,8919,1,8,0:0:0:0:
256,192,9124,1,0,0:0:0:0:
256,192,9330,1,8,0:0:0:0:
256,192,9535,1,0,0:0:0:0:
256,192,9741,1,8,0:0:0:0:
256,192,9946,1,8,0:0:0:0:
256,192,10357,1,0,0:0:0:0:
256,192,10460,1,8,0:0:0:0:
256,192,10563,1,0,0:0:0:0:
256,192,10768,1,0,0:0:0:0:
256,192,10974,1,8,0:0:0:0:
256,192,11179,1,0,0:0:0:0:
256,192,11282,1,0,0:0:0:0:
256,192,11384,1,8,0:0:0:0:
256,192,11590,1,0,0:0:0:0:
256,192,11795,1,8,0:0:0:0:
256,192,12001,1,0,0:0:0:0:
256,192,12104,1,0,0:0:0:0:
256,192,12206,1,8,0:0:0:0:
256,192,12412,1,0,0:0:0:0:
256,192,12617,1,8,0:0:0:0:
256,192,12720,1,8,0:0:0:0:
256,192,12823,1,0,0:0:0:0:
256,192,12926,1,0,0:0:0:0:
256,192,13028,1,8,0:0:0:0:
256,192,13234,1,8,0:0:0:0:
256,192,13439,1,0,0:0:0:0:
256,192,13645,1,8,0:0:0:0:
256,192,13747,1,8,0:0:0:0:
256,192,13850,1,0,0:0:0:0:
256,192,13953,1,0,0:0:0:0:
256,187,14056,1,8,0:0:0:0:
256,152,14158,1,8,0:0:0:0:
256,191,14261,1,0,0:0:0:0:
256,192,14672,1,8,0:0:0:0:
256,192,14878,1,8,0:0:0:0:
256,192,15083,1,0,0:0:0:0:
256,192,15289,1,0,0:0:0:0:
256,192,15494,1,8,0:0:0:0:
256,192,15700,1,0,0:0:0:0:
256,192,16110,1,8,0:0:0:0:
256,192,16316,1,0,0:0:0:0:
256,192,16521,1,8,0:0:0:0:
256,192,16932,1,0,0:0:0:0:
256,192,17138,1,0,0:0:0:0:
256,192,17343,1,8,0:0:0:0:
256,192,17754,1,0,0:0:0:0:
256,192,17960,1,8,0:0:0:0:
256,192,18165,1,8,0:0:0:0:
256,192,18371,1,0,0:0:0:0:
256,192,18576,1,0,0:0:0:0:
256,192,18782,1,8,0:0:0:0:
256,192,18987,1,0,0:0:0:0:
256,192,19398,1,8,0:0:0:0:
256,192,19604,1,8,0:0:0:0:
256,192,19809,1,0,0:0:0:0:
256,192,20837,1,0,0:0:0:0:
256,192,21247,1,8,0:0:0:0:
256,192,21453,1,8,0:0:0:0:
256,192,21658,1,0,0:0:0:0:
256,192,21864,1,0,0:0:0:0:
256,192,22069,1,8,0:0:0:0:
256,192,22275,1,0,0:0:0:0:
256,192,22686,1,8,0:0:0:0:
256,192,22891,1,0,0:0:0:0:
256,192,23097,1,8,0:0:0:0:
256,192,23508,1,8,0:0:0:0:
256,192,23713,1,8,0:0:0:0:
256,192,23919,1,0,0:0:0:0:
256,192,24535,1,8,0:0:0:0:
256,192,24741,1,0,0:0:0:0:
256,192,25357,1,8,0:0:0:0:
256,192,25563,1,8,0:0:0:0:
256,192,26384,1,8,0:0:0:0:
256,192,26487,1,0,0:0:0:0:
256,192,26590,1,8,0:0:0:0:
256,192,26795,1,0,0:0:0:0:
256,192,27001,1,8,0:0:0:0:
256,192,27206,1,8,0:0:0:0:
256,192,27309,1,8,0:0:0:0:
256,192,27412,1,4,0:0:0:0:
256,192,27617,1,0,0:0:0:0:
256,192,27823,1,8,0:0:0:0:
256,192,28028,1,0,0:0:0:0:
256,192,28131,1,0,0:0:0:0:
256,192,28234,1,8,0:0:0:0:
256,192,28439,1,0,0:0:0:0:
256,192,28645,1,8,0:0:0:0:
256,192,28850,1,8,0:0:0:0:
256,192,28953,1,8,0:0:0:0:
256,192,29056,1,0,0:0:0:0:
256,192,29261,1,0,0:0:0:0:
256,192,29467,1,8,0:0:0:0:
256,192,29672,1,0,0:0:0:0:
256,192,30083,1,0,0:0:0:0:
256,192,30289,1,8,0:0:0:0:
256,192,30494,1,0,0:0:0:0:
256,192,30597,1,0,0:0:0:0:
256,192,30700,1,8,0:0:0:0:
256,192,30905,1,0,0:0:0:0:
256,192,31110,1,8,0:0:0:0:
256,192,31316,1,8,0:0:0:0:
256,192,31419,1,8,0:0:0:0:
256,192,31521,1,8,0:0:0:0:
256,192,31727,1,0,0:0:0:0:
256,192,31932,1,8,0:0:0:0:
256,192,32138,1,0,0:0:0:0:
256,192,32241,1,8,0:0:0:0:
256,192,32343,1,0,0:0:0:0:
256,192,32549,1,0,0:0:0:0:
256,192,32754,1,8,0:0:0:0:
256,192,32960,1,0,0:0:0:0:
256,192,33371,1,0,0:0:0:0:
256,192,33576,1,8,0:0:0:0:
256,192,33782,1,8,0:0:0:0:
256,192,33884,1,0,0:0:0:0:
256,192,33987,1,8,0:0:0:0:
256,192,34193,1,0,0:0:0:0:
256,192,34398,1,8,0:0:0:0:
256,192,34604,1,0,0:0:0:0:
256,192,34706,1,0,0:0:0:0:
256,192,34809,1,8,0:0:0:0:
256,192,35015,1,0,0:0:0:0:
256,192,35220,1,8,0:0:0:0:
256,192,35426,1,8,0:0:0:0:
256,192,35528,1,0,0:0:0:0:
256,192,35631,1,0,0:0:0:0:
256,192,35837,1,0,0:0:0:0:
256,192,36042,1,8,0:0:0:0:
256,192,36247,1,0,0:0:0:0:
256,192,36658,1,0,0:0:0:0:
256,192,36864,1,8,0:0:0:0:
256,192,37069,1,0,0:0:0:0:
256,192,37172,1,0,0:0:0:0:
256,192,37275,1,8,0:0:0:0:
256,192,37480,1,0,0:0:0:0:
256,192,37686,1,8,0:0:0:0:
256,192,37891,1,0,0:0:0:0:
256,192,37994,1,0,0:0:0:0:
256,192,38097,1,0,0:0:0:0:
256,192,38302,1,0,0:0:0:0:
256,192,38508,1,8,0:0:0:0:
256,192,38713,1,0,0:0:0:0:
256,192,39124,1,0,0:0:0:0:
256,192,39330,1,8,0:0:0:0:
256,192,39535,1,0,0:0:0:0:
256,192,39638,1,0,0:0:0:0:
256,192,39741,1,0,0:0:0:0:
256,192,39946,1,8,0:0:0:0:
256,192,40152,1,8,0:0:0:0:
256,192,40254,1,8,0:0:0:0:
256,192,40357,1,0,0:0:0:0:
256,192,40563,1,4,0:0:0:0:
256,192,41179,1,0,0:0:0:0:
256,192,41590,1,0,0:0:0:0:
256,192,41795,1,8,0:0:0:0:
256,192,42206,1,0,0:0:0:0:
238,183,42617,1,8,0:0:0:0:
256,192,42823,1,0,0:0:0:0:
256,192,43234,1,0,0:0:0:0:
256,192,43439,1,0,0:0:0:0:
256,192,43850,1,8,0:0:0:0:
256,192,44467,1,8,0:0:0:0:
256,192,44878,1,0,0:0:0:0:
256,192,45083,1,8,0:0:0:0:
256,192,45494,1,0,0:0:0:0:
256,192,45700,1,0,0:0:0:0:
238,183,45905,1,8,0:0:0:0:
256,192,46111,1,0,0:0:0:0:
256,192,46521,1,0,0:0:0:0:
256,192,46727,1,8,0:0:0:0:
256,192,47138,1,0,0:0:0:0:
256,192,47754,1,0,0:0:0:0:
256,192,48165,1,0,0:0:0:0:
256,192,48371,1,8,0:0:0:0:
256,192,48782,1,0,0:0:0:0:
256,192,48987,1,0,0:0:0:0:
256,192,49398,1,0,0:0:0:0:
256,192,49809,1,0,0:0:0:0:
256,192,50015,1,8,0:0:0:0:
256,192,50426,1,4,0:0:0:0:
256,192,50837,1,0,0:0:0:0:
256,192,51042,1,8,0:0:0:0:
256,192,51247,1,0,0:0:0:0:
256,192,51658,1,8,0:0:0:0:
256,192,51864,1,0,0:0:0:0:
256,192,52275,1,0,0:0:0:0:
256,192,52686,1,0,0:0:0:0:
256,192,52891,1,8,0:0:0:0:
256,192,53302,1,0,0:0:0:0:
256,192,53713,1,8,0:0:0:0:
256,192,54124,1,8,0:0:0:0:
256,192,54330,1,0,0:0:0:0:
256,192,54535,1,8,0:0:0:0:
256,192,54946,1,8,0:0:0:0:
256,192,55152,1,8,0:0:0:0:
256,192,55357,1,0,0:0:0:0:
256,192,55768,1,8,0:0:0:0:
256,192,56076,1,0,0:0:0:0:
256,192,56179,1,8,0:0:0:0:
256,192,56282,1,8,0:0:0:0:
256,192,56384,1,0,0:0:0:0:
256,192,56590,1,8,0:0:0:0:
256,192,56795,1,8,0:0:0:0:
256,192,56898,1,8,0:0:0:0:
256,192,57001,1,4,0:0:0:0:
256,192,57206,1,0,0:0:0:0:
256,192,57412,1,8,0:0:0:0:
256,192,57617,1,0,0:0:0:0:
256,192,57720,1,0,0:0:0:0:
256,192,57823,1,0,0:0:0:0:
256,192,58028,1,0,0:0:0:0:
256,192,58234,1,8,0:0:0:0:
256,192,58439,1,8,0:0:0:0:
256,192,58542,1,8,0:0:0:0:
256,192,58645,1,0,0:0:0:0:
256,192,58850,1,0,0:0:0:0:
256,192,59056,1,8,0:0:0:0:
256,192,59467,1,8,0:0:0:0:
256,192,59672,1,0,0:0:0:0:
256,192,59878,1,8,0:0:0:0:
256,192,60083,1,0,0:0:0:0:
256,192,60186,1,0,0:0:0:0:
256,192,60289,1,0,0:0:0:0:
256,192,60700,1,8,0:0:0:0:
256,192,60905,1,0,0:0:0:0:
256,192,61008,1,0,0:0:0:0:
256,192,61110,1,8,0:0:0:0:
256,192,61316,1,0,0:0:0:0:
256,192,61521,1,8,0:0:0:0:
256,192,61727,1,8,0:0:0:0:
256,192,61830,1,8,0:0:0:0:
256,192,61932,1,0,0:0:0:0:
256,192,62138,1,0,0:0:0:0:
256,192,62343,1,8,0:0:0:0:
256,192,62652,1,0,0:0:0:0:
256,192,62754,1,8,0:0:0:0:
256,192,62857,1,8,0:0:0:0:
256,192,62960,1,0,0:0:0:0:
256,192,63165,1,8,0:0:0:0:
256,192,63371,1,0,0:0:0:0:
256,192,63474,1,0,0:0:0:0:
256,192,63576,1,12,0:0:0:0:
256,192,63782,1,0,0:0:0:0:
256,192,63987,1,8,0:0:0:0:
256,192,64193,1,0,0:0:0:0:
256,192,64295,1,0,0:0:0:0:
256,192,64398,1,0,0:0:0:0:
256,192,64604,1,0,0:0:0:0:
256,192,64809,1,8,0:0:0:0:
256,192,65015,1,8,0:0:0:0:
256,192,65117,1,8,0:0:0:0:
256,192,65220,1,0,0:0:0:0:
256,192,65426,1,0,0:0:0:0:
256,192,65631,1,8,0:0:0:0:
256,192,66042,1,8,0:0:0:0:
256,192,66247,1,0,0:0:0:0:
256,192,66453,1,8,0:0:0:0:
256,192,66658,1,0,0:0:0:0:
256,192,66761,1,0,0:0:0:0:
256,192,66864,1,0,0:0:0:0:
256,192,67275,1,8,0:0:0:0:
256,192,67480,1,8,0:0:0:0:
256,192,67583,1,8,0:0:0:0:
256,192,67686,1,0,0:0:0:0:
256,192,67891,1,0,0:0:0:0:
256,192,68097,1,8,0:0:0:0:
256,192,68302,1,0,0:0:0:0:
256,192,68405,1,8,0:0:0:0:
256,192,68508,1,0,0:0:0:0:
256,192,68713,1,0,0:0:0:0:
256,192,68919,1,8,0:0:0:0:
256,192,69227,1,0,0:0:0:0:
256,192,69330,1,8,0:0:0:0:
256,192,69432,1,0,0:0:0:0:
256,192,69535,1,8,0:0:0:0:
256,192,69741,1,8,0:0:0:0:
256,192,69946,1,8,0:0:0:0:
256,192,70049,1,8,0:0:0:0:
256,192,70152,1,4,0:0:0:0:
256,192,70357,1,0,0:0:0:0:
256,192,70563,1,8,0:0:0:0:
256,192,70768,1,0,0:0:0:0:
256,192,70871,1,0,0:0:0:0:
256,192,70974,1,8,0:0:0:0:
256,192,71076,1,8,0:0:0:0:
256,192,71179,1,0,0:0:0:0:
256,192,71384,1,8,0:0:0:0:
256,192,71590,1,8,0:0:0:0:
256,192,71693,1,8,0:0:0:0:
256,192,71795,1,0,0:0:0:0:
256,192,72001,1,0,0:0:0:0:
256,192,72206,1,8,0:0:0:0:
256,192,72412,1,0,0:0:0:0:
256,192,72823,1,0,0:0:0:0:
256,192,73028,1,8,0:0:0:0:
256,192,73234,1,0,0:0:0:0:
256,192,73337,1,0,0:0:0:0:
256,192,73439,1,8,0:0:0:0:
256,192,73645,1,0,0:0:0:0:
256,192,73850,1,8,0:0:0:0:
256,192,74056,1,0,0:0:0:0:
256,192,74158,1,8,0:0:0:0:
256,192,74261,1,0,0:0:0:0:
256,192,74467,1,0,0:0:0:0:
256,192,74672,1,8,0:0:0:0:
256,192,74878,1,0,0:0:0:0:
256,192,74980,1,8,0:0:0:0:
256,192,75083,1,8,0:0:0:0:
256,192,75186,1,8,0:0:0:0:
256,192,75289,1,0,0:0:0:0:
256,192,75494,1,8,0:0:0:0:
256,192,75700,1,8,0:0:0:0:
256,192,75802,1,8,0:0:0:0:
256,192,75905,1,0,0:0:0:0:
256,192,76111,1,0,0:0:0:0:
256,192,76316,1,8,0:0:0:0:
256,192,76727,1,4,0:0:0:0:
256,192,76932,1,0,0:0:0:0:
256,192,77035,1,0,0:0:0:0:
256,192,77138,1,8,0:0:0:0:
256,192,77343,1,8,0:0:0:0:
256,192,77446,1,0,0:0:0:0:
256,192,77549,1,8,0:0:0:0:
256,192,77754,1,0,0:0:0:0:
256,192,77960,1,8,0:0:0:0:
256,192,78165,1,8,0:0:0:0:
256,192,78268,1,8,0:0:0:0:
256,192,78371,1,0,0:0:0:0:
238,156,78474,1,0,0:0:0:0:
256,192,78576,1,0,0:0:0:0:
256,192,78782,1,8,0:0:0:0:
256,192,78987,1,8,0:0:0:0:
245,161,79090,1,8,0:0:0:0:
267,129,79193,1,8,0:0:0:0:
246,55,79398,1,0,0:0:0:0:
256,192,79604,1,8,0:0:0:0:
256,192,79809,1,0,0:0:0:0:
215,112,80220,1,0,0:0:0:0:
256,192,80426,1,8,0:0:0:0:
256,192,80631,1,8,0:0:0:0:
256,192,81042,1,0,0:0:0:0:
256,192,81247,1,8,0:0:0:0:
256,192,81453,1,8,0:0:0:0:
256,192,81556,1,8,0:0:0:0:
256,192,81658,1,8,0:0:0:0:
256,192,81864,1,0,0:0:0:0:
256,192,82069,1,8,0:0:0:0:
256,192,82275,1,0,0:0:0:0:
256,192,82378,1,0,0:0:0:0:
256,192,82480,1,8,0:0:0:0:
256,192,82583,1,8,0:0:0:0:
256,192,82686,1,0,0:0:0:0:
256,192,82789,1,0,0:0:0:0:
256,192,82891,1,8,0:0:0:0:
256,192,83097,1,8,0:0:0:0:
256,192,83200,1,8,0:0:0:0:
256,192,83302,1,4,0:0:0:0:
256,192,83508,1,0,0:0:0:0:
256,192,83611,1,0,0:0:0:0:
256,192,83713,1,8,0:0:0:0:
256,192,83919,1,0,0:0:0:0:
256,192,84330,1,0,0:0:0:0:
256,192,84535,1,12,0:0:0:0:
256,192,84741,1,0,0:0:0:0:
256,192,84843,1,0,0:0:0:0:
248,189,84946,1,0,0:0:0:0:
256,192,85152,1,8,0:0:0:0:
256,192,85357,1,0,0:0:0:0:
256,192,85563,1,0,0:0:0:0:
256,192,85665,1,0,0:0:0:0:
256,192,85768,1,8,0:0:0:0:
248,189,85974,1,8,0:0:0:0:
256,192,86076,1,8,0:0:0:0:
256,192,86179,1,0,0:0:0:0:
256,192,86282,1,0,0:0:0:0:
256,192,86384,1,8,0:0:0:0:
256,192,86487,1,8,0:0:0:0:
256,192,86590,1,0,0:0:0:0:
256,192,87206,1,8,0:0:0:0:
256,192,87823,1,0,0:0:0:0:
256,192,88439,1,8,0:0:0:0:
256,192,89056,1,8,0:0:0:0:
256,192,89467,1,4,0:0:0:0:
