osu file format v14

[General]
AudioFilename: audio.mp3
AudioLeadIn: 0
PreviewTime: 56177
Countdown: 1
SampleSet: Normal
StackLeniency: 0.7
Mode: 1
LetterboxInBreaks: 0
WidescreenStoryboard: 1

[Editor]
Bookmarks: 7684,14259,27410,40561,56999,63574,70150,76725
DistanceSpacing: 0.5
BeatDivisor: 4
GridSize: 32
TimelineZoom: 1.6

[Metadata]
Title:Mikansei Stride (TV Size)
TitleUnicode:未完成ストライド (TV Size)
Artist:Codama Saori
ArtistUnicode:こだまさおり
Creator:gaston_2199
Version:Muzukashii
Source:氷菓
Tags:Hyouka op opening 2 anime pop j-pop jpop japanese kyoto animation single 中山真斗 Masato Nakayama Elements Garden Chitanda Eru 千反田 える Oreki Houtarou 折木 奉太郎 Mayaka Ibara 伊原 摩耶花 Satoshi Fukube 福部 里志
BeatmapID:1593308
BeatmapSetID:757379

[Difficulty]
HPDrainRate:6
CircleSize:2
OverallDifficulty:4
ApproachRate:10
SliderMultiplier:1.4
SliderTickRate:1

[Events]
//Background and Video events
0,0,"BG Muzukashii.jpg",0,0
//Break Periods
//Storyboard Layer 0 (Background)
//Storyboard Layer 1 (Fail)
//Storyboard Layer 2 (Pass)
//Storyboard Layer 3 (Foreground)
//Storyboard Layer 4 (Overlay)
//Storyboard Sound Samples

[TimingPoints]
1111,410.958904109589,4,1,0,80,1,0
1111,-111.111111111111,4,1,0,70,0,0
6864,-109.090909090909,4,1,0,70,0,0
6967,-107.142857142857,4,1,0,70,0,0
7069,-105.263157894737,4,1,0,70,0,0
7275,-103.448275862069,4,1,0,70,0,0
7480,-101.694915254237,4,1,0,70,0,0
7686,-100,4,1,0,80,0,0
14467,-111.111111111111,4,1,0,60,0,0
26384,-108.695652173913,4,1,0,60,0,0
26590,-106.382978723404,4,1,0,60,0,0
26795,-104.166666666667,4,1,0,60,0,0
27206,-102.040816326531,4,1,0,60,0,0
27412,-100,4,1,0,80,0,0
40768,-111.111111111111,4,1,0,70,0,0
56179,-108.695652173913,4,1,0,70,0,0
56282,-107.52688172043,4,1,0,70,0,0
56384,-106.382978723404,4,1,0,70,0,0
56590,-104.166666666667,4,1,0,70,0,0
56795,-102.040816326531,4,1,0,70,0,0
57001,-100,4,1,0,90,0,1
69330,-100,4,1,0,80,0,0
70152,-100,4,1,0,90,0,1
83302,-100,4,1,0,80,0,0

[HitObjects]
256,192,1111,5,0,0:0:0:0:
256,192,1316,1,0,0:0:0:0:
256,192,1521,1,0,0:0:0:0:
256,192,2138,1,8,0:0:0:0:
256,192,2343,1,8,0:0:0:0:
256,192,2549,1,8,0:0:0:0:
256,192,4398,1,0,0:0:0:0:
256,192,4604,1,0,0:0:0:0:
256,192,4809,1,0,0:0:0:0:
256,192,5426,1,8,0:0:0:0:
256,192,5631,1,8,0:0:0:0:
256,192,5837,1,8,0:0:0:0:
256,192,6247,1,0,0:0:0:0:
256,192,6453,1,12,0:0:0:0:
256,192,6864,1,8,0:0:0:0:
256,192,6967,1,8,0:0:0:0:
256,192,7069,1,8,0:0:0:0:
256,192,7275,1,8,0:0:0:0:
256,192,7480,1,0,0:0:0:0:
256,192,7686,1,12,0:0:0:0:
256,192,7891,1,0,0:0:0:0:
256,192,8097,1,8,0:0:0:0:
256,192,8508,1,8,0:0:0:0:
256,192,8713,1,0,0:0:0:0:
256,192,8919,1,8,0:0:0:0:
256,192,9330,1,8,0:0:0:0:
256,192,9535,1,0,0:0:0:0:
256,192,9741,1,8,0:0:0:0:
256,192,9946,1,8,0:0:0:0:
256,192,10563,1,0,0:0:0:0:
256,192,10768,1,0,0:0:0:0:
256,192,10974,1,8,0:0:0:0:
256,192,11179,1,0,0:0:0:0:
256,192,11384,1,8,0:0:0:0:
256,192,11795,1,8,0:0:0:0:
256,192,12001,1,0,0:0:0:0:
256,192,12206,1,8,0:0:0:0:
256,192,12617,1,0,0:0:0:0:
263,144,12720,1,0,0:0:0:0:
256,192,12823,1,0,0:0:0:0:
256,192,13028,1,8,0:0:0:0:
256,192,13234,1,8,0:0:0:0:
259,160,13439,1,0,0:0:0:0:
256,192,13645,1,8,0:0:0:0:
256,192,13747,1,8,0:0:0:0:
256,192,13850,1,8,0:0:0:0:
256,192,14056,1,8,0:0:0:0:
256,192,14261,1,0,0:0:0:0:
227,142,14672,1,8,0:0:0:0:
256,192,15083,1,0,0:0:0:0:
241,186,15494,1,8,0:0:0:0:
263,113,15700,1,0,0:0:0:0:
231,93,16110,1,8,0:0:0:0:
256,192,16521,1,8,0:0:0:0:
256,192,16932,1,0,0:0:0:0:
256,192,17343,1,8,0:0:0:0:
256,192,17754,1,0,0:0:0:0:
256,192,17960,1,8,0:0:0:0:
256,192,18371,1,0,0:0:0:0:
256,192,18782,1,8,0:0:0:0:
256,192,18987,1,0,0:0:0:0:
256,192,19398,1,0,0:0:0:0:
256,192,19604,1,8,0:0:0:0:
256,192,19809,1,0,0:0:0:0:
256,192,20837,1,0,0:0:0:0:
256,192,21247,1,8,0:0:0:0:
256,192,21658,1,0,0:0:0:0:
256,192,22069,1,8,0:0:0:0:
256,192,22275,1,0,0:0:0:0:
256,192,22686,1,8,0:0:0:0:
256,192,23097,1,8,0:0:0:0:
256,192,23508,1,0,0:0:0:0:
256,192,23919,1,0,0:0:0:0:
256,192,24535,1,8,0:0:0:0:
256,192,24741,1,0,0:0:0:0:
256,192,25357,1,8,0:0:0:0:
256,192,25563,1,8,0:0:0:0:
256,192,26384,1,8,0:0:0:0:
256,192,26590,1,8,0:0:0:0:
256,192,26795,1,0,0:0:0:0:
256,192,27206,1,8,0:0:0:0:
256,192,27412,1,4,0:0:0:0:
256,192,27617,1,8,0:0:0:0:
256,192,28028,1,0,0:0:0:0:
256,192,28234,1,8,0:0:0:0:
256,192,28439,1,0,0:0:0:0:
256,192,28645,1,8,0:0:0:0:
256,192,28850,1,8,0:0:0:0:
256,192,29261,1,0,0:0:0:0:
256,192,29467,1,8,0:0:0:0:
256,192,29672,1,0,0:0:0:0:
256,192,30289,1,8,0:0:0:0:
256,192,30494,1,0,0:0:0:0:
256,192,30700,1,8,0:0:0:0:
256,192,31110,1,0,0:0:0:0:
256,192,31316,1,8,0:0:0:0:
256,192,31419,1,8,0:0:0:0:
256,192,31521,1,8,0:0:0:0:
256,192,31727,1,0,0:0:0:0:
256,192,31932,1,8,0:0:0:0:
256,192,32138,1,0,0:0:0:0:
256,192,32549,1,0,0:0:0:0:
256,192,32754,1,8,0:0:0:0:
256,192,32960,1,0,0:0:0:0:
256,192,33576,1,8,0:0:0:0:
256,192,33782,1,0,0:0:0:0:
256,192,33987,1,8,0:0:0:0:
256,192,34193,1,8,0:0:0:0:
256,192,34604,1,8,0:0:0:0:
256,192,34809,1,8,0:0:0:0:
256,192,35015,1,0,0:0:0:0:
256,192,35220,1,8,0:0:0:0:
256,192,35426,1,0,0:0:0:0:
256,192,35837,1,0,0:0:0:0:
256,192,36042,1,8,0:0:0:0:
256,192,36247,1,0,0:0:0:0:
256,192,36864,1,8,0:0:0:0:
256,192,37069,1,0,0:0:0:0:
256,192,37275,1,8,0:0:0:0:
256,192,37686,1,8,0:0:0:0:
256,192,37891,1,0,0:0:0:0:
256,192,37994,1,0,0:0:0:0:
256,192,38097,1,0,0:0:0:0:
256,192,38302,1,0,0:0:0:0:
256,192,38508,1,8,0:0:0:0:
256,192,38713,1,0,0:0:0:0:
256,192,39124,1,0,0:0:0:0:
256,192,39330,1,8,0:0:0:0:
256,192,39741,1,0,0:0:0:0:
256,192,39946,1,8,0:0:0:0:
256,192,40152,1,8,0:0:0:0:
256,192,40254,1,8,0:0:0:0:
256,192,40357,1,8,0:0:0:0:
256,192,40563,1,4,0:0:0:0:
256,192,41179,1,0,0:0:0:0:
256,192,41795,1,8,0:0:0:0:
256,192,42206,1,0,0:0:0:0:
263,174,42823,1,0,0:0:0:0:
256,192,43439,1,0,0:0:0:0:
256,192,43850,1,8,0:0:0:0:
256,192,44467,1,0,0:0:0:0:
256,192,45083,1,8,0:0:0:0:
256,192,45494,1,0,0:0:0:0:
256,192,45700,1,0,0:0:0:0:
256,192,46111,1,0,0:0:0:0:
256,192,46727,1,8,0:0:0:0:
256,192,47138,1,0,0:0:0:0:
256,192,47754,1,0,0:0:0:0:
256,192,48371,1,8,0:0:0:0:
256,192,48782,1,0,0:0:0:0:
256,192,48987,1,0,0:0:0:0:
256,192,49398,1,0,0:0:0:0:
256,192,50015,1,8,0:0:0:0:
256,192,50426,1,4,0:0:0:0:
256,192,50837,1,0,0:0:0:0:
256,192,51247,1,0,0:0:0:0:
256,192,51658,1,8,0:0:0:0:
256,192,51864,1,0,0:0:0:0:
256,192,52275,1,0,0:0:0:0:
256,192,52891,1,8,0:0:0:0:
256,192,53302,1,0,0:0:0:0:
256,192,53713,1,8,0:0:0:0:
256,192,54124,1,8,0:0:0:0:
256,192,54535,1,8,0:0:0:0:
256,192,54946,1,8,0:0:0:0:
256,192,55152,1,8,0:0:0:0:
256,192,55357,1,0,0:0:0:0:
256,192,55768,1,8,0:0:0:0:
256,192,56179,1,8,0:0:0:0:
286,188,56282,1,8,0:0:0:0:
256,192,56384,1,8,0:0:0:0:
256,192,56590,1,8,0:0:0:0:
256,192,56795,1,8,0:0:0:0:
256,192,57001,1,4,0:0:0:0:
256,192,57412,1,8,0:0:0:0:
256,192,57617,1,0,0:0:0:0:
256,192,58028,1,0,0:0:0:0:
256,192,58234,1,8,0:0:0:0:
256,192,58439,1,0,0:0:0:0:
256,192,58542,1,0,0:0:0:0:
256,192,58645,1,0,0:0:0:0:
256,192,58850,1,0,0:0:0:0:
256,192,59056,1,8,0:0:0:0:
256,192,59467,1,0,0:0:0:0:
127,113,59672,1,0,0:0:0:0:
256,192,59878,1,8,0:0:0:0:
256,192,60083,1,0,0:0:0:0:
256,192,60700,1,8,0:0:0:0:
277,161,60905,1,0,0:0:0:0:
256,192,61110,1,8,0:0:0:0:
256,192,61316,1,0,0:0:0:0:
256,192,61727,1,8,0:0:0:0:
167,89,61932,1,0,0:0:0:0:
256,192,62138,1,0,0:0:0:0:
256,192,62343,1,8,0:0:0:0:
256,192,62754,1,8,0:0:0:0:
256,192,62857,1,8,0:0:0:0:
256,192,62960,1,8,0:0:0:0:
256,192,63165,1,8,0:0:0:0:
256,192,63371,1,0,0:0:0:0:
256,192,63576,1,12,0:0:0:0:
256,192,63987,1,8,0:0:0:0:
256,192,64193,1,0,0:0:0:0:
256,192,64604,1,0,0:0:0:0:
256,192,64809,1,8,0:0:0:0:
256,192,65015,1,0,0:0:0:0:
256,192,65117,1,0,0:0:0:0:
256,192,65220,1,0,0:0:0:0:
256,192,65426,1,0,0:0:0:0:
256,192,65631,1,8,0:0:0:0:
256,192,66042,1,0,0:0:0:0:
139,103,66247,1,0,0:0:0:0:
256,192,66453,1,8,0:0:0:0:
256,192,66658,1,0,0:0:0:0:
256,192,67275,1,8,0:0:0:0:
256,192,67480,1,0,0:0:0:0:
256,192,67891,1,0,0:0:0:0:
256,192,68097,1,8,0:0:0:0:
256,192,68302,1,0,0:0:0:0:
184,29,68508,1,0,0:0:0:0:
131,146,68713,1,0,0:0:0:0:
256,192,68919,1,8,0:0:0:0:
256,192,69330,1,8,0:0:0:0:
256,192,69432,1,8,0:0:0:0:
256,192,69535,1,8,0:0:0:0:
256,192,69741,1,8,0:0:0:0:
256,192,69946,1,8,0:0:0:0:
256,192,70152,1,4,0:0:0:0:
256,192,70563,1,8,0:0:0:0:
256,192,70768,1,0,0:0:0:0:
256,192,71179,1,0,0:0:0:0:
256,192,71384,1,8,0:0:0:0:
256,192,71590,1,8,0:0:0:0:
256,192,71693,1,8,0:0:0:0:
256,192,71795,1,8,0:0:0:0:
256,192,72001,1,0,0:0:0:0:
256,192,72206,1,8,0:0:0:0:
229,77,72412,1,0,0:0:0:0:
187,2,72823,1,0,0:0:0:0:
256,192,73028,1,8,0:0:0:0:
256,192,73234,1,0,0:0:0:0:
189,96,73645,1,8,0:0:0:0:
151,156,73850,1,0,0:0:0:0:
256,192,74056,1,8,0:0:0:0:
256,192,74467,1,0,0:0:0:0:
242,197,74672,1,8,0:0:0:0:
256,192,74878,1,0,0:0:0:0:
256,192,74980,1,0,0:0:0:0:
256,192,75083,1,0,0:0:0:0:
256,192,75289,1,0,0:0:0:0:
256,192,75494,1,8,0:0:0:0:
168,135,76111,1,0,0:0:0:0:
256,192,76316,1,8,0:0:0:0:
256,192,76727,1,4,0:0:0:0:
256,192,77138,1,8,0:0:0:0:
256,192,77343,1,0,0:0:0:0:
256,192,77549,1,8,0:0:0:0:
256,192,77960,1,8,0:0:0:0:
256,192,78165,1,0,0:0:0:0:
240,181,78268,1,0,0:0:0:0:
212,161,78371,1,0,0:0:0:0:
256,192,78576,1,0,0:0:0:0:
256,192,78782,1,8,0:0:0:0:
256,192,78987,1,8,0:0:0:0:
187,76,79398,1,0,0:0:0:0:
256,192,79604,1,8,0:0:0:0:
256,192,79809,1,0,0:0:0:0:
212,150,80220,1,0,0:0:0:0:
256,192,80426,1,8,0:0:0:0:
256,192,80631,1,8,0:0:0:0:
256,192,81247,1,8,0:0:0:0:
256,192,81453,1,0,0:0:0:0:
263,150,81556,1,0,0:0:0:0:
256,192,81658,1,0,0:0:0:0:
256,192,81864,1,0,0:0:0:0:
256,192,82069,1,8,0:0:0:0:
256,192,82275,1,8,0:0:0:0:
256,192,82378,1,8,0:0:0:0:
256,192,82480,1,8,0:0:0:0:
256,192,82686,1,0,0:0:0:0:
256,192,82891,1,8,0:0:0:0:
256,192,83097,1,8,0:0:0:0:
256,192,83302,1,4,0:0:0:0:
256,192,83713,1,8,0:0:0:0:
256,192,83919,1,0,0:0:0:0:
256,192,84330,1,0,0:0:0:0:
256,192,84535,1,12,0:0:0:0:
256,192,84946,1,0,0:0:0:0:
256,192,85152,1,8,0:0:0:0:
256,192,85563,1,0,0:0:0:0:
256,192,85768,1,8,0:0:0:0:
248,189,85974,1,0,0:0:0:0:
256,192,86179,1,8,0:0:0:0:
256,192,86282,1,8,0:0:0:0:
256,192,86384,1,8,0:0:0:0:
256,192,86590,1,0,0:0:0:0:
256,192,87206,1,8,0:0:0:0:
256,192,87823,1,0,0:0:0:0:
256,192,88439,1,8,0:0:0:0:
256,192,89056,1,8,0:0:0:0:
256,192,89467,1,4,0:0:0:0:
