osu file format v14

[General]
AudioFilename: audio.mp3
AudioLeadIn: 0
PreviewTime: 56177
Countdown: 1
SampleSet: Normal
StackLeniency: 0.7
Mode: 1
LetterboxInBreaks: 0
WidescreenStoryboard: 1

[Editor]
Bookmarks: 7684,14259,27410,40561,56999,63574,70150,76725
DistanceSpacing: 1
BeatDivisor: 2
GridSize: 32
TimelineZoom: 0.2999997

[Metadata]
Title:Mikansei Stride (TV Size)
TitleUnicode:未完成ストライド (TV Size)
Artist:Codama Saori
ArtistUnicode:こだまさおり
Creator:gaston_2199
Version:Kantan
Source:氷菓
Tags:Hyouka op opening 2 anime pop j-pop jpop japanese kyoto animation single 中山真斗 Masato Nakayama Elements Garden Chitanda Eru 千反田 える Oreki Houtarou 折木 奉太郎 Mayaka Ibara 伊原 摩耶花 Satoshi Fukube 福部 里志
BeatmapID:1593307
BeatmapSetID:757379

[Difficulty]
HPDrainRate:8
CircleSize:2
OverallDifficulty:2
ApproachRate:10
SliderMultiplier:1.4
SliderTickRate:1

[Events]
//Background and Video events
0,0,"BG Kantan.jpg",0,50
//Break Periods
//Storyboard Layer 0 (Background)
//Storyboard Layer 1 (Fail)
//Storyboard Layer 2 (Pass)
//Storyboard Layer 3 (Foreground)
//Storyboard Layer 4 (Overlay)
//Storyboard Sound Samples

[TimingPoints]
1111,410.958904109589,4,1,0,70,1,0
1111,-100,4,1,0,70,0,0
7686,-100,4,1,0,80,0,0
14467,-100,4,1,0,60,0,0
27412,-100,4,1,0,80,0,0
40768,-100,4,1,0,70,0,0
57001,-100,4,1,0,90,0,1
69330,-100,4,1,0,80,0,0
70152,-100,4,1,0,90,0,1
83302,-100,4,1,0,80,0,0

[HitObjects]
256,192,1111,5,0,0:0:0:0:
256,192,2138,1,8,0:0:0:0:
256,192,4398,1,0,0:0:0:0:
256,192,5426,1,8,0:0:0:0:
256,192,6864,1,8,0:0:0:0:
256,192,7275,1,0,0:0:0:0:
256,192,7686,1,12,0:0:0:0:
256,192,8508,1,0,0:0:0:0:
256,192,9330,1,8,0:0:0:0:
256,192,9741,1,0,0:0:0:0:
256,192,10563,1,0,0:0:0:0:
256,192,10974,1,8,0:0:0:0:
256,192,11795,1,0,0:0:0:0:
256,192,12617,1,0,0:0:0:0:
256,192,13028,1,8,0:0:0:0:
192,71,13439,1,0,0:0:0:0:
256,192,13850,1,8,0:0:0:0:
256,192,14261,1,0,0:0:0:0:
256,192,15905,1,8,0:0:0:0:
234,166,16727,1,8,0:0:0:0:
256,192,17549,1,0,0:0:0:0:
256,192,18371,1,8,0:0:0:0:
256,192,19193,1,0,0:0:0:0:
256,192,20837,1,0,0:0:0:0:
166,84,21658,1,0,0:0:0:0:
256,192,22480,1,8,0:0:0:0:
256,192,23302,1,8,0:0:0:0:
256,192,24124,1,0,0:0:0:0:
256,192,25768,1,8,0:0:0:0:
256,192,27412,1,4,0:0:0:0:
256,192,28234,1,0,0:0:0:0:
256,192,28645,1,8,0:0:0:0:
256,192,29056,1,0,0:0:0:0:
256,192,30700,1,0,0:0:0:0:
256,192,31521,1,8,0:0:0:0:
256,192,31932,1,8,0:0:0:0:
256,192,32343,1,0,0:0:0:0:
256,192,33165,1,8,0:0:0:0:
256,192,33987,1,0,0:0:0:0:
256,192,34809,1,8,0:0:0:0:
256,192,35220,1,8,0:0:0:0:
256,192,35631,1,0,0:0:0:0:
256,192,37275,1,0,0:0:0:0:
256,192,38097,1,0,0:0:0:0:
256,192,38508,1,8,0:0:0:0:
256,192,38919,1,0,0:0:0:0:
256,192,39741,1,8,0:0:0:0:
256,192,40152,1,8,0:0:0:0:
256,192,40563,1,4,0:0:0:0:
256,192,42206,1,0,0:0:0:0:
256,192,43850,1,8,0:0:0:0:
256,192,45494,1,0,0:0:0:0:
256,192,46316,1,0,0:0:0:0:
256,192,47138,1,0,0:0:0:0:
256,192,48782,1,0,0:0:0:0:
256,192,50426,1,4,0:0:0:0:
256,192,51247,1,0,0:0:0:0:
256,192,52069,1,8,0:0:0:0:
256,192,53713,1,8,0:0:0:0:
256,192,54535,1,8,0:0:0:0:
256,192,55357,1,0,0:0:0:0:
35,141,56179,1,8,0:0:0:0:
35,141,56590,1,8,0:0:0:0:
256,192,57001,1,4,0:0:0:0:
160,98,57412,1,8,0:0:0:0:
256,192,58234,1,8,0:0:0:0:
176,75,58645,1,0,0:0:0:0:
183,23,59056,1,8,0:0:0:0:
288,192,60289,1,0,0:0:0:0:
176,129,60700,1,0,0:0:0:0:
288,192,61110,1,8,0:0:0:0:
288,192,61932,1,0,0:0:0:0:
256,192,62754,1,8,0:0:0:0:
256,192,63165,1,0,0:0:0:0:
256,192,63576,1,12,0:0:0:0:
256,192,63987,1,8,0:0:0:0:
256,192,64809,1,8,0:0:0:0:
256,192,65220,1,0,0:0:0:0:
233,74,65631,1,8,0:0:0:0:
256,192,66864,1,0,0:0:0:0:
244,178,67686,1,0,0:0:0:0:
256,192,68097,1,8,0:0:0:0:
288,192,68508,1,0,0:0:0:0:
288,192,69330,1,8,0:0:0:0:
256,192,69741,1,8,0:0:0:0:
256,192,70152,1,4,0:0:0:0:
288,192,70974,1,0,0:0:0:0:
256,192,71384,1,8,0:0:0:0:
288,192,71795,1,0,0:0:0:0:
288,192,72617,1,8,0:0:0:0:
256,192,73439,1,0,0:0:0:0:
288,192,73850,1,0,0:0:0:0:
256,192,74261,1,8,0:0:0:0:
288,192,75083,1,0,0:0:0:0:
256,160,75494,1,8,0:0:0:0:
288,192,76727,1,4,0:0:0:0:
256,192,77549,1,8,0:0:0:0:
172,121,78371,1,0,0:0:0:0:
256,192,78782,1,8,0:0:0:0:
256,192,79193,1,8,0:0:0:0:
256,192,80015,1,0,0:0:0:0:
256,192,80837,1,8,0:0:0:0:
288,192,81658,1,0,0:0:0:0:
288,192,82069,1,0,0:0:0:0:
288,192,82480,1,8,0:0:0:0:
288,192,82891,1,8,0:0:0:0:
288,192,83302,1,4,0:0:0:0:
288,192,84535,1,12,0:0:0:0:
288,192,85768,1,8,0:0:0:0:
288,192,86179,1,8,0:0:0:0:
288,192,86590,1,0,0:0:0:0:
288,192,87823,1,0,0:0:0:0:
256,192,89467,1,4,0:0:0:0:
