osu file format v14

[General]
AudioFilename: audio.mp3
AudioLeadIn: 0
PreviewTime: 56177
Countdown: 1
SampleSet: Normal
StackLeniency: 0.7
Mode: 1
LetterboxInBreaks: 0
WidescreenStoryboard: 1

[Editor]
Bookmarks: 7684,14259,27410,40561,56999,63574,70150,76725
DistanceSpacing: 1
BeatDivisor: 2
GridSize: 32
TimelineZoom: 1.1

[Metadata]
Title:Mikansei Stride (TV Size)
TitleUnicode:未完成ストライド (TV Size)
Artist:Codama Saori
ArtistUnicode:こだまさおり
Creator:gaston_2199
Version:Futsuu
Source:氷菓
Tags:Hyouka op opening 2 anime pop j-pop jpop japanese kyoto animation single 中山真斗 Masato Nakayama Elements Garden Chitanda Eru 千反田 える Oreki Houtarou 折木 奉太郎 Mayaka Ibara 伊原 摩耶花 Satoshi Fukube 福部 里志
BeatmapID:1593306
BeatmapSetID:757379

[Difficulty]
HPDrainRate:7
CircleSize:2
OverallDifficulty:3
ApproachRate:10
SliderMultiplier:1.4
SliderTickRate:1

[Events]
//Background and Video events
0,0,"BG Futsuu.jpg",0,60
//Break Periods
//Storyboard Layer 0 (Background)
//Storyboard Layer 1 (Fail)
//Storyboard Layer 2 (Pass)
//Storyboard Layer 3 (Foreground)
//Storyboard Layer 4 (Overlay)
//Storyboard Sound Samples

[TimingPoints]
1111,410.958904109589,4,1,0,70,1,0
1111,-100,4,1,0,70,0,0
7686,-100,4,1,0,80,0,0
14467,-100,4,1,0,60,0,0
27412,-100,4,1,0,80,0,0
40768,-100,4,1,0,70,0,0
57001,-100,4,1,0,90,0,1
69330,-100,4,1,0,80,0,0
70152,-100,4,1,0,90,0,1
83302,-100,4,1,0,80,0,0

[HitObjects]
256,192,1111,5,0,0:0:0:0:
256,192,1521,1,0,0:0:0:0:
256,192,2138,1,8,0:0:0:0:
256,192,2549,1,8,0:0:0:0:
256,192,4398,1,0,0:0:0:0:
256,192,4809,1,0,0:0:0:0:
256,192,5426,1,8,0:0:0:0:
256,192,5837,1,8,0:0:0:0:
256,192,6453,1,12,0:0:0:0:
256,192,6864,1,8,0:0:0:0:
256,192,7069,1,0,0:0:0:0:
256,192,7275,1,8,0:0:0:0:
256,192,7686,1,12,0:0:0:0:
256,192,8097,1,0,0:0:0:0:
256,192,8508,1,8,0:0:0:0:
256,192,8919,1,0,0:0:0:0:
256,192,9330,1,8,0:0:0:0:
256,192,9741,1,8,0:0:0:0:
256,192,9946,1,0,0:0:0:0:
256,192,10357,1,0,0:0:0:0:
256,192,10563,1,8,0:0:0:0:
256,192,10974,1,8,0:0:0:0:
256,192,11384,1,0,0:0:0:0:
256,192,11795,1,8,0:0:0:0:
256,192,12206,1,0,0:0:0:0:
256,192,12617,1,0,0:0:0:0:
149,101,12823,1,0,0:0:0:0:
256,192,13028,1,8,0:0:0:0:
194,34,13234,1,0,0:0:0:0:
256,192,13645,1,8,0:0:0:0:
256,192,13850,1,8,0:0:0:0:
256,192,14261,1,0,0:0:0:0:
189,67,14672,1,8,0:0:0:0:
256,192,15083,1,0,0:0:0:0:
256,192,15905,1,8,0:0:0:0:
256,192,16316,1,0,0:0:0:0:
256,192,16727,1,8,0:0:0:0:
256,192,17549,1,0,0:0:0:0:
199,83,17960,1,0,0:0:0:0:
256,192,18371,1,8,0:0:0:0:
160,64,18782,1,8,0:0:0:0:
256,192,19193,1,0,0:0:0:0:
256,192,20015,1,0,0:0:0:0:
256,192,20837,1,0,0:0:0:0:
178,67,21247,1,8,0:0:0:0:
256,192,21658,1,0,0:0:0:0:
256,192,22480,1,8,0:0:0:0:
256,192,22891,1,0,0:0:0:0:
256,192,23302,1,8,0:0:0:0:
256,192,24124,1,0,0:0:0:0:
256,192,24946,1,8,0:0:0:0:
256,192,25768,1,0,0:0:0:0:
187,92,26384,1,0,0:0:0:0:
256,192,26590,1,8,0:0:0:0:
256,192,27412,1,4,0:0:0:0:
256,192,28028,1,0,0:0:0:0:
256,192,28234,1,8,0:0:0:0:
256,192,28645,1,8,0:0:0:0:
256,192,28850,1,0,0:0:0:0:
256,192,29467,1,8,0:0:0:0:
256,192,29878,1,0,0:0:0:0:
256,192,30700,1,8,0:0:0:0:
177,84,31110,1,0,0:0:0:0:
256,192,31316,1,8,0:0:0:0:
220,154,31727,1,0,0:0:0:0:
256,192,32138,1,8,0:0:0:0:
264,71,32549,1,0,0:0:0:0:
256,192,32754,1,8,0:0:0:0:
256,192,33576,1,8,0:0:0:0:
256,192,33987,1,0,0:0:0:0:
256,192,34604,1,0,0:0:0:0:
256,192,34809,1,8,0:0:0:0:
256,192,35220,1,8,0:0:0:0:
256,192,35426,1,0,0:0:0:0:
256,192,36042,1,8,0:0:0:0:
256,192,36453,1,0,0:0:0:0:
256,192,37275,1,0,0:0:0:0:
256,192,37686,1,8,0:0:0:0:
256,192,37891,1,0,0:0:0:0:
256,192,38302,1,0,0:0:0:0:
256,192,38713,1,8,0:0:0:0:
230,123,39124,1,0,0:0:0:0:
256,192,39330,1,8,0:0:0:0:
256,192,39741,1,0,0:0:0:0:
256,192,40152,1,8,0:0:0:0:
256,192,40357,1,8,0:0:0:0:
256,192,40563,1,4,0:0:0:0:
256,192,41795,1,8,0:0:0:0:
256,192,42206,1,0,0:0:0:0:
256,192,43439,1,0,0:0:0:0:
256,192,43850,1,8,0:0:0:0:
256,192,45083,1,8,0:0:0:0:
256,192,45494,1,0,0:0:0:0:
256,192,45905,1,0,0:0:0:0:
256,192,46727,1,8,0:0:0:0:
256,192,47138,1,0,0:0:0:0:
256,192,48371,1,8,0:0:0:0:
256,192,48782,1,0,0:0:0:0:
256,192,50426,1,4,0:0:0:0:
256,192,51247,1,0,0:0:0:0:
256,192,51658,1,8,0:0:0:0:
256,192,52069,1,0,0:0:0:0:
256,192,52891,1,0,0:0:0:0:
256,192,53713,1,8,0:0:0:0:
256,192,54535,1,8,0:0:0:0:
256,192,54946,1,8,0:0:0:0:
256,192,55357,1,0,0:0:0:0:
256,192,56179,1,8,0:0:0:0:
197,141,56384,1,0,0:0:0:0:
256,192,56590,1,8,0:0:0:0:
256,192,57001,1,4,0:0:0:0:
256,192,57412,1,8,0:0:0:0:
236,134,57617,1,0,0:0:0:0:
256,192,58028,1,8,0:0:0:0:
256,192,58439,1,0,0:0:0:0:
256,192,58850,1,0,0:0:0:0:
247,132,59056,1,8,0:0:0:0:
268,40,59467,1,0,0:0:0:0:
223,11,60289,1,0,0:0:0:0:
256,192,60700,1,8,0:0:0:0:
256,192,61110,1,8,0:0:0:0:
256,192,61316,1,0,0:0:0:0:
256,192,61727,1,8,0:0:0:0:
256,192,62138,1,0,0:0:0:0:
256,192,62343,1,8,0:0:0:0:
256,192,62754,1,8,0:0:0:0:
256,192,62960,1,0,0:0:0:0:
256,192,63165,1,8,0:0:0:0:
256,192,63576,1,12,0:0:0:0:
256,192,63987,1,8,0:0:0:0:
256,192,64193,1,0,0:0:0:0:
256,192,64604,1,8,0:0:0:0:
256,192,65015,1,0,0:0:0:0:
256,192,65426,1,0,0:0:0:0:
256,192,65631,1,8,0:0:0:0:
256,192,66042,1,0,0:0:0:0:
256,192,66864,1,0,0:0:0:0:
256,192,67275,1,8,0:0:0:0:
256,192,67480,1,0,0:0:0:0:
256,192,67891,1,8,0:0:0:0:
256,192,68302,1,8,0:0:0:0:
256,192,68713,1,0,0:0:0:0:
256,192,68919,1,8,0:0:0:0:
256,192,69330,1,8,0:0:0:0:
256,192,69535,1,8,0:0:0:0:
256,192,69741,1,8,0:0:0:0:
256,192,70152,1,4,0:0:0:0:
146,104,70563,1,8,0:0:0:0:
256,192,70768,1,0,0:0:0:0:
210,61,71179,1,0,0:0:0:0:
256,192,71384,1,8,0:0:0:0:
257,143,71590,1,8,0:0:0:0:
256,192,72206,1,8,0:0:0:0:
254,129,72412,1,0,0:0:0:0:
149,65,72823,1,0,0:0:0:0:
256,192,73028,1,8,0:0:0:0:
256,192,73234,1,0,0:0:0:0:
256,192,73645,1,8,0:0:0:0:
256,192,74056,1,0,0:0:0:0:
256,192,74467,1,0,0:0:0:0:
256,192,74878,1,8,0:0:0:0:
209,52,75289,1,0,0:0:0:0:
256,192,75494,1,8,0:0:0:0:
256,192,75905,1,0,0:0:0:0:
256,192,76727,1,4,0:0:0:0:
256,192,77138,1,8,0:0:0:0:
256,192,77549,1,0,0:0:0:0:
256,192,77960,1,8,0:0:0:0:
256,192,78165,1,0,0:0:0:0:
256,192,78576,1,0,0:0:0:0:
256,192,78782,1,8,0:0:0:0:
256,192,78987,1,8,0:0:0:0:
256,192,79604,1,8,0:0:0:0:
256,192,79809,1,0,0:0:0:0:
256,192,80426,1,8,0:0:0:0:
256,192,80631,1,8,0:0:0:0:
191,12,81247,1,8,0:0:0:0:
256,192,81453,1,0,0:0:0:0:
217,57,81864,1,8,0:0:0:0:
256,192,82275,1,8,0:0:0:0:
256,192,82480,1,8,0:0:0:0:
256,192,82686,1,0,0:0:0:0:
256,192,82891,1,8,0:0:0:0:
256,192,83302,1,4,0:0:0:0:
256,192,83919,1,0,0:0:0:0:
256,192,84535,1,12,0:0:0:0:
256,192,85152,1,8,0:0:0:0:
256,192,85768,1,8,0:0:0:0:
256,192,86179,1,8,0:0:0:0:
256,192,86384,1,8,0:0:0:0:
256,192,86590,1,0,0:0:0:0:
256,192,87206,1,8,0:0:0:0:
256,192,87823,1,0,0:0:0:0:
256,192,89467,1,4,0:0:0:0:
