osu file format v14

[General]
AudioFilename: audio.mp3
AudioLeadIn: 0
PreviewTime: 56074
Countdown: 0
SampleSet: Soft
StackLeniency: 0.5
Mode: 0
LetterboxInBreaks: 0
WidescreenStoryboard: 0

[Editor]
Bookmarks: 10458,10869
DistanceSpacing: 1.6
BeatDivisor: 4
GridSize: 8
TimelineZoom: 2.6

[Metadata]
Title:Mikansei Stride
TitleUnicode:未完成ストライド
Artist:Codama Saori
ArtistUnicode:こだまさおり
Creator:Alexsander
Version:Insane
Source:氷菓
Tags:opening 2 Hyouka Chitanda Eru Oreki Houtarou Mayaka Ibara Satoshi Fukube Victorfernando
BeatmapID:1494120
BeatmapSetID:706624

[Difficulty]
HPDrainRate:6
CircleSize:4
OverallDifficulty:7
ApproachRate:8.5
SliderMultiplier:1.7
SliderTickRate:1

[Events]
//Background and Video events
0,0,"Hyouka bg.jpg",0,0
Video,0,"Hyouka OP 2.avi"
//Break Periods
//Storyboard Layer 0 (Background)
//Storyboard Layer 1 (Fail)
//Storyboard Layer 2 (Pass)
//Storyboard Layer 3 (Foreground)
//Storyboard Sound Samples

[TimingPoints]
1109,410.958904109589,4,2,1,70,1,0
3985,-133.333333333333,4,2,0,55,0,0
4293,-133.333333333333,4,2,0,5,0,0
4396,-100,4,2,0,70,0,0
6759,-100,4,2,1,30,0,0
6862,-100,4,2,1,70,0,0
7684,-100,4,2,1,50,0,0
14259,-117.647058823529,4,2,1,30,0,0
26999,-100,4,2,1,50,0,0
40561,-133.333333333333,4,2,1,40,0,0
50218,-100,4,2,1,50,0,0
56999,-90.9090909090909,4,2,1,60,0,1
83300,-100,4,2,1,40,0,0
86588,-100,4,2,1,30,0,0
89054,-100,4,2,1,40,0,0

[Colours]
Combo1 : 255,255,128
Combo2 : 102,205,255
Combo3 : 255,94,94
Combo4 : 217,160,55

[HitObjects]
49,53,1109,5,2,0:0:0:0:
161,128,1314,1,0,0:0:0:0:
49,204,1519,1,2,0:0:0:0:
466,53,2136,5,2,0:0:0:0:
354,128,2341,1,0,0:0:0:0:
466,204,2546,1,2,0:0:0:0:
278,338,3985,6,0,P|233:350|171:329,1,95.6250036478044,2|0,0:0|0:0,0:0:0:0:
163,305,4396,5,2,0:0:0:0:
88,193,4601,1,0,0:0:0:0:
12,305,4806,1,2,0:0:0:0:
348,30,5424,5,2,0:0:0:0:
423,142,5629,1,0,0:0:0:0:
499,30,5834,1,2,0:0:0:0:
254,169,6245,5,2,0:0:0:0:
155,51,6451,2,0,P|207:21|293:35,1,127.5,4|2,0:0|0:0,0:0:0:0:
306,44,6862,5,8,0:0:0:0:
343,52,6965,1,8,0:0:0:0:
380,45,7067,1,8,0:0:0:0:
497,77,7273,1,8,0:0:0:0:
505,114,7376,1,8,0:0:0:0:
498,151,7478,1,8,0:0:0:0:
355,246,7684,5,2,0:0:0:0:
284,150,7889,1,0,0:0:0:0:
428,202,8095,2,0,P|439:255|427:293,1,85,8|0,0:0|0:0,0:0:0:0:
329,363,8506,1,2,0:0:0:0:
355,244,8711,1,0,0:0:0:0:
222,303,8917,2,0,P|168:309|131:294,1,85,8|0,0:0|0:0,0:0:0:0:
48,183,9328,5,2,0:0:0:0:
183,231,9533,1,0,0:0:0:0:
48,290,9739,1,8,0:0:0:0:
137,156,9944,2,0,B|221:121|234:193|321:147,1,170
303,156,10458,1,0,0:0:0:0:
303,156,10561,1,8,0:0:0:0:
384,70,10766,1,0,0:0:0:0:
384,70,10869,1,0,0:0:0:0:
384,70,10972,5,2,0:0:0:0:
266,86,11177,1,0,0:0:0:0:
392,156,11382,2,0,P|439:163|498:143,1,85,8|0,0:0|0:0,0:0:0:0:
388,72,11793,1,2,0:0:0:0:
315,170,11999,1,0,0:0:0:0:
222,22,12204,2,0,P|263:13|305:21,1,85,8|0,0:0|0:0,0:0:0:0:
151,93,12615,6,2,L|97:92,1,42.5
15,171,12821,2,2,L|57:171,1,42.5
149,212,13026,1,8,0:0:0:0:
175,232,13128,1,2,0:0:0:0:
197,256,13232,2,0,L|195:348,1,85,2|0,0:0|0:0,0:0:0:0:
319,246,13643,5,8,0:0:0:0:
319,224,13745,1,0,0:0:0:0:
319,202,13848,1,0,0:0:0:0:
474,182,14054,1,8,0:0:0:0:
474,182,14156,1,0,0:0:0:0:
474,182,14259,5,2,0:0:0:0:
483,67,14465,1,2,0:0:0:0:
391,111,14670,2,0,L|391:183,1,72.2500013780594
319,256,15081,1,0,0:0:0:0:
218,269,15287,2,0,L|218:197,1,72.2500013780594,2|0,0:0|0:0,0:0:0:0:
118,185,15698,6,0,L|29:184,1,72.2500013780594,2|0,0:0|0:0,0:0:0:0:
146,270,16108,2,0,L|235:269,1,72.2500013780594,2|0,0:0|0:0,0:0:0:0:
284,171,16519,2,0,P|306:104|278:39,1,144.500002756119,2|0,0:0|0:0,0:0:0:0:
183,14,17136,1,0,0:0:0:0:
67,42,17341,2,0,P|38:106|60:174,1,144.500002756119,2|0,0:0|0:0,0:0:0:0:
152,214,17958,6,0,P|132:248|102:268,1,72.2500013780594,2|0,0:0|0:0,0:0:0:0:
26,258,18369,2,0,P|29:293|48:324,1,72.2500013780594,2|0,0:0|0:0,0:0:0:0:
139,344,18780,1,0,0:0:0:0:
243,294,18985,2,0,B|318:267|322:322|402:293,1,144.500002756119,2|0,0:0|0:0,0:0:0:0:
466,216,19602,1,0,0:0:0:0:
384,134,19807,2,0,B|310:107|306:162|243:138,1,144.500002756119,2|0,0:0|0:0,0:0:0:0:
270,42,20424,1,0,0:0:0:0:
378,214,20835,5,0,0:0:0:0:
296,273,21040,2,0,P|257:281|217:270,1,72.2500013780594,2|0,0:0|0:0,0:0:0:0:
150,194,21451,1,0,0:0:0:0:
110,296,21656,2,0,L|111:379,1,72.2500013780594,2|0,0:0|0:0,0:0:0:0:
0,313,22067,1,0,0:0:0:0:
16,199,22273,6,0,P|78:174|160:203,1,144.500002756119,2|0,0:0|0:0,0:0:0:0:
215,263,22889,1,0,0:0:0:0:
304,189,23095,2,0,P|326:114|293:51,1,144.500002756119,2|2,0:0|0:0,0:0:0:0:
190,95,23711,1,0,0:0:0:0:
283,27,23917,2,0,P|348:0|443:34,1,144.500002756119,2|0,0:0|0:0,0:0:0:0:
511,95,24533,1,0,0:0:0:0:
442,187,24739,6,0,P|377:214|282:180,1,144.500002756119,2|0,0:0|0:0,0:0:0:0:
225,136,25355,1,0,0:0:0:0:
144,219,25561,2,0,L|153:393,1,144.500002756119,2|0,0:0|0:0,0:0:0:0:
59,320,26177,1,0,0:0:0:0:
151,363,26382,5,2,0:0:0:0:
249,321,26588,1,0,0:0:0:0:
148,280,26793,1,2,0:0:0:0:
279,176,26999,5,8,0:0:0:0:
365,326,27204,1,8,0:0:0:0:
398,330,27307,1,0,0:0:0:0:
438,322,27410,6,0,L|433:229,1,85,0|2,0:0|0:0,0:0:0:0:
361,138,27821,1,8,0:0:0:0:
433,237,28026,1,2,0:0:0:0:
320,248,28232,2,0,P|277:257|223:241,1,85,0|2,0:0|0:0,0:0:0:0:
164,153,28643,1,8,0:0:0:0:
279,94,28848,6,0,P|288:137|272:191,1,85,2|0,0:0|0:0,0:0:0:0:
163,232,29259,1,2,0:0:0:0:
86,141,29465,1,8,0:0:0:0:
196,47,29670,2,0,P|274:19|367:49,1,170,2|2,0:0|0:0,0:0:0:0:
446,134,30287,1,8,0:0:0:0:
355,40,30492,1,2,0:0:0:0:
467,158,30698,6,0,P|463:208|425:251,1,85,0|2,0:0|0:0,0:0:0:0:
343,305,31109,1,8,0:0:0:0:
267,224,31314,2,0,L|267:139,1,85,2|0,0:0|0:0,0:0:0:0:
177,224,31725,2,0,L|177:308,1,85,2|8,0:0|0:0,0:0:0:0:
68,368,32136,6,0,L|67:283,1,85,2|0,0:0|0:0,0:0:0:0:
112,176,32547,1,2,0:0:0:0:
249,265,32752,2,0,P|273:182|239:104,1,170,8|0,0:0|0:0,0:0:0:0:
123,88,33369,1,2,0:0:0:0:
189,186,33574,1,8,0:0:0:0:
203,25,33780,1,2,0:0:0:0:
203,25,33882,1,0,0:0:0:0:
203,25,33985,6,0,P|247:15|293:25,1,85,0|2,0:0|0:0,0:0:0:0:
399,85,34396,1,8,0:0:0:0:
285,21,34602,1,2,0:0:0:0:
255,147,34807,2,0,P|250:200|278:251,1,85,0|2,0:0|0:0,0:0:0:0:
363,290,35218,1,8,0:0:0:0:
265,358,35424,6,0,P|222:366|171:352,1,85,2|0,0:0|0:0,0:0:0:0:
108,263,35835,1,2,0:0:0:0:
224,286,36040,1,8,0:0:0:0:
75,251,36245,2,0,P|51:171|81:91,1,170,2|2,0:0|0:0,0:0:0:0:
163,177,36862,1,8,0:0:0:0:
79,92,37067,1,2,0:0:0:0:
204,38,37273,6,0,P|248:30|293:39,1,85
394,88,37684,1,8,0:0:0:0:
292,178,37889,2,0,P|248:186|203:177,1,85,2|0,0:0|0:0,0:0:0:0:
204,38,38300,2,0,P|232:72|247:115,1,85,2|8,0:0|0:0,0:0:0:0:
141,271,38711,6,0,P|112:194|156:119,1,170,2|2,0:0|0:0,0:0:0:0:
332,90,39328,1,8,0:0:0:0:
210,204,39533,1,2,0:0:0:0:
204,38,39739,1,0,0:0:0:0:
292,178,39944,2,0,P|291:225|265:270,1,85,2|8,0:0|0:0,0:0:0:0:
274,258,40252,1,0,0:0:0:0:
274,258,40355,1,10,0:0:0:0:
328,362,40561,6,0,P|393:378|465:348,1,127.500004863739,6|0,0:0|0:0,0:0:0:0:
480,275,41177,1,0,0:0:0:0:
393,294,41382,1,0,3:0:0:0:
393,294,41588,2,0,L|393:213,1,63.7500024318696,2|8,0:0|0:0,0:0:0:0:
307,159,41999,1,2,0:0:0:0:
307,159,42204,2,0,L|308:235,1,63.7500024318696,4|0,0:0|0:0,0:0:0:0:
247,289,42615,5,0,0:0:0:0:
307,222,42821,1,0,0:0:0:0:
218,211,43026,1,2,0:0:0:0:
161,281,43232,2,0,P|103:299|25:271,1,127.500004863739,2|0,0:0|0:0,0:0:0:0:
38,161,43848,6,0,P|98:143|159:160,1,127.500004863739,4|0,0:0|3:0,0:0:0:0:
240,222,44465,2,0,L|241:74,1,127.500004863739,2|2,0:0|0:0,0:0:0:0:
240,94,44978,1,0,0:0:0:0:
240,94,45081,1,8,0:0:0:0:
306,33,45287,1,2,0:0:0:0:
433,33,45492,6,0,B|496:33,2,63.7500024318696,0|2|0,3:0|0:0|0:0,0:0:0:0:
381,89,46108,1,2,0:0:0:0:
451,120,46314,2,0,B|451:183,1,63.7500024318696,0|2,0:0|0:0,0:0:0:0:
359,222,46725,1,8,0:0:0:0:
420,307,46930,1,0,0:0:0:0:
420,307,47033,1,0,0:0:0:0:
420,307,47136,6,0,P|366:326|295:303,1,127.500004863739,4|0,0:0|0:0,0:0:0:0:
213,287,47752,2,0,P|219:256|238:230,1,63.7500024318696,2|0,0:0|3:0,0:0:0:0:
270,153,48163,1,2,0:0:0:0:
173,167,48369,1,8,0:0:0:0:
237,230,48574,6,0,P|267:238|299:232,1,63.7500024318696,2|0,0:0|3:0,0:0:0:0:
356,159,48985,1,2,0:0:0:0:
389,243,49191,1,0,3:0:0:0:
298,232,49396,1,2,0:0:0:0:
389,243,49602,2,0,P|424:247|466:231,1,63.7500024318696,0|0,3:0|0:0,0:0:0:0:
507,160,50013,1,8,0:0:0:0:
421,77,50218,1,0,0:0:0:0:
383,69,50321,1,0,0:0:0:0:
345,60,50424,6,0,L|256:66,1,85,0|0,0:0|3:0,0:0:0:0:
340,163,50835,1,8,0:0:0:0:
260,65,51040,2,0,L|171:71,1,85,0|0,3:0|0:0,0:0:0:0:
256,169,51451,2,0,L|345:163,1,85,0|8,3:0|0:0,0:0:0:0:
304,270,51862,2,0,L|219:275,1,85,0|0,3:0|0:0,0:0:0:0:
296,373,52273,1,0,3:0:0:0:
219,274,52478,1,8,0:0:0:0:
296,373,52684,1,0,3:0:0:0:
430,229,52889,6,0,P|437:179|410:129,1,85,0|0,0:0|3:0,0:0:0:0:
285,156,53300,2,0,P|324:187|381:188,1,85,0|0,0:0|3:0,0:0:0:0:
419,68,53711,2,0,P|372:86|342:135,1,85,0|0,3:0|0:0,0:0:0:0:
430,229,54122,1,0,3:0:0:0:
350,112,54328,1,0,0:0:0:0:
232,215,54533,2,0,L|147:219,1,85,0|0,3:0|0:0,0:0:0:0:
236,298,54944,2,0,L|320:293,1,85,8|0,0:0|0:0,0:0:0:0:
469,352,55355,5,0,3:0:0:0:
494,320,55766,6,0,P|504:255|452:182,1,127.5,12|0,0:0|0:0,0:0:0:0:
449,182,56177,1,8,0:0:0:0:
419,164,56280,1,0,0:0:0:0:
386,156,56382,1,8,0:0:0:0:
287,249,56588,1,8,0:0:0:0:
178,171,56793,1,8,0:0:0:0:
151,191,56896,1,0,0:0:0:0:
125,216,56999,6,0,L|124:326,1,93.5000028533936,4|0,0:0|0:0,0:0:0:0:
14,190,57410,1,8,0:0:0:0:
124,68,57615,2,0,P|170:57|221:68,1,93.5000028533936,2|0,0:0|0:0,0:0:0:0:
219,215,58026,2,0,P|186:180|170:130,1,93.5000028533936,2|8,0:0|0:0,0:0:0:0:
298,58,58437,2,0,P|284:103|249:142,1,93.5000028533936,2|0,0:0|0:0,0:0:0:0:
125,216,58848,2,0,L|231:214,1,93.5000028533936,2|8,0:0|0:0,0:0:0:0:
347,266,59259,5,2,0:0:0:0:
254,137,59465,1,0,0:0:0:0:
264,286,59670,1,2,0:0:0:0:
254,137,59876,1,8,0:0:0:0:
409,209,60081,6,0,P|459:225|499:218,1,93.5000028533936,2|4,0:0|0:0,0:0:0:0:
369,101,60492,1,2,0:0:0:0:
304,242,60698,2,0,P|254:258|214:251,1,93.5000028533936,8|0,0:0|0:0,0:0:0:0:
67,199,61108,2,0,P|117:183|157:190,1,93.5000028533936,0|2,0:0|0:0,0:0:0:0:
118,281,61519,1,8,0:0:0:0:
247,143,61725,6,0,P|297:127|337:134,1,93.5000028533936,6|0,0:0|0:0,0:0:0:0:
304,242,62136,1,2,0:0:0:0:
177,79,62341,2,0,P|127:63|87:70,1,93.5000028533936,8|0,0:0|0:0,0:0:0:0:
156,189,62752,1,8,0:0:0:0:
181,223,62855,1,0,0:0:0:0:
192,263,62958,1,10,0:0:0:0:
189,305,63061,1,0,0:0:0:0:
171,343,63163,1,8,0:0:0:0:
61,270,63369,1,2,0:0:0:0:
272,266,63574,6,0,L|393:267,1,93.5000028533936,4|0,0:0|0:0,0:0:0:0:
495,241,63985,1,8,0:0:0:0:
369,357,64191,2,0,P|357:306|372:253,1,93.5000028533936,2|0,0:0|0:0,0:0:0:0:
491,150,64602,2,0,P|503:201|488:254,1,93.5000028533936,2|8,0:0|0:0,0:0:0:0:
272,265,65013,2,0,L|385:267,1,93.5000028533936,2|0,0:0|0:0,0:0:0:0:
283,165,65424,2,0,L|190:167,1,93.5000028533936,2|8,0:0|0:0,0:0:0:0:
272,265,65835,1,2,0:0:0:0:
93,219,66040,6,0,P|80:177|91:123,1,93.5000028533936,0|2,0:0|0:0,0:0:0:0:
189,167,66451,1,8,0:0:0:0:
144,289,66656,2,0,P|102:302|48:291,1,93.5000028533936,2|4,0:0|0:0,0:0:0:0:
189,167,67067,1,2,0:0:0:0:
272,265,67273,1,8,0:0:0:0:
265,88,67478,6,0,P|312:75|374:99,1,93.5000028533936,2|0,0:0|0:0,0:0:0:0:
476,171,67889,2,0,P|429:158|367:182,1,93.5000028533936,2|8,0:0|0:0,0:0:0:0:
272,265,68300,2,0,P|319:252|381:276,1,93.5000028533936,6|0,0:0|0:0,0:0:0:0:
231,347,68711,1,2,0:0:0:0:
228,196,68917,1,8,0:0:0:0:
318,325,69122,1,2,0:0:0:0:
149,254,69328,5,8,0:0:0:0:
149,254,69430,1,0,0:0:0:0:
149,254,69533,1,10,0:0:0:0:
231,347,69739,1,0,0:0:0:0:
236,204,69944,1,2,0:0:0:0:
236,204,70047,1,0,0:0:0:0:
236,204,70150,6,0,P|245:156|214:96,1,93.5000028533936,4|0,0:0|0:0,0:0:0:0:
108,45,70561,1,8,0:0:0:0:
0,168,70766,2,0,P|98:197|187:150,1,187.000005706787,2|0,0:0|0:0,0:0:0:0:
220,43,71382,1,8,0:0:0:0:
344,168,71588,2,0,P|246:197|157:150,1,187.000005706787,2|0,0:0|0:0,0:0:0:0:
148,44,72204,5,8,0:0:0:0:
87,197,72410,2,0,L|89:298,1,93.5000028533936,2|0,0:0|0:0,0:0:0:0:
173,377,72821,1,2,0:0:0:0:
88,290,73026,1,8,0:0:0:0:
244,296,73232,6,0,L|349:296,1,93.5000028533936,6|0,0:0|0:0,0:0:0:0:
440,214,73643,1,2,0:0:0:0:
337,296,73848,1,8,0:0:0:0:
283,159,74054,2,0,P|274:109|295:53,1,93.5000028533936,6|0,0:0|0:0,0:0:0:0:
403,9,74465,1,2,0:0:0:0:
285,68,74670,1,8,0:0:0:0:
421,139,74876,6,0,P|475:138|515:109,1,93.5000028533936,6|0,0:0|0:0,0:0:0:0:
403,9,75287,1,2,0:0:0:0:
285,68,75492,2,0,P|239:77|173:58,1,93.5000028533936,8|2,0:0|0:0,0:0:0:0:
81,11,75903,1,0,0:0:0:0:
193,68,76109,1,0,0:0:0:0:
108,174,76314,2,0,L|10:171,1,93.5000028533936,8|2,0:0|0:0,0:0:0:0:
291,85,76725,6,0,P|337:72|397:90,1,93.5000028533936,4|2,0:0|0:0,0:0:0:0:
197,178,77136,2,0,P|151:165|91:183,1,93.5000028533936,8|2,0:0|0:0,0:0:0:0:
291,256,77547,2,0,P|337:243|397:261,1,93.5000028533936,0|2,0:0|0:0,0:0:0:0:
317,360,77958,1,8,0:0:0:0:
203,267,78163,6,0,P|188:223|197:177,1,93.5000028533936,6|0,0:0|0:0,0:0:0:0:
291,256,78574,1,2,0:0:0:0:
118,261,78780,1,8,0:0:0:0:
302,174,78985,2,0,P|322:82|262:6,1,187.000005706787,2|2,0:0|0:0,0:0:0:0:
151,11,79602,1,8,0:0:0:0:
61,139,79807,6,0,P|107:152|167:134,1,93.5000028533936,6|0,0:0|0:0,0:0:0:0:
246,103,80218,1,2,0:0:0:0:
150,143,80424,1,8,0:0:0:0:
260,259,80629,2,0,P|305:267|349:254,1,93.5000028533936,4|0,0:0|0:0,0:0:0:0:
416,175,81040,1,2,0:0:0:0:
422,324,81245,1,8,0:0:0:0:
300,192,81451,6,0,P|285:145|302:78,1,93.5000028533936,6|0,0:0|0:0,0:0:0:0:
439,86,81862,2,0,P|405:122|339:141,1,93.5000028533936,2|8,0:0|0:0,0:0:0:0:
342,12,82273,1,2,0:0:0:0:
342,12,82376,1,0,0:0:0:0:
342,12,82478,1,8,0:0:0:0:
365,138,82684,1,2,0:0:0:0:
365,138,82787,1,0,0:0:0:0:
365,138,82889,1,8,0:0:0:0:
492,99,83095,1,2,0:0:0:0:
492,99,83198,1,0,0:0:0:0:
492,99,83300,6,0,P|465:168|510:259,1,170,4|0,0:0|0:0,0:0:0:0:
365,332,83917,2,0,B|333:306|333:306|192:313,1,170,4|0,0:0|0:0,0:0:0:0:
58,248,84533,2,0,P|139:244|188:172,1,170,4|0,0:0|0:0,0:0:0:0:
105,45,85150,2,0,B|137:19|137:19|278:26,1,170,4|0,0:0|0:0,0:0:0:0:
405,117,85766,1,4,0:0:0:0:
379,276,85972,1,8,0:0:0:0:
349,293,86074,1,0,0:0:0:0:
318,305,86177,1,8,0:0:0:0:
284,310,86280,1,0,0:0:0:0:
250,308,86382,1,0,0:0:0:0:
217,300,86485,1,0,0:0:0:0:
187,285,86588,5,4,2:0:0:0:
187,249,87204,1,4,2:0:0:0:
187,212,87821,1,4,2:0:0:0:
187,176,88437,6,0,B|209:132|253:130|253:130|282:193|337:201|337:201|382:190|386:147,1,255,2|2,0:0|0:0,0:0:0:0:
106,336,89465,5,6,1:0:0:0:
