osu file format v14

[General]
AudioFilename: audio.mp3
AudioLeadIn: 0
PreviewTime: 56074
Countdown: 0
SampleSet: Soft
StackLeniency: 0.7
Mode: 0
LetterboxInBreaks: 0
WidescreenStoryboard: 0

[Editor]
DistanceSpacing: 0.8
BeatDivisor: 4
GridSize: 8
TimelineZoom: 2.6

[Metadata]
Title:Mikansei Stride
TitleUnicode:未完成ストライド
Artist:Codama Saori
ArtistUnicode:こだまさおり
Creator:Alexsander
Version:Normal
Source:氷菓
Tags:opening 2 Hyouka Chitanda Eru Oreki Houtarou Mayaka Ibara Satoshi Fukube Victorfernando
BeatmapID:1494121
BeatmapSetID:706624

[Difficulty]
HPDrainRate:4
CircleSize:3
OverallDifficulty:4
ApproachRate:4.5
SliderMultiplier:1.2
SliderTickRate:1

[Events]
//Background and Video events
0,0,"Hyouka bg.jpg",0,0
Video,0,"Hyouka OP 2.avi"
//Break Periods
//Storyboard Layer 0 (Background)
//Storyboard Layer 1 (Fail)
//Storyboard Layer 2 (Pass)
//Storyboard Layer 3 (Foreground)
//Storyboard Sound Samples

[TimingPoints]
1109,410.958904109589,4,2,1,70,1,0
3985,-100,4,2,0,55,0,0
4293,-100,4,2,0,5,0,0
4396,-100,4,2,0,70,0,0
6759,-100,4,2,1,30,0,0
6862,-100,4,2,1,70,0,0
7684,-100,4,2,1,50,0,0
14259,-100,4,2,1,30,0,0
26999,-100,4,2,1,50,0,0
40561,-100,4,2,1,40,0,0
50218,-100,4,2,1,50,0,0
56999,-100,4,2,1,60,0,1
83300,-100,4,2,1,40,0,0
86588,-100,4,2,1,30,0,0
88951,-100,4,2,1,30,0,0
89054,-100,4,2,1,40,0,0

[Colours]
Combo1 : 255,255,128
Combo2 : 102,205,255
Combo3 : 255,94,94
Combo4 : 217,160,55

[HitObjects]
53,183,1109,6,0,P|48:154|51:125,2,60,2|0|2,0:0|0:0|0:0,0:0:0:0:
182,123,2136,2,0,P|188:152|185:182,2,60,2|0|2,0:0|0:0|0:0,0:0:0:0:
182,123,3985,6,0,P|213:120|241:124,1,60,2|0,0:0|0:0,0:0:0:0:
281,151,4396,2,0,L|281:228,2,60,2|0|2,0:0|0:0|0:0,0:0:0:0:
425,151,5424,2,0,L|425:211,2,60,2|0|2,0:0|0:0|0:0,0:0:0:0:
365,75,6245,1,2,0:0:0:0:
331,41,6451,6,0,P|271:32|196:72,1,120,4|8,0:0|0:0,0:0:0:0:
149,121,7273,1,8,0:0:0:0:
221,183,7684,6,0,P|241:240|216:321,1,120,2|8,0:0|0:0,0:0:0:0:
201,335,8300,1,0,0:0:0:0:
195,382,8506,2,0,L|324:381,1,120,2|8,0:0|0:0,0:0:0:0:
371,299,9328,2,0,P|353:238|369:183,1,120,2|8,0:0|0:0,0:0:0:0:
346,93,10150,2,0,L|214:93,1,120,0|8,0:0|0:0,0:0:0:0:
160,163,10972,6,0,P|104:180|47:166,1,120,2|8,0:0|0:0,0:0:0:0:
29,120,11588,1,0,0:0:0:0:
19,73,11793,2,0,P|80:55|135:71,1,120,2|8,0:0|0:0,0:0:0:0:
226,93,12615,1,2,0:0:0:0:
160,163,13026,1,8,0:0:0:0:
213,242,13437,2,0,P|270:256|326:238,1,120,0|0,0:0|0:0,0:0:0:0:
365,207,14054,1,8,0:0:0:0:
402,177,14259,6,0,L|402:57,1,120,2|0,0:0|0:0,0:0:0:0:
310,28,15081,2,0,P|244:13|181:43,1,120,0|0,0:0|0:0,0:0:0:0:
164,121,15903,2,0,L|170:255,1,120,0|0,0:0|0:0,0:0:0:0:
148,334,16725,2,0,P|81:348|18:318,1,120,0|0,0:0|0:0,0:0:0:0:
14,287,17341,1,2,0:0:0:0:
2,240,17547,6,0,L|3:101,1,120,0|2,0:0|0:0,0:0:0:0:
59,42,18369,1,2,0:0:0:0:
158,30,18780,1,0,0:0:0:0:
224,99,19191,2,0,P|290:114|353:84,1,120,0|0,0:0|0:0,0:0:0:0:
424,54,20013,1,0,0:0:0:0:
472,137,20424,1,0,0:0:0:0:
433,224,20835,6,0,P|380:241|304:220,1,120,0|0,0:0|0:0,0:0:0:0:
274,208,21451,1,0,0:0:0:0:
244,170,21656,2,0,B|254:92|254:92|237:35,1,120,2|0,0:0|0:0,0:0:0:0:
149,28,22478,2,0,L|20:31,2,120,0|0|0,0:0|0:0|0:0,0:0:0:0:
242,52,23711,1,0,0:0:0:0:
314,114,24122,6,0,L|448:113,1,120,0|0,0:0|0:0,0:0:0:0:
480,125,24739,1,2,0:0:0:0:
504,166,24944,2,0,P|510:234|475:295,1,120,0|0,0:0|0:0,0:0:0:0:
406,329,25766,1,0,0:0:0:0:
320,285,26177,1,0,0:0:0:0:
259,359,26588,1,0,0:0:0:0:
178,307,26999,2,0,P|172:269|185:228,1,60,8|8,0:0|0:0,0:0:0:0:
185,200,27410,6,0,L|305:202,1,120,0|8,0:0|0:0,0:0:0:0:
388,154,28232,2,0,P|401:95|380:34,1,120,0|8,0:0|0:0,0:0:0:0:
337,26,28848,2,0,L|195:30,1,120,2|2,0:0|0:0,0:0:0:0:
171,45,29465,1,8,0:0:0:0:
135,77,29670,2,0,P|152:163|97:237,1,180,2|8,0:0|0:0,0:0:0:0:
149,317,30698,6,0,L|277:315,1,120,0|8,0:0|0:0,0:0:0:0:
314,299,31314,2,0,P|345:217|282:139,1,180,2|8,0:0|0:0,0:0:0:0:
265,110,32136,2,0,L|387:107,1,120,2|2,0:0|0:0,0:0:0:0:
425,133,32752,1,8,0:0:0:0:
469,218,33163,1,0,0:0:0:0:
423,302,33574,1,8,0:0:0:0:
333,268,33985,6,0,P|274:254|201:285,1,120,0|8,0:0|0:0,0:0:0:0:
162,344,34807,2,0,P|103:358|30:327,1,120,0|8,0:0|0:0,0:0:0:0:
15,305,35424,2,0,L|32:113,1,180,2|8,0:0|0:0,0:0:0:0:
78,132,36245,2,0,B|137:139|137:139|209:116,1,120,2|2,0:0|0:0,0:0:0:0:
233,92,36862,1,8,0:0:0:0:
326,166,37273,6,0,B|318:215|318:215|342:297,1,120,0|8,0:0|0:0,0:0:0:0:
351,328,37889,2,0,L|165:320,1,180,2|8,0:0|0:0,0:0:0:0:
140,283,38711,2,0,B|159:215|159:215|151:166,1,120,2|2,0:0|0:0,0:0:0:0:
122,128,39328,1,8,0:0:0:0:
186,59,39739,2,0,B|252:76|290:31|290:31|359:69,1,180,0|10,0:0|0:0,0:0:0:0:
383,94,40561,6,0,P|401:144|367:221,1,120,6|0,0:0|0:0,0:0:0:0:
363,250,41177,1,0,0:0:0:0:
363,250,41382,2,0,L|237:248,1,120,0|8,3:0|0:0,0:0:0:0:
153,211,42204,2,0,P|135:161|169:84,1,120,4|0,0:0|0:0,0:0:0:0:
189,66,42821,1,0,0:0:0:0:
189,66,43026,2,0,L|59:67,1,120,2|0,0:0|0:0,0:0:0:0:
28,154,43848,6,0,B|40:212|40:212|17:289,1,120,4|0,0:0|3:0,0:0:0:0:
9,316,44465,2,0,L|139:315,1,120,2|2,0:0|0:0,0:0:0:0:
172,293,45081,1,8,0:0:0:0:
241,227,45492,2,0,P|304:211|368:232,1,120,0|0,3:0|0:0,0:0:0:0:
393,254,46108,1,2,0:0:0:0:
393,254,46314,2,0,L|392:119,1,120,0|8,0:0|0:0,0:0:0:0:
322,68,47136,6,0,P|267:82|196:64,1,120,4|0,0:0|0:0,0:0:0:0:
164,47,47752,2,0,P|109:33|38:51,1,120,2|2,0:0|0:0,0:0:0:0:
19,84,48369,1,8,0:0:0:0:
104,128,48780,2,0,P|114:185|90:252,1,120,0|0,3:0|3:0,0:0:0:0:
105,290,49396,2,0,L|246:287,1,120,2|0,0:0|0:0,0:0:0:0:
269,270,50013,2,0,L|270:206,1,60,8|0,0:0|0:0,0:0:0:0:
289,166,50424,6,0,P|346:148|412:165,1,120,0|8,0:0|0:0,0:0:0:0:
472,227,51245,1,0,0:0:0:0:
441,318,51656,1,8,0:0:0:0:
355,361,52067,2,0,L|217:358,1,120,0|8,0:0|0:0,0:0:0:0:
146,320,52889,1,0,0:0:0:0:
87,243,53300,1,0,0:0:0:0:
119,152,53711,5,0,3:0:0:0:
191,88,54122,2,0,L|328:84,1,120,0|0,3:0|3:0,0:0:0:0:
400,120,54944,2,0,L|401:191,1,60,8|0,0:0|0:0,0:0:0:0:
376,221,55355,1,0,3:0:0:0:
457,271,55766,1,12,0:0:0:0:
402,349,56177,6,0,P|343:363|269:332,1,120,8|8,0:0|0:0,0:0:0:0:
252,312,56793,1,8,0:0:0:0:
214,281,56999,6,0,P|157:264|83:295,1,120,4|8,0:0|0:0,0:0:0:0:
52,282,57615,2,0,L|47:199,1,60,2|0,0:0|0:0,0:0:0:0:
66,177,58026,2,0,L|71:94,1,60,2|8,0:0|0:0,0:0:0:0:
103,83,58437,2,0,P|161:66|237:91,1,120,2|2,0:0|0:0,0:0:0:0:
257,106,59054,1,8,0:0:0:0:
341,59,59465,1,0,0:0:0:0:
427,100,59876,1,8,0:0:0:0:
460,134,60081,6,0,L|453:270,1,120,2|2,0:0|0:0,0:0:0:0:
437,300,60698,2,0,P|385:317|306:298,1,120,8|0,0:0|0:0,0:0:0:0:
285,275,61314,1,2,0:0:0:0:
249,185,61725,2,0,P|192:168|118:195,1,120,6|2,0:0|0:0,0:0:0:0:
105,220,62341,1,8,0:0:0:0:
131,312,62752,2,0,P|188:329|262:302,1,120,8|8,0:0|0:0,0:0:0:0:
287,291,63369,1,2,0:0:0:0:
330,270,63574,6,0,P|388:254|454:274,1,120,4|8,0:0|0:0,0:0:0:0:
493,270,64191,2,0,L|489:187,1,60,2|0,0:0|0:0,0:0:0:0:
460,171,64602,2,0,L|456:88,1,60,2|8,0:0|0:0,0:0:0:0:
428,72,65013,2,0,P|370:57|301:78,1,120,2|2,0:0|0:0,0:0:0:0:
274,99,65629,1,8,0:0:0:0:
217,176,66040,1,0,0:0:0:0:
121,173,66451,1,8,0:0:0:0:
96,131,66656,6,0,P|89:71|126:9,1,120,2|2,0:0|0:0,0:0:0:0:
162,10,67273,1,8,0:0:0:0:
207,24,67478,2,0,P|265:40|335:19,1,120,2|2,0:0|0:0,0:0:0:0:
412,59,68300,2,0,L|405:199,1,120,6|2,0:0|0:0,0:0:0:0:
400,226,68917,1,8,0:0:0:0:
387,321,69328,2,0,L|318:320,1,60,8|10,0:0|0:0,0:0:0:0:
283,339,69739,2,0,L|213:335,1,60,0|2,0:0|0:0,0:0:0:0:
185,305,70150,6,0,P|169:240|184:189,1,120,4|8,0:0|0:0,0:0:0:0:
207,148,70766,2,0,L|69:148,1,120,2|0,0:0|0:0,0:0:0:0:
50,179,71382,1,8,0:0:0:0:
50,179,71588,2,0,P|36:239|63:315,1,120,2|0,0:0|0:0,0:0:0:0:
85,327,72204,1,8,0:0:0:0:
85,327,72410,2,0,L|206:328,1,120,2|2,0:0|0:0,0:0:0:0:
251,314,73026,1,8,0:0:0:0:
341,280,73437,6,0,L|344:215,1,60,0|2,0:0|0:0,0:0:0:0:
319,178,73848,1,8,0:0:0:0:
319,178,74054,2,0,P|261:164|203:179,1,120,6|2,0:0|0:0,0:0:0:0:
108,186,74876,2,0,L|104:54,1,120,6|2,0:0|0:0,0:0:0:0:
144,39,75492,2,0,P|201:55|269:28,1,120,8|0,0:0|0:0,0:0:0:0:
303,21,76109,1,0,0:0:0:0:
350,22,76314,1,8,0:0:0:0:
439,55,76725,6,0,P|426:115|459:186,1,120,4|8,0:0|0:0,0:0:0:0:
470,261,77547,2,0,L|342:260,1,120,0|8,0:0|0:0,0:0:0:0:
311,230,78163,2,0,P|295:172|313:113,1,120,6|2,0:0|0:0,0:0:0:0:
334,73,78780,1,8,0:0:0:0:
334,73,78985,2,0,L|198:72,1,120,2|2,0:0|0:0,0:0:0:0:
123,95,79807,6,0,P|144:155|119:221,1,120,6|2,0:0|0:0,0:0:0:0:
131,258,80424,1,8,0:0:0:0:
131,258,80629,2,0,L|257:258,1,120,4|2,0:0|0:0,0:0:0:0:
297,247,81245,1,8,0:0:0:0:
297,247,81451,2,0,P|316:305|293:370,1,120,6|2,0:0|0:0,0:0:0:0:
252,361,82067,1,8,0:0:0:0:
252,361,82273,2,0,P|192:343|123:367,1,120,2|2,0:0|0:0,0:0:0:0:
98,384,82889,1,8,0:0:0:0:
37,309,83300,6,0,L|49:126,1,180,4|4,0:0|0:0,0:0:0:0:
167,47,84533,2,0,B|259:77|258:18|354:58,1,180,4|4,0:0|0:0,0:0:0:0:
287,193,85766,1,4,0:0:0:0:
191,197,86177,1,8,0:0:0:0:
241,278,86588,6,0,B|335:314|344:231|431:282,2,180,4|4|4,2:0|2:0|2:0,0:0:0:0:
149,166,88437,2,0,P|75:221|84:324,1,180,2|2,0:0|0:0,0:0:0:0:
160,263,89465,1,6,1:0:0:0:
