osu file format v14

[General]
AudioFilename: audio.ogg
AudioLeadIn: 0
PreviewTime:58491
Countdown: 0
SampleSet: Normal
StackLeniency: 0.7
Mode: 1
LetterboxInBreaks: 0
WidescreenStoryboard: 1

[Editor]
Bookmarks:9831,21831,33831,45831
DistanceSpacing: 0.1
BeatDivisor: 4
GridSize: 32
TimelineZoom: 1.2

[Metadata]
Title:Dramatic ni Koishitai (TV Size)
TitleUnicode:ドラマチックに恋したい (TV Size)
Artist:Codama Hikari
ArtistUnicode:小玉ひかり
Creator:FreezingAnimenz
Version:iRedi's Muzukashii
Source:カノジョも彼女 Season 2
Tags:iredi kanojo mo kanojo s2 anime japanese doramachikkuni doramachikku pop jpop j-pop opening op kodama Girlfriend, Girlfriend She Is My Girlfriend Too カノかの kanokano Girlfriend and Girlfriend
BeatmapID:4355091
BeatmapSetID:2078978

[Difficulty]
HPDrainRate:6
CircleSize:2
OverallDifficulty:5
ApproachRate:10
SliderMultiplier:1.4
SliderTickRate:1

[Events]
//Background and Video events
0,0,"main bg.jpeg",0,70
Video,672,"output.mp4"
//Break Periods
//Storyboard Layer 0 (Background)
//Storyboard Layer 1 (Fail)
//Storyboard Layer 2 (Pass)
//Storyboard Layer 3 (Foreground)
//Storyboard Layer 4 (Overlay)
//Storyboard Sound Samples

[TimingPoints]
835,375,4,1,0,60,1,0
6834,-100,4,1,0,70,0,0
9835,375,4,1,0,70,1,0
21834,-100,4,1,0,60,0,0
54834,-100,4,1,0,70,0,0
59147,-100,4,1,0,80,0,1
59335,375,4,1,0,80,1,1
83335,-100,4,1,0,70,0,0

[HitObjects]
512,0,835,5,4,0:0:0:0:
256,192,1210,1,8,0:0:0:0:
256,192,1397,1,0,0:0:0:0:
256,192,1585,1,8,0:0:0:0:
256,192,1960,1,0,0:0:0:0:
256,192,2147,1,0,0:0:0:0:
512,0,2335,1,12,0:0:0:0:
256,192,2710,1,0,0:0:0:0:
512,0,2897,1,12,0:0:0:0:
256,192,3272,1,8,0:0:0:0:
256,192,3460,1,8,0:0:0:0:
512,0,3835,1,4,0:0:0:0:
256,192,4210,1,8,0:0:0:0:
256,192,4397,1,8,0:0:0:0:
256,192,4585,1,0,0:0:0:0:
256,192,4960,1,8,0:0:0:0:
256,192,5147,1,0,0:0:0:0:
512,0,5335,1,12,0:0:0:0:
256,192,5710,1,0,0:0:0:0:
512,0,5897,1,12,0:0:0:0:
256,192,6272,1,8,0:0:0:0:
256,192,6366,1,8,0:0:0:0:
256,192,6460,1,8,0:0:0:0:
256,192,6647,1,0,0:0:0:0:
512,0,6835,1,12,0:0:0:0:
256,192,8147,1,0,0:0:0:0:
256,192,8241,1,0,0:0:0:0:
256,192,8335,1,0,0:0:0:0:
256,192,8616,1,8,0:0:0:0:
256,192,8897,1,0,0:0:0:0:
256,192,9085,1,8,0:0:0:0:
256,192,9272,1,8,0:0:0:0:
512,0,9835,1,4,0:0:0:0:
256,192,10210,1,0,0:0:0:0:
256,192,10397,1,8,0:0:0:0:
256,192,10585,1,0,0:0:0:0:
256,192,10866,1,8,0:0:0:0:
256,192,10960,1,8,0:0:0:0:
256,192,11147,1,0,0:0:0:0:
256,192,11335,1,8,0:0:0:0:
256,192,11522,1,8,0:0:0:0:
256,192,11710,1,0,0:0:0:0:
256,192,12085,1,8,0:0:0:0:
256,192,12366,1,0,0:0:0:0:
256,192,12460,1,0,0:0:0:0:
256,192,12647,1,8,0:0:0:0:
256,192,12835,1,0,0:0:0:0:
256,192,13022,1,0,0:0:0:0:
256,192,13210,1,8,0:0:0:0:
256,192,13585,1,0,0:0:0:0:
256,192,13866,1,8,0:0:0:0:
256,192,13960,1,8,0:0:0:0:
256,192,14147,1,0,0:0:0:0:
256,192,14335,1,8,0:0:0:0:
256,192,14522,1,0,0:0:0:0:
256,192,14710,1,0,0:0:0:0:
256,192,14897,1,0,0:0:0:0:
256,192,15085,1,8,0:0:0:0:
256,192,15460,1,8,0:0:0:0:
256,192,16022,1,0,0:0:0:0:
256,192,16116,1,0,0:0:0:0:
256,192,16210,1,0,0:0:0:0:
256,192,16397,1,8,0:0:0:0:
256,192,16585,1,0,0:0:0:0:
256,192,16866,1,8,0:0:0:0:
256,192,16960,1,8,0:0:0:0:
256,192,17147,1,0,0:0:0:0:
256,192,17522,1,8,0:0:0:0:
256,192,17710,1,0,0:0:0:0:
256,192,17897,1,0,0:0:0:0:
256,192,18085,1,8,0:0:0:0:
256,192,18366,1,0,0:0:0:0:
256,192,18460,1,0,0:0:0:0:
256,192,18647,1,0,0:0:0:0:
256,192,18835,1,8,0:0:0:0:
256,192,19210,1,0,0:0:0:0:
256,192,19397,1,8,0:0:0:0:
256,192,19491,1,8,0:0:0:0:
256,192,19585,1,8,0:0:0:0:
256,192,19772,1,0,0:0:0:0:
256,192,19960,1,0,0:0:0:0:
256,192,20147,1,8,0:0:0:0:
256,192,20522,1,8,0:0:0:0:
256,192,20710,1,0,0:0:0:0:
256,192,20897,1,8,0:0:0:0:
256,192,21085,1,0,0:0:0:0:
256,192,21460,1,8,0:0:0:0:
512,0,21835,1,4,0:0:0:0:
256,192,22210,1,8,0:0:0:0:
256,192,22397,1,8,0:0:0:0:
256,192,22585,1,0,0:0:0:0:
256,192,22960,1,8,0:0:0:0:
256,192,23335,1,0,0:0:0:0:
256,192,23710,1,0,0:0:0:0:
256,192,23897,1,0,0:0:0:0:
256,192,24085,1,8,0:0:0:0:
256,192,24460,1,0,0:0:0:0:
256,192,24835,1,8,0:0:0:0:
256,192,25210,1,0,0:0:0:0:
256,192,25397,1,0,0:0:0:0:
256,192,25585,1,8,0:0:0:0:
256,192,25960,1,8,0:0:0:0:
256,192,26147,1,0,0:0:0:0:
256,192,26335,1,8,0:0:0:0:
256,192,26710,1,8,0:0:0:0:
256,192,26897,1,8,0:0:0:0:
256,192,27085,1,0,0:0:0:0:
256,192,27460,1,0,0:0:0:0:
256,192,27835,1,8,0:0:0:0:
256,192,28210,1,0,0:0:0:0:
256,192,28397,1,0,0:0:0:0:
256,192,28585,1,8,0:0:0:0:
256,192,28960,1,0,0:0:0:0:
256,192,29335,1,8,0:0:0:0:
256,192,29710,1,0,0:0:0:0:
256,192,29897,1,8,0:0:0:0:
256,192,30085,1,0,0:0:0:0:
256,192,30460,1,8,0:0:0:0:
256,192,30835,1,8,0:0:0:0:
256,192,31210,1,0,0:0:0:0:
256,192,31397,1,8,0:0:0:0:
256,192,31585,1,8,0:0:0:0:
256,192,31960,1,0,0:0:0:0:
256,192,32335,1,8,0:0:0:0:
256,192,32710,1,0,0:0:0:0:
256,192,32897,1,0,0:0:0:0:
256,192,33085,1,8,0:0:0:0:
256,192,33272,1,8,0:0:0:0:
256,192,33460,1,0,0:0:0:0:
512,0,33835,1,12,0:0:0:0:
256,192,34210,1,0,0:0:0:0:
256,192,34585,1,8,0:0:0:0:
256,192,34678,1,8,0:0:0:0:
256,192,34866,1,0,0:0:0:0:
256,192,35147,1,0,0:0:0:0:
256,192,35335,1,8,0:0:0:0:
256,192,35710,1,8,0:0:0:0:
256,192,36085,1,0,0:0:0:0:
256,192,36178,1,0,0:0:0:0:
256,192,36366,1,8,0:0:0:0:
256,192,36647,1,8,0:0:0:0:
256,192,36835,1,0,0:0:0:0:
256,192,37210,1,0,0:0:0:0:
256,192,37585,1,8,0:0:0:0:
256,192,37960,1,0,0:0:0:0:
256,192,38335,1,0,0:0:0:0:
256,192,38522,1,8,0:0:0:0:
256,192,38710,1,0,0:0:0:0:
256,192,38897,1,8,0:0:0:0:
256,192,39085,1,0,0:0:0:0:
256,192,39460,1,8,0:0:0:0:
256,192,39647,1,8,0:0:0:0:
256,192,39835,1,0,0:0:0:0:
256,192,40210,1,8,0:0:0:0:
256,192,40585,1,0,0:0:0:0:
256,192,40678,1,0,0:0:0:0:
256,192,40866,1,8,0:0:0:0:
256,192,41147,1,8,0:0:0:0:
256,192,41335,1,0,0:0:0:0:
256,192,41710,1,0,0:0:0:0:
256,192,42085,1,8,0:0:0:0:
256,192,42178,1,8,0:0:0:0:
256,192,42366,1,0,0:0:0:0:
256,192,42647,1,0,0:0:0:0:
256,192,42835,1,8,0:0:0:0:
256,192,43210,1,0,0:0:0:0:
256,192,43397,1,0,0:0:0:0:
256,192,43585,1,8,0:0:0:0:
256,192,43960,1,0,0:0:0:0:
256,192,44335,1,8,0:0:0:0:
256,192,44897,1,8,0:0:0:0:
256,192,45085,1,0,0:0:0:0:
256,192,45272,1,8,0:0:0:0:
256,192,45366,1,8,0:0:0:0:
256,192,45460,1,8,0:0:0:0:
256,192,45647,1,8,0:0:0:0:
512,0,45835,1,4,0:0:0:0:
256,192,46397,1,8,0:0:0:0:
256,192,46585,1,0,0:0:0:0:
256,192,46960,1,8,0:0:0:0:
256,192,47147,1,8,0:0:0:0:
256,192,47522,1,0,0:0:0:0:
256,192,47897,1,8,0:0:0:0:
256,192,48085,1,0,0:0:0:0:
256,192,48272,1,8,0:0:0:0:
256,192,48460,1,8,0:0:0:0:
256,192,48835,1,0,0:0:0:0:
256,192,49397,1,8,0:0:0:0:
256,192,49585,1,0,0:0:0:0:
256,192,49772,1,8,0:0:0:0:
256,192,50147,1,0,0:0:0:0:
256,192,50522,1,0,0:0:0:0:
256,192,50710,1,8,0:0:0:0:
256,192,51085,1,0,0:0:0:0:
256,192,51272,1,8,0:0:0:0:
256,192,51460,1,8,0:0:0:0:
256,192,51647,1,8,0:0:0:0:
256,192,51835,1,0,0:0:0:0:
256,192,52397,1,0,0:0:0:0:
256,192,52585,1,8,0:0:0:0:
256,192,52960,1,8,0:0:0:0:
256,192,53147,1,0,0:0:0:0:
256,192,53522,1,0,0:0:0:0:
256,192,53897,1,0,0:0:0:0:
256,192,54085,1,8,0:0:0:0:
256,192,54272,1,8,0:0:0:0:
256,192,54460,1,0,0:0:0:0:
256,192,54835,1,8,0:0:0:0:
256,192,55210,1,8,0:0:0:0:
256,192,55585,1,8,0:0:0:0:
256,192,55866,1,0,0:0:0:0:
256,192,55960,1,0,0:0:0:0:
256,192,56147,1,8,0:0:0:0:
256,192,56335,1,0,0:0:0:0:
256,192,56710,1,8,0:0:0:0:
256,192,56897,1,8,0:0:0:0:
256,192,57085,1,0,0:0:0:0:
256,192,57272,1,0,0:0:0:0:
256,192,57366,1,0,0:0:0:0:
256,192,57460,1,0,0:0:0:0:
256,192,57647,1,8,0:0:0:0:
256,192,58022,1,8,0:0:0:0:
256,192,58210,1,8,0:0:0:0:
256,192,58772,1,8,0:0:0:0:
256,192,58960,1,8,0:0:0:0:
512,0,59147,1,4,0:0:0:0:
256,192,59522,1,0,0:0:0:0:
256,192,59710,1,8,0:0:0:0:
256,192,59803,1,8,0:0:0:0:
256,192,59897,1,8,0:0:0:0:
256,192,60085,1,0,0:0:0:0:
256,192,60460,1,8,0:0:0:0:
256,192,60647,1,8,0:0:0:0:
256,192,60835,1,0,0:0:0:0:
256,192,61022,1,0,0:0:0:0:
256,192,61210,1,8,0:0:0:0:
256,192,61585,1,0,0:0:0:0:
256,192,61772,1,8,0:0:0:0:
256,192,61960,1,8,0:0:0:0:
256,192,62147,1,0,0:0:0:0:
256,192,62522,1,8,0:0:0:0:
256,192,62710,1,0,0:0:0:0:
256,192,62803,1,0,0:0:0:0:
256,192,62897,1,0,0:0:0:0:
256,192,63085,1,8,0:0:0:0:
256,192,63460,1,0,0:0:0:0:
256,192,63647,1,0,0:0:0:0:
256,192,63835,1,8,0:0:0:0:
256,192,64022,1,0,0:0:0:0:
256,192,64116,1,0,0:0:0:0:
256,192,64210,1,0,0:0:0:0:
256,192,64397,1,0,0:0:0:0:
256,192,64585,1,8,0:0:0:0:
256,192,64960,1,0,0:0:0:0:
256,192,65147,1,8,0:0:0:0:
256,192,65522,1,0,0:0:0:0:
256,192,65710,1,8,0:0:0:0:
256,192,65803,1,8,0:0:0:0:
256,192,65897,1,8,0:0:0:0:
256,192,66085,1,8,0:0:0:0:
256,192,66272,1,0,0:0:0:0:
256,192,66647,1,8,0:0:0:0:
256,192,67210,1,0,0:0:0:0:
256,192,67585,1,8,0:0:0:0:
256,192,67772,1,0,0:0:0:0:
256,192,67866,1,0,0:0:0:0:
256,192,67960,1,0,0:0:0:0:
256,192,68147,1,8,0:0:0:0:
512,0,68335,1,4,0:0:0:0:
256,192,68710,1,0,0:0:0:0:
512,0,68897,1,12,0:0:0:0:
512,0,69272,1,12,0:0:0:0:
512,0,69647,1,4,0:0:0:0:
256,192,70022,1,0,0:0:0:0:
256,192,70210,1,8,0:0:0:0:
256,192,70585,1,0,0:0:0:0:
256,192,70772,1,8,0:0:0:0:
256,192,70866,1,8,0:0:0:0:
256,192,70960,1,8,0:0:0:0:
512,0,71147,1,4,0:0:0:0:
256,192,71522,1,8,0:0:0:0:
256,192,71710,1,8,0:0:0:0:
256,192,71803,1,8,0:0:0:0:
256,192,71897,1,8,0:0:0:0:
256,192,72085,1,0,0:0:0:0:
256,192,72460,1,8,0:0:0:0:
256,192,72647,1,0,0:0:0:0:
256,192,72835,1,8,0:0:0:0:
256,192,73022,1,8,0:0:0:0:
256,192,73210,1,0,0:0:0:0:
256,192,73585,1,0,0:0:0:0:
256,192,73772,1,8,0:0:0:0:
256,192,73960,1,0,0:0:0:0:
256,192,74147,1,8,0:0:0:0:
256,192,74522,1,8,0:0:0:0:
256,192,74710,1,0,0:0:0:0:
256,192,74803,1,0,0:0:0:0:
256,192,74897,1,0,0:0:0:0:
256,192,75085,1,8,0:0:0:0:
256,192,75272,1,8,0:0:0:0:
256,192,75460,1,0,0:0:0:0:
256,192,75835,1,8,0:0:0:0:
256,192,76210,1,0,0:0:0:0:
256,192,76585,1,8,0:0:0:0:
256,192,76772,1,0,0:0:0:0:
256,192,76866,1,0,0:0:0:0:
256,192,76960,1,0,0:0:0:0:
256,192,77147,1,0,0:0:0:0:
256,192,77335,1,8,0:0:0:0:
256,192,77710,1,0,0:0:0:0:
256,192,77897,1,8,0:0:0:0:
256,192,78085,1,0,0:0:0:0:
256,192,78460,1,0,0:0:0:0:
256,192,78647,1,8,0:0:0:0:
256,192,78835,1,8,0:0:0:0:
256,192,79022,1,0,0:0:0:0:
256,192,79210,1,8,0:0:0:0:
256,192,79585,1,8,0:0:0:0:
256,192,79772,1,0,0:0:0:0:
256,192,79866,1,0,0:0:0:0:
256,192,79960,1,0,0:0:0:0:
256,192,80147,1,8,0:0:0:0:
256,192,80335,1,0,0:0:0:0:
256,192,80710,1,8,0:0:0:0:
256,192,80897,1,8,0:0:0:0:
256,192,81085,1,0,0:0:0:0:
256,192,81460,1,8,0:0:0:0:
256,192,81647,1,0,0:0:0:0:
256,192,81835,1,0,0:0:0:0:
256,192,82022,1,8,0:0:0:0:
256,192,82116,1,8,0:0:0:0:
256,192,82210,1,8,0:0:0:0:
256,192,82585,1,0,0:0:0:0:
256,192,82772,1,8,0:0:0:0:
256,192,82866,1,8,0:0:0:0:
256,192,82960,1,8,0:0:0:0:
256,192,83147,1,8,0:0:0:0:
512,0,83335,1,4,0:0:0:0:
512,0,83710,1,4,0:0:0:0:
512,0,84085,1,12,0:0:0:0:
512,0,84366,1,12,0:0:0:0:
512,0,84647,1,4,0:0:0:0:
512,0,85210,1,12,0:0:0:0:
