osu file format v14

[General]
AudioFilename: jojo.mp3
AudioLeadIn: 0
PreviewTime: 55935
Countdown: 1
SampleSet: Normal
StackLeniency: 0.7
Mode: 0
LetterboxInBreaks: 1
WidescreenStoryboard: 1

[Editor]
Bookmarks: 2004,24368,24640,24913,38549,45913,50277,51640,58459,59004,59549,72913,75640,84368
DistanceSpacing: 1.2
BeatDivisor: 4
GridSize: 4
TimelineZoom: 2.599999

[Metadata]
Title:JoJo Sono Chi no Kioku ~end of THE WORLD~
TitleUnicode:ジョジョ その血の记忆~end of THE WORLD
Artist:Coda, Hashimoto Jin, JOSTAR, STOMMY
ArtistUnicode:Coda、桥本仁、JO☆STARS~TOMMY
Creator:Supy
Version:Insane
Source:ジョジョ の奇妙な冒険 スターダストクルセイダース
Tags:jojo dio supy stardust oraoraora
BeatmapID:669551
BeatmapSetID:291872

[Difficulty]
HPDrainRate:5
CircleSize:4
OverallDifficulty:7
ApproachRate:9
SliderMultiplier:2
SliderTickRate:1

[Events]
//Background and Video events
0,0,"42964699.jpg",0,0
//Break Periods
2,45294,47767
//Storyboard Layer 0 (Background)
//Storyboard Layer 1 (Fail)
//Storyboard Layer 2 (Pass)
//Storyboard Layer 3 (Foreground)
//Storyboard Sound Samples

[TimingPoints]
2004,272.727272727273,4,1,0,50,1,0
31322,-133.333333333333,4,1,0,50,0,0
31459,-100,4,1,0,50,0,0
42367,-200,4,1,0,50,0,0
42844,-100,4,1,0,50,0,0
44004,-200,4,1,0,50,0,0
45094,-100,4,1,0,50,0,0
45504,-200,4,1,0,50,0,0
48367,-200,4,1,0,50,0,0
49117,-100,4,1,0,50,0,0
49459,-100,4,1,0,50,0,0
69094,-200,4,1,0,50,0,0
70185,-100,4,1,0,50,0,0
71822,-200,4,1,0,50,0,0
74549,-133.333333333333,4,1,0,50,0,0
75367,-100,4,1,0,50,0,0

[HitObjects]
256,192,13458,12,0,14413,1:0:0:0:
72,60,14549,6,0,P|82:109|120:175,1,100,8|0,2:0|2:0,2:0:0:0:
176,252,14822,1,8,2:0:0:0:
292,64,15094,6,0,P|254:97|216:163,1,100,8|0,2:0|2:0,2:0:0:0:
176,252,15367,1,8,2:0:0:0:
424,184,15640,6,0,L|393:88,1,100,8|0,2:0|2:0,2:0:0:0:
356,284,15913,1,8,2:0:0:0:
160,163,16185,6,0,L|256:192,1,100,8|0,2:0|2:0,2:0:0:0:
44,132,16458,1,8,2:0:0:0:
104,320,16731,6,0,P|152:284|184:240,1,100,8|0,2:0|2:0,2:0:0:0:
296,268,17004,2,0,P|288:208|266:158,1,100,8|0,2:0|2:0,2:0:0:0:
196,80,17276,6,0,L|300:40,1,100,8|0,2:0|2:0,2:0:0:0:
384,120,17549,1,8,2:0:0:0:
444,224,17685,2,8,L|424:276,1,50,8|8,2:0|2:0,2:0:0:0:
256,192,17822,12,0,18776,1:0:0:0:
464,88,18913,6,0,P|472:188|424:284,1,200,0|0,1:0|1:0,1:0:0:0:
352,320,19322,1,0,1:0:0:0:
352,216,19458,2,0,P|304:200|252:192,1,100,0|0,1:0|1:0,1:0:0:0:
174,262,19731,1,0,1:0:0:0:
256,192,19867,1,0,1:0:0:0:
48,88,20004,6,0,P|40:188|88:284,1,200,0|0,1:0|1:0,1:0:0:0:
174,262,20413,1,0,1:0:0:0:
256,84,20549,2,0,L|364:136,1,100,0|0,1:0|1:0,1:0:0:0:
346,127,20822,1,0,1:0:0:0:
256,192,20958,1,0,1:0:0:0:
64,105,21094,6,0,P|160:73|260:85,1,200,0|0,1:0|1:0,1:0:0:0:
184,165,21503,1,0,1:0:0:0:
184,165,21639,2,0,P|132:177|76:208,1,100,0|0,1:0|1:0,1:0:0:0:
100,305,21912,1,0,1:0:0:0:
184,164,22048,5,0,1:0:0:0:
256,288,22185,2,0,P|264:328|296:384,1,100,0|0,1:0|1:0,1:0:0:0:
460,228,22458,2,0,P|452:188|420:132,1,100,0|0,1:0|1:0,1:0:0:0:
256,192,22731,1,8,2:0:0:0:
360,268,22867,1,8,2:0:0:0:
292,380,23004,1,8,2:0:0:0:
100,304,23276,5,0,1:0:0:0:
76,184,23413,2,0,P|84:120|156:36,1,150,0|0,1:3|1:0,1:0:0:0:
148,36,23685,1,0,1:0:0:0:
268,36,23822,2,0,P|268:76|296:132,1,100,0|0,1:0|1:0,1:0:0:0:
492,192,24094,2,0,P|492:152|464:96,1,100,0|0,1:0|1:0,1:0:0:0:
352,64,24367,5,0,1:0:0:0:
256,192,24640,1,0,1:0:0:0:
56,124,24913,1,0,1:0:0:0:
148,72,25049,1,0,1:0:0:0:
56,124,25185,1,0,1:0:0:0:
256,192,25458,5,0,1:0:0:0:
148,72,25594,2,0,P|212:52|304:52,1,150,0|0,1:0|1:0,1:0:0:0:
312,56,25867,1,0,1:0:0:0:
384,152,26004,2,0,P|400:196|400:260,1,100,0|0,1:0|1:0,1:0:0:0:
128,232,26276,2,0,P|112:188|112:124,1,100,0|0,1:0|1:0,1:0:0:0:
256,192,26549,5,0,1:0:0:0:
256,192,26822,1,0,1:0:0:0:
384,112,27095,1,0,1:0:0:0:
384,112,27231,1,0,1:0:0:0:
364,220,27367,1,0,1:0:0:0:
364,220,27504,1,0,1:0:0:0:
256,192,27640,6,0,B|264:236|272:308|392:344,2,200,0|0|0,1:0|1:0|1:0,1:0:0:0:
252,88,28322,1,0,1:0:0:0:
152,52,28458,1,0,1:0:0:0:
84,136,28594,1,0,1:0:0:0:
148,224,28731,2,0,P|152:268|172:320,1,100,0|0,1:0|1:0,1:0:0:0:
171,319,28935,1,0,1:0:0:0:
171,319,29004,1,0,1:0:0:0:
84,136,29276,5,0,1:0:0:0:
252,88,29413,1,0,1:0:0:0:
148,224,29549,1,0,1:0:0:0:
316,176,29686,1,0,1:0:0:0:
408,56,29822,6,0,P|437:156|436:268,1,200,0|0,1:0|1:0,1:0:0:0:
316,176,30231,1,0,1:0:0:0:
316,176,30367,6,0,P|404:140|508:208,1,200,0|0,1:0|1:0,1:0:0:0:
460,312,30776,1,0,1:0:0:0:
460,312,30913,5,0,1:0:0:0:
344,284,31049,2,0,L|400:224,2,50,0|0|0,1:0|1:0|1:0,1:0:0:0:
256,228,31322,6,0,L|256:156,1,67.5000025749208,0|0,1:0|1:0,1:0:0:0:
317,114,31594,2,0,B|288:88|252:76|216:88|192:120|192:120|176:124|152:84,1,200,0|0,1:0|1:0,1:0:0:0:
24,236,32004,6,0,P|48:288|96:344,1,100,0|0,1:0|1:0,1:0:0:0:
148,228,32276,1,0,1:0:0:0:
148,228,32549,2,0,P|176:252|244:268,1,100,0|0,1:0|1:0,1:0:0:0:
344,284,32821,1,0,1:0:0:0:
444,140,33094,6,0,P|432:88|404:40,1,100,0|0,1:0|1:0,1:0:0:0:
148,228,33367,2,0,P|160:280|188:328,1,100,0|0,1:0|1:0,1:0:0:0:
256,148,33640,1,0,1:0:0:0:
136,100,33776,1,0,1:0:0:0:
148,228,33913,1,0,1:0:0:0:
444,360,34185,6,0,P|460:320|460:236,1,100,0|0,1:0|1:0,1:0:0:0:
344,284,34457,1,0,1:0:0:0:
444,140,34731,2,0,L|400:32,1,100,0|0,1:0|1:0,1:0:0:0:
316,156,35003,1,0,1:0:0:0:
52,192,35275,6,0,P|68:236|100:288,1,90,0|0,1:0|1:0,1:0:0:0:
208,224,35549,2,0,P|243:254|297:283,1,90,0|0,1:0|1:0,1:0:0:0:
316,156,35821,1,0,1:0:0:0:
208,224,35957,1,0,1:0:0:0:
136,100,36094,1,0,1:0:0:0:
444,140,36367,6,0,P|433:170|385:218,1,90,0|0,1:0|1:0,1:0:0:0:
208,224,36639,1,0,1:0:0:0:
208,224,36912,2,0,L|244:124,1,100,0|0,1:0|1:0,1:0:0:0:
280,16,37184,1,0,1:0:0:0:
448,268,37457,6,0,P|448:312|432:368,1,90,0|0,1:0|1:0,1:0:0:0:
208,224,37731,2,0,P|208:180|224:124,1,90,0|0,1:0|1:0,1:0:0:0:
328,196,38003,1,0,1:0:0:0:
208,224,38139,1,0,1:0:0:0:
92,276,38276,6,0,P|67:238|64:180,1,100,0|0,1:0|1:0,1:0:0:0:
72,160,38481,1,0,1:0:0:0:
88,136,38549,2,0,P|156:60|352:44,1,300,0|0,1:0|1:0,1:0:0:0:
424,248,39094,2,0,P|356:324|160:340,1,300,0|0,1:0|1:0,1:0:0:0:
208,224,39640,6,0,P|228:176|240:132,1,90,0|0,1:0|1:0,1:0:0:0:
112,24,39913,2,0,P|92:72|80:116,1,90,0|0,1:0|1:0,1:0:0:0:
0,200,40185,2,0,P|48:220|92:232,1,90,0|0,1:0|1:0,1:0:0:0:
208,224,40458,1,0,1:0:0:0:
208,224,40594,1,0,1:0:0:0:
332,84,40731,5,8,3:0:0:0:
256,40,41004,1,0,1:0:0:0:
188,192,41276,1,8,3:0:0:0:
256,132,41549,1,0,1:0:0:0:
332,300,41822,1,8,3:0:0:0:
256,248,42095,1,0,1:0:0:0:
332,300,42367,6,0,P|408:276|436:196,1,150,0|0,1:0|1:0,1:0:0:0:
320,180,42913,1,8,2:0:0:0:
404,88,43049,1,8,2:0:0:0:
320,180,43185,2,8,P|284:136|276:84,1,100,8|8,1:0|1:0,1:0:0:0:
116,52,43594,6,8,P|52:48|12:80,1,100,8|8,1:0|1:0,1:0:0:0:
88,168,43867,1,0,1:0:0:0:
0,184,44004,2,0,B|16:276|128:288|180:232|184:188|172:132|172:132|236:224,1,400,0|0,1:0|1:0,1:0:0:0:
24,192,48367,5,0,2:0:0:0:
24,192,48640,6,0,B|80:192|80:192|88:240|144:268,1,150,0|0,1:0|1:0,1:0:0:0:
196,140,49185,6,0,P|213:94|253:48,1,100,0|0,1:0|1:0,1:0:0:0:
136,264,49458,1,0,1:0:0:0:
316,244,49731,2,0,P|299:290|259:336,1,100,0|0,1:0|1:0,1:0:0:0:
64,60,50004,1,0,1:0:0:0:
64,60,50276,6,0,P|72:108|92:168,1,100,0|0,1:0|1:0,1:0:0:0:
212,112,50549,1,0,1:0:0:0:
88,156,50685,1,0,1:0:0:0:
136,264,50822,2,0,L|196:348,1,100,0|0,1:0|1:0,1:0:0:0:
280,240,51094,2,0,L|400:240,1,100,0|0,1:0|1:0,1:0:0:0:
500,240,51367,5,0,1:0:0:0:
464,52,51504,2,0,P|506:139|496:252,1,200,0|0,1:0|1:0,1:0:0:0:
408,170,51913,2,0,P|392:224|360:268,1,100,0|0,1:0|1:0,1:0:0:0:
256,120,52185,2,0,P|272:66|304:22,1,100,0|0,1:0|1:0,1:0:0:0:
368,260,52458,5,0,1:0:0:0:
368,260,52594,1,0,1:0:0:0:
256,312,52731,2,0,L|136:276,1,100,0|0,1:0|1:0,1:0:0:0:
56,132,53004,2,0,L|176:168,1,100,0|0,1:0|1:0,1:0:0:0:
256,120,53276,1,0,1:0:0:0:
368,260,53413,1,0,1:0:0:0:
256,312,53549,1,0,1:0:0:0:
56,132,53822,6,0,P|75:177|106:216,1,100,0|0,1:0|1:0,1:0:0:0:
256,192,54094,2,0,P|256:156|288:96,1,100,0|0,1:0|1:0,1:0:0:0:
396,60,54367,1,0,1:0:0:0:
464,272,54503,1,0,1:0:0:0:
464,271,54640,2,0,P|414:275|368:260,1,100,0|0,1:0|1:0,1:0:0:0:
47,286,54913,6,0,L|144:260,1,100,0|0,1:0|1:0,1:0:0:0:
256,192,55185,2,0,L|159:165,1,100,0|0,1:0|1:0,1:0:0:0:
44,128,55458,1,0,1:0:0:0:
140,56,55594,1,0,1:0:0:0:
144,260,55731,1,0,1:0:0:0:
144,260,56004,6,0,P|192:308|304:328,2,150,0|0|0,1:0|1:0|1:0,1:0:0:0:
368,124,56549,2,0,P|320:76|208:56,2,150,0|0|0,1:0|1:0|1:0,1:0:0:0:
508,224,57094,6,0,P|496:272|460:320,1,100,0|0,1:0|1:0,1:0:0:0:
368,248,57367,2,0,P|333:283|278:307,1,100,0|0,1:0|1:0,1:0:0:0:
256,192,57640,2,0,P|208:205|148:198,1,100,0|0,1:0|1:0,1:0:0:0:
120,96,57913,5,0,1:0:0:0:
256,24,58049,1,0,1:0:0:0:
256,192,58185,1,0,1:0:0:0:
256,228,58458,5,8,2:0:0:0:
256,264,59004,1,8,2:0:0:0:
256,296,59549,1,8,2:0:0:0:
256,332,60094,5,0,1:0:0:0:
256,112,60231,1,0,1:0:0:0:
256,112,60367,2,0,P|348:84|460:104,1,200,0|0,1:0|1:0,1:0:0:0:
360,192,60776,1,0,1:0:0:0:
464,268,60913,2,0,P|372:296|260:276,1,200,0|0,1:0|1:0,1:0:0:0:
64,192,61322,1,0,1:0:0:0:
20,112,61458,6,0,B|96:88|140:148|140:148|228:108,1,200,0|0,1:0|1:0,1:0:0:0:
312,80,61867,1,0,1:0:0:0:
424,124,62004,2,0,L|472:224,1,100,0|0,1:0|1:0,1:0:0:0:
356,260,62276,2,0,L|332:380,1,100,0|0,1:0|1:0,1:0:0:0:
64,192,62549,6,0,P|168:216|272:180,1,200,0|0,1:0|1:0,1:0:0:0:
256,192,62958,1,0,1:0:0:0:
424,124,63231,1,8,2:0:0:0:
424,124,63368,1,8,2:0:0:0:
88,124,63640,5,0,1:0:0:0:
256,192,63776,1,0,1:0:0:0:
92,296,63913,2,0,P|129:328|176:344,1,100,0|0,1:0|1:0,1:0:0:0:
256,192,64185,2,0,P|258:142|280:98,1,100,0|0,1:0|1:0,1:0:0:0:
280,98,64458,1,0,1:0:0:0:
280,98,64594,1,0,1:0:0:0:
420,296,64731,6,0,P|382:328|335:344,1,100,0|0,1:0|1:0,1:0:0:0:
92,296,65004,2,0,L|208:248,1,100,0|0,1:0|1:0,1:0:0:0:
88,124,65276,1,0,1:0:0:0:
96,296,65413,1,0,1:0:0:0:
256,192,65549,1,0,1:0:0:0:
256,40,65822,5,0,1:0:0:0:
364,92,65958,1,0,1:0:0:0:
420,196,66094,2,0,P|416:248|368:312,1,100,0|0,1:0|1:0,1:0:0:0:
256,192,66367,1,0,1:0:0:0:
88,124,66503,1,0,1:0:0:0:
96,296,66640,1,0,1:0:0:0:
256,192,66776,12,0,68004,1:0:0:0:
104,68,68140,5,0,1:0:0:0:
72,184,68276,2,0,P|68:228|100:292,1,100,0|0,1:0|1:0,1:0:0:0:
188,208,68549,1,0,1:0:0:0:
88,280,68685,1,0,1:0:0:0:
200,320,68822,2,0,P|260:324|316:316,1,100,0|0,1:0|1:0,1:0:0:0:
256,68,69094,5,0,1:0:0:0:
256,192,70185,5,8,3:0:0:0:
140,192,70594,1,8,3:0:0:0:
372,192,71004,1,8,3:0:0:0:
372,192,71276,5,8,3:0:0:0:
256,296,71413,1,8,3:0:0:0:
140,192,71549,1,8,3:0:0:0:
43,65,71822,6,0,P|93:60|141:73,1,100,0|0,1:0|1:0,1:0:0:0:
239,128,72367,2,0,P|289:133|337:120,1,100,0|0,1:0|1:0,1:0:0:0:
468,352,72913,6,0,L|444:304,1,50,0|0,1:0|1:0,1:0:0:0:
456,224,73185,2,0,P|408:229|364:272,1,100,0|0,1:0|1:0,1:0:0:0:
256,192,74004,5,0,1:0:0:0:
64,56,74549,6,0,P|59:136|81:209,1,150.000005722046,0|0,1:0|1:0,1:0:0:0:
188,120,75094,2,0,P|224:192|280:243,1,150.000005722046,0|0,1:0|1:0,1:0:0:0:
464,48,75640,5,8,2:0:0:0:
424,160,75776,1,8,2:0:0:0:
340,72,75913,2,8,P|288:64|232:68,1,100,8|8,2:0|2:0,2:0:0:0:
460,68,76185,5,8,2:0:0:0:
420,180,76321,1,8,2:0:0:0:
300,188,76458,2,8,P|250:207|204:238,1,100,8|8,2:0|2:0,2:0:0:0:
48,48,76731,5,8,2:0:0:0:
88,160,76867,1,8,2:0:0:0:
172,72,77004,2,8,P|224:64|280:68,1,100,8|8,2:0|2:0,2:0:0:0:
52,68,77276,5,8,2:0:0:0:
92,180,77412,1,8,2:0:0:0:
212,188,77549,2,8,P|261:207|307:238,1,100,8|8,2:0|2:0,2:0:0:0:
96,260,77822,5,8,2:0:0:0:
206,307,77958,1,8,2:0:0:0:
211,188,78095,2,8,L|235:86,1,100,8|8,2:0|2:0,2:0:0:0:
416,260,78367,5,8,2:0:0:0:
306,307,78503,1,8,2:0:0:0:
301,188,78640,2,8,L|276:86,1,100,8|8,2:0|2:0,2:0:0:0:
96,260,78913,6,8,P|148:244|212:208,1,100,8|8,2:0|2:0,2:0:0:0:
416,124,79185,2,8,P|364:140|300:176,1,100,8|8,2:0|2:0,2:0:0:0:
117,87,79458,6,8,P|156:124|220:161,1,100,8|8,2:0|2:0,2:0:0:0:
394,296,79730,2,8,P|355:259|291:222,1,100,8|8,2:0|2:0,2:0:0:0:
256,192,80549,12,0,84231,1:0:0:0:
60,56,84367,5,8,3:0:0:0:
192,76,84640,1,8,3:0:0:0:
122,193,84913,6,8,P|143:256|187:305,2,133.333333333333,8|8|8,3:0|3:0|3:0,3:0:0:0:
324,306,85458,2,8,P|368:257|388:194,2,133.333333333333,8|8|8,3:0|3:0|3:0,3:0:0:0:
321,75,86004,2,8,P|233:63|176:84,2,133.333333333333,8|8|8,3:0|3:0|3:0,3:0:0:0:
256,192,86549,5,8,3:0:0:0:
