osu file format v14

[General]
AudioFilename: jojo.mp3
AudioLeadIn: 0
PreviewTime: 55935
Countdown: 1
SampleSet: Normal
StackLeniency: 0.7
Mode: 0
LetterboxInBreaks: 1
WidescreenStoryboard: 0

[Editor]
Bookmarks: 2004,24368,24640,24913,38549,45913,50277,51640,58459,59004,59549,72913,75640,84368
DistanceSpacing: 1
BeatDivisor: 4
GridSize: 4
TimelineZoom: 2.599999

[Metadata]
Title:JoJo Sono Chi no Kioku ~end of THE WORLD~
TitleUnicode:ジョジョ その血の记忆~end of THE WORLD
Artist:Coda, Hashimoto Jin, JOSTAR, STOMMY
ArtistUnicode:Coda、桥本仁、JO☆STARS~TOMMY
Creator:Supy
Version:Dio
Source:ジョジョ の奇妙な冒険 スターダストクルセイダース
Tags:jojo dio supy stardust oraoraora
BeatmapID:657088
BeatmapSetID:291872

[Difficulty]
HPDrainRate:5
CircleSize:4
OverallDifficulty:8
ApproachRate:9.3
SliderMultiplier:2
SliderTickRate:1

[Events]
//Background and Video events
0,0,"42964699.jpg",0,0
//Break Periods
//Storyboard Layer 0 (Background)
//Storyboard Layer 1 (Fail)
//Storyboard Layer 2 (Pass)
//Storyboard Layer 3 (Foreground)
//Storyboard Sound Samples

[TimingPoints]
2004,272.727272727273,4,1,0,50,1,0
13458,-200,4,1,0,50,0,0
13935,-100,4,1,0,50,0,0
17822,-66.6666666666667,4,1,0,50,0,0
18776,-100,4,1,0,50,0,0
31322,-133.333333333333,4,1,0,50,0,0
31459,-100,4,1,0,50,0,0
45504,-200,4,1,0,50,0,0
48095,-100,4,1,0,50,0,0
48572,-200,4,1,0,50,0,0
48640,-200,4,1,0,50,0,1
49459,-100,4,1,0,50,0,1
79867,-100,4,1,0,50,0,0
80685,-200,4,1,0,50,0,0

[HitObjects]
256,192,2004,12,0,4458,2:0:0:0:
256,192,5004,12,0,7458,2:0:0:0:
256,192,8004,12,0,10458,2:0:0:0:
256,192,11004,12,0,13322,2:0:0:0:
304,240,13458,5,0,2:0:0:0:
288,256,13526,1,0,2:0:0:0:
268,266,13595,1,0,2:0:0:0:
246,267,13663,1,0,2:0:0:0:
225,260,13731,1,0,2:0:0:0:
207,246,13799,1,0,2:0:0:0:
197,227,13867,1,0,2:0:0:0:
194,204,13935,1,0,2:0:0:0:
200,184,14004,5,0,2:0:0:0:
230,151,14072,1,0,2:0:0:0:
234,107,14140,1,0,2:0:0:0:
209,71,14208,1,0,2:0:0:0:
167,57,14276,1,0,2:0:0:0:
126,72,14344,1,0,2:0:0:0:
103,110,14413,2,0,L|80:168,1,50,0|0,2:0|2:0,2:0:0:0:
56,236,14549,5,8,2:0:0:0:
56,236,14685,1,0,2:0:0:0:
132,284,14822,2,0,P|176:296|236:284,1,100,0|0,2:0|2:1,2:0:0:0:
436,312,15094,5,8,2:0:0:0:
388,232,15231,1,0,2:0:0:0:
296,240,15367,2,0,P|304:192|348:136,1,100,0|0,2:0|2:1,2:0:0:0:
76,72,15640,5,8,2:0:0:0:
120,152,15776,1,0,2:0:0:0:
212,136,15913,2,0,P|205:190|178:227,1,100,0|0,2:0|2:1,2:0:0:0:
340,100,16185,5,8,2:0:0:0:
420,148,16322,1,0,2:0:0:0:
480,216,16458,2,0,P|448:236|388:232,1,100,0|0,2:0|2:1,2:0:0:0:
132,320,16731,6,0,P|164:332|236:328,1,100,8|0,2:0|2:1,2:0:0:0:
184,248,17004,1,0,2:0:0:0:
92,240,17140,1,0,2:0:0:0:
120,152,17276,2,0,P|132:96|172:56,1,100,8|0,2:0|2:1,2:0:0:0:
256,64,17549,5,0,2:0:0:0:
383,88,17685,1,0,2:0:0:0:
383,88,17754,1,0,2:0:0:0:
383,88,17822,1,8,2:0:0:0:
376,207,17958,1,8,2:0:0:0:
272,263,18094,1,8,2:0:0:0:
383,88,18231,1,8,2:0:0:0:
361,190,18367,1,8,2:0:0:0:
267,234,18503,1,8,2:0:0:0:
383,88,18640,1,8,2:0:0:0:
395,221,18776,1,8,2:0:0:0:
273,290,18913,2,0,P|216:270|157:221,2,100,8|0|0,0:0|0:0|0:0,0:0:0:0:
273,290,19322,1,0,0:0:0:0:
176,116,19458,1,0,2:0:0:0:
256,76,19594,1,0,2:0:0:0:
256,192,19731,1,8,2:0:0:0:
340,72,20004,5,8,2:0:0:0:
424,120,20140,1,0,2:0:0:0:
408,216,20276,1,0,2:0:0:0:
408,216,20413,2,0,P|368:256|320:252,1,100,0|8,2:0|2:1,2:0:0:0:
327,256,20617,1,0,2:0:0:0:
327,256,20685,1,0,2:0:0:0:
256,192,20822,1,0,2:0:0:0:
76,220,21094,5,8,2:0:0:0:
164,260,21231,1,0,2:0:0:0:
168,88,21367,1,0,2:0:0:0:
256,128,21504,1,0,2:0:0:0:
352,124,21640,2,0,P|336:72|304:40,2,100,8|0|8,2:0|2:0|2:0,2:0:0:0:
428,192,22049,1,0,2:0:0:0:
328,256,22185,6,0,L|388:348,1,100,8|0,2:0|2:0,2:0:0:0:
184,128,22458,2,0,L|129:44,1,100,8|0,2:0|2:0,2:0:0:0:
352,124,22731,1,8,2:0:0:0:
256,192,22867,1,8,2:0:0:0:
160,260,23004,1,8,2:0:0:0:
100,84,23276,5,8,2:0:0:0:
184,128,23413,1,0,2:0:0:0:
188,36,23549,2,0,P|232:48|272:96,1,100,0|0,2:0|2:0,2:0:0:0:
456,88,23822,5,8,2:0:0:0:
428,192,23958,1,0,2:0:0:0:
352,124,24094,1,0,2:0:0:0:
320,228,24231,1,0,2:0:0:0:
192,228,24367,6,0,L|101:280,1,100,8|0,2:0|2:0,2:0:0:0:
256,120,24640,2,0,L|256:16,1,100,8|0,2:0|2:0,2:0:0:0:
320,228,24913,2,0,L|410:280,1,100,8|0,2:0|2:0,2:0:0:0:
406,278,25117,1,0,2:0:0:0:
406,278,25185,1,8,2:0:0:0:
60,136,25458,5,8,2:0:0:0:
128,76,25594,1,0,2:0:0:0:
220,84,25731,2,0,P|251:114|312:132,1,100,0|0,2:0|2:0,2:0:0:0:
396,144,26004,1,8,2:0:0:0:
476,100,26140,1,0,2:0:0:0:
406,278,26276,1,0,2:0:0:0:
328,320,26412,1,0,2:0:0:0:
248,360,26549,6,0,L|151:332,1,100,8|0,2:0|2:0,2:0:0:0:
112,228,26822,2,0,L|208:254,1,100,8|0,2:0|2:0,2:0:0:0:
304,188,27094,2,0,L|207:160,1,100,8|0,2:0|2:0,2:0:0:0:
56,296,27367,1,0,0:0:0:0:
85,256,27435,1,0,0:0:0:0:
99,208,27503,1,0,0:0:0:0:
94,158,27571,1,0,0:0:0:0:
84,120,27640,2,0,P|99:68|168:52,1,100,8|0,2:0|2:0,2:0:0:0:
257,47,27913,1,0,2:0:0:0:
257,47,28049,1,0,2:0:0:0:
256,148,28185,5,8,2:0:0:0:
256,240,28322,1,0,2:0:0:0:
256,332,28458,2,0,P|297:342|360:332,1,100,0|0,2:0|2:0,2:0:0:0:
460,196,28731,2,0,P|419:186|356:196,1,100,8|0,2:0|2:0,2:0:0:0:
362,193,28935,1,0,2:0:0:0:
362,193,29004,1,0,2:0:0:0:
167,49,29276,6,0,P|124:61|80:112,1,100,8|0,2:0|2:0,2:0:0:0:
168,140,29549,1,0,2:0:0:0:
92,192,29685,1,0,2:0:0:0:
92,284,29822,1,8,2:0:0:0:
300,320,30094,6,0,P|340:352|396:368,1,100,0|0,2:0|2:0,2:0:0:0:
380,276,30367,2,0,P|340:244|284:228,1,100,8|0,2:0|2:0,2:0:0:0:
328,144,30640,2,0,P|368:176|424:192,1,100,0|0,2:0|2:0,2:0:0:0:
408,100,30913,2,0,P|368:68|312:52,1,100,8|0,2:0|2:0,2:0:0:0:
322,53,31117,1,0,2:0:0:0:
322,53,31185,1,0,2:0:0:0:
184,72,31322,6,0,L|112:132,1,75.0000028610231,8|8,2:0|2:0,2:0:0:0:
40,88,31594,2,8,P|60:176|172:196,1,200,8|8,2:0|2:0,2:0:0:0:
256,208,32004,5,0,2:0:0:0:
308,298,32140,1,0,2:0:0:0:
205,298,32276,1,0,2:0:0:0:
426,33,32549,5,0,2:0:0:0:
391,131,32685,1,0,2:0:0:0:
323,53,32822,1,0,2:0:0:0:
256,148,33094,6,0,P|258:192|232:248,1,100,0|0,2:0|2:0,2:0:0:0:
68,244,33367,2,0,P|67:194|87:149,1,100,0|0,2:0|2:0,2:0:0:0:
160,200,33640,1,0,2:0:0:0:
160,200,33708,1,0,2:0:0:0:
160,200,33776,1,0,2:0:0:0:
68,244,33913,1,0,2:0:0:0:
36,104,34185,5,0,2:0:0:0:
124,60,34322,1,0,2:0:0:0:
212,108,34458,1,0,2:0:0:0:
476,280,34731,5,0,2:0:0:0:
388,324,34867,1,0,2:0:0:0:
300,276,35004,1,0,2:0:0:0:
80,344,35276,6,0,P|132:340|188:312,1,100,0|0,2:0|2:0,2:0:0:0:
104,236,35549,2,0,P|52:232|-4:204,1,100,0|0,2:0|2:0,2:0:0:0:
84,132,35822,1,0,2:0:0:0:
84,132,35890,1,0,2:0:0:0:
84,132,35958,1,0,2:0:0:0:
164,76,36094,1,0,2:0:0:0:
476,280,36367,5,0,2:0:0:0:
388,324,36503,1,0,2:0:0:0:
300,276,36639,1,0,2:0:0:0:
104,236,36913,5,0,2:0:0:0:
104,339,37049,1,0,2:0:0:0:
196,288,37185,1,0,2:0:0:0:
184,112,37458,6,0,L|96:48,1,100,0|0,2:0|2:0,2:0:0:0:
196,288,37731,2,0,L|276:346,1,100,0|0,2:0|2:0,2:0:0:0:
256,192,38004,1,0,2:0:0:0:
256,192,38072,1,0,2:0:0:0:
256,192,38140,1,0,2:0:0:0:
328,112,38276,1,0,2:0:0:0:
328,112,38344,1,0,2:0:0:0:
328,112,38413,1,0,2:0:0:0:
359,31,38549,6,8,P|413:99|356:200,1,200,8|0,2:0|2:0,2:0:0:0:
256,192,38958,1,8,2:0:0:0:
153,31,39094,6,8,P|99:99|156:200,1,200,8|0,2:0|2:0,2:0:0:0:
256,192,39504,1,0,2:0:0:0:
124,264,39640,2,0,P|80:240|44:192,1,100,8|0,2:0|2:0,2:0:0:0:
256,112,39913,5,0,2:0:0:0:
256,272,40049,1,0,2:0:0:0:
328,112,40185,1,8,2:0:0:0:
184,272,40322,1,0,2:0:0:0:
388,264,40458,2,0,P|432:240|468:192,1,100,0|0,2:0|2:0,2:0:0:0:
376,176,40731,5,8,2:3:0:0:
336,176,41276,5,8,2:3:0:0:
296,176,41822,5,8,2:3:0:0:
48,212,42094,5,8,2:3:0:0:
48,212,42367,2,8,P|120:318|284:328,1,300,8|8,2:0|2:0,2:0:0:0:
360,48,42913,5,8,2:0:0:0:
152,48,43049,1,8,2:0:0:0:
76,96,43185,2,0,P|108:126|176:136,1,100,8|8,2:0|2:0,2:0:0:0:
360,48,43594,5,8,2:0:0:0:
436,96,43731,2,0,P|404:126|336:136,1,100,8|8,2:0|2:0,2:0:0:0:
236,156,44004,6,0,B|108:156|108:156|184:156|184:156|240:324|160:396|76:312|92:272,1,500,0|0,2:0|2:0,2:0:0:0:
336,212,44822,2,0,P|328:280|352:212,1,200,0|0,2:0|2:0,2:0:0:0:
220,180,45367,5,0,2:0:0:0:
160,148,45504,1,0,2:0:0:0:
128,88,45640,1,0,2:0:0:0:
128,88,45913,6,0,P|172:53|218:36,1,100,0|0,2:0|2:0,2:0:0:0:
280,40,46322,1,0,2:0:0:0:
344,64,46458,1,0,2:0:0:0:
436,288,46731,5,0,2:0:0:0:
376,320,46867,1,0,2:0:0:0:
316,288,47004,1,0,2:0:0:0:
256,320,47140,1,0,2:0:0:0:
256,320,47276,2,0,P|216:356|156:344,1,100,0|0,2:0|2:0,2:0:0:0:
196,288,47685,1,0,2:0:0:0:
196,288,47822,1,0,2:0:0:0:
432,44,48094,5,0,2:0:0:0:
372,108,48231,1,0,2:0:0:0:
352,192,48367,2,0,P|313:169|284:116,1,100,0|0,2:0|2:0,2:0:0:0:
316,288,48640,6,0,P|272:252|192:300,1,150,0|0,2:0|2:0,2:0:0:0:
196,288,49117,1,0,2:0:0:0:
196,288,49185,1,8,2:0:0:0:
256,132,49322,1,0,2:0:0:0:
316,288,49458,1,8,2:0:0:0:
440,252,49731,5,8,2:0:0:0:
352,192,49867,1,8,2:0:0:0:
316,288,50004,1,8,2:0:0:0:
72,252,50276,5,8,2:0:0:0:
160,192,50413,1,8,2:0:0:0:
164,376,50549,2,8,P|164:336|208:280,1,100,8|0,2:0|2:0,2:0:0:0:
196,288,50754,1,0,2:0:0:0:
196,289,50822,1,8,2:0:0:0:
316,288,50958,1,0,2:0:0:0:
256,192,51094,1,8,2:0:0:0:
464,340,51367,5,8,2:0:0:0:
412,268,51504,1,0,2:0:0:0:
472,204,51640,2,0,P|442:157|403:135,1,100,8|0,2:0|2:0,2:0:0:0:
404,135,51844,1,0,2:0:0:0:
404,135,51913,1,8,2:0:0:0:
360,28,52049,1,0,2:0:0:0:
256,80,52185,6,0,L|148:132,1,100,8|0,2:0|2:0,2:0:0:0:
256,304,52458,2,0,L|364:252,1,100,8|0,2:0|2:0,2:0:0:0:
80,96,52731,1,8,2:0:0:0:
80,188,52867,1,0,2:0:0:0:
80,208,52935,1,0,2:0:0:0:
80,228,53004,2,0,P|96:272|144:304,1,100,8|0,2:0|2:0,2:0:0:0:
256,304,53276,5,8,2:0:0:0:
300,132,53413,1,0,2:0:0:0:
128,96,53549,1,8,2:0:0:0:
128,96,53822,6,0,P|148:48|184:4,1,100,8|0,2:0|2:0,2:0:0:0:
216,184,54094,2,0,P|257:152|312:128,1,100,8|0,2:0|2:0,2:0:0:0:
412,268,54367,1,8,2:0:0:0:
412,268,54504,1,0,2:0:0:0:
256,304,54640,1,8,2:0:0:0:
256,304,54708,1,0,2:0:0:0:
256,304,54776,1,0,2:0:0:0:
256,304,54913,6,0,P|217:325|152:324,1,100,8|0,2:0|2:0,2:0:0:0:
256,80,55185,2,0,P|295:59|360:60,2,100,8|0|0,2:0|2:0|2:0,2:0:0:0:
256,192,55594,1,0,2:0:0:0:
164,56,55731,1,8,2:0:0:0:
56,256,56004,6,8,P|90:308|180:308,2,150,8|8|8,2:0|2:0|2:0,2:0:0:0:
456,256,56549,6,8,P|422:308|340:308,2,150,8|8|8,2:0|2:0|2:0,2:0:0:0:
256,92,57094,6,0,L|256:200,1,100,8|0,2:0|2:0,2:0:0:0:
256,304,57367,1,8,2:0:0:0:
104,220,57640,6,0,P|148:292|264:300,1,200,8|8,2:0|2:0,2:0:0:0:
376,280,58049,1,0,2:0:0:0:
376,280,58185,5,0,2:0:0:0:
398,150,58322,1,0,2:0:0:0:
275,195,58458,1,8,2:0:0:0:
382,298,58731,5,0,2:0:0:0:
411,135,58867,1,0,2:0:0:0:
255,191,59004,1,8,2:0:0:0:
389,317,59276,5,0,2:0:0:0:
424,119,59413,1,0,2:0:0:0:
235,188,59549,1,8,2:0:0:0:
396,336,59822,6,0,P|358:314|296:312,1,100,8|0,2:0|2:0,2:0:0:0:
152,276,60094,1,0,0:0:0:0:
189,265,60162,1,0,0:0:0:0:
217,238,60230,1,0,0:0:0:0:
230,200,60298,1,0,0:0:0:0:
212,164,60367,2,0,P|296:192|328:84,1,200,8|8,2:0|2:0,2:0:0:0:
444,72,60776,1,0,2:0:0:0:
340,108,60913,5,8,2:0:0:0:
236,72,61049,1,0,2:0:0:0:
236,72,61117,1,0,2:0:0:0:
236,72,61185,2,0,P|198:94|140:92,1,100,8|0,2:0|2:0,2:0:0:0:
296,312,61458,2,0,P|334:290|388:292,1,100,8|0,2:0|2:0,2:0:0:0:
388,292,61663,1,0,2:0:0:0:
388,292,61731,1,8,2:0:0:0:
464,212,61867,1,0,2:0:0:0:
352,192,62004,6,0,P|300:180|248:196,1,100,8|0,2:0|2:0,2:0:0:0:
172,260,62276,2,0,P|148:216|148:152,1,100,8|0,2:0|2:0,2:0:0:0:
152,136,62481,1,0,2:0:0:0:
168,112,62549,2,0,P|236:48|340:48,1,200,8|8,2:0|2:0,2:0:0:0:
444,72,62958,1,8,2:0:0:0:
256,192,63231,5,8,2:0:0:0:
256,192,63367,1,8,2:0:0:0:
40,64,63640,6,0,P|84:64|132:36,1,100,8|0,2:0|2:0,2:0:0:0:
220,76,63913,2,0,P|264:76|312:104,1,100,8|0,2:0|2:0,2:0:0:0:
312,104,64117,1,0,2:0:0:0:
312,104,64185,1,8,2:0:0:0:
96,192,64322,1,0,2:0:0:0:
292,308,64458,6,0,P|248:308|200:280,1,100,8|0,2:0|2:0,2:0:0:0:
200,280,64731,1,8,2:0:0:0:
312,104,64867,1,0,2:0:0:0:
416,192,65004,6,0,P|438:230|436:288,1,100,8|0,2:0|2:0,2:0:0:0:
256,192,65276,2,0,P|233:153|236:96,1,100,8|0,2:0|2:0,2:0:0:0:
96,192,65549,2,0,P|73:230|76:292,1,100,8|0,2:0|2:0,2:0:0:0:
200,280,65822,5,8,2:0:0:0:
256,192,65958,1,0,2:0:0:0:
292,308,66094,1,8,2:0:0:0:
312,320,66163,1,0,2:0:0:0:
336,324,66231,1,0,2:0:0:0:
360,320,66299,1,0,2:0:0:0:
380,308,66367,2,0,P|400:272|368:200,1,100,8|0,2:0|2:0,2:0:0:0:
252,84,66640,2,0,P|180:88|168:105,1,100,8|0,2:0|2:0,2:0:0:0:
168,104,66913,5,8,2:0:0:0:
256,192,67049,1,8,2:0:0:0:
168,280,67185,1,8,2:0:0:0:
344,280,67458,5,8,2:0:0:0:
256,192,67594,1,8,2:0:0:0:
344,104,67731,1,8,2:0:0:0:
72,300,68004,6,0,P|132:296|168:280,1,100,8|0,2:0|2:0,2:0:0:0:
168,280,68208,1,0,2:0:0:0:
168,280,68276,1,8,2:0:0:0:
344,280,68413,1,0,2:0:0:0:
256,192,68549,1,8,2:0:0:0:
168,104,68685,1,0,2:0:0:0:
168,104,68754,1,0,2:0:0:0:
168,104,68822,2,0,P|200:60|244:40,1,100,8|0,2:0|2:0,2:0:0:0:
344,104,69094,5,8,2:0:0:0:
432,192,69231,1,0,2:0:0:0:
344,280,69367,2,0,P|312:324|268:344,1,100,8|0,2:0|2:0,2:0:0:0:
168,280,69640,1,8,2:0:0:0:
80,192,69777,1,0,2:0:0:0:
168,104,69913,2,0,P|204:76|264:68,1,100,8|0,2:0|2:0,2:0:0:0:
256,192,70185,5,8,3:0:0:0:
256,192,70594,5,8,3:0:0:0:
256,192,71004,5,8,3:0:0:0:
168,104,71276,5,8,3:0:0:0:
256,192,71413,1,8,3:0:0:0:
344,280,71549,1,8,3:0:0:0:
344,280,71822,6,0,B|256:328|256:328|156:272,1,200,8|8,2:0|2:0,2:0:0:0:
168,280,72367,1,8,2:0:0:0:
256,192,72640,1,8,2:0:0:0:
168,104,72913,1,0,0:0:0:0:
168,104,73049,2,0,P|216:72|220:72,2,50,8|0|0,2:0|2:0|2:0,2:0:0:0:
256,192,73458,5,8,2:0:0:0:
256,192,74004,5,8,2:0:0:0:
256,192,74549,6,0,L|312:240,2,50,8|0|0,2:0|2:0|2:0,2:0:0:0:
256,192,74822,2,0,P|211:192|156:224,1,100,8|0,2:0|2:0,2:0:0:0:
164,368,75094,6,0,L|108:320,2,50,8|0|0,2:0|2:0|2:0,2:0:0:0:
164,368,75367,2,0,P|209:368|264:336,1,100,8|0,2:0|2:0,2:0:0:0:
256,112,75640,5,8,2:3:0:0:
336,192,75776,1,0,2:3:0:0:
256,272,75913,1,8,2:3:0:0:
176,192,76049,1,0,2:3:0:0:
304,108,76185,5,8,2:3:0:0:
339,239,76322,1,0,2:3:0:0:
208,275,76458,1,8,2:3:0:0:
172,144,76594,1,0,2:3:0:0:
352,136,76731,5,8,2:3:0:0:
312,288,76867,1,0,2:3:0:0:
159,248,77004,1,8,2:3:0:0:
200,95,77140,1,0,2:3:0:0:
384,192,77276,5,8,2:3:0:0:
256,320,77413,1,0,2:3:0:0:
128,192,77549,1,8,2:3:0:0:
256,64,77685,1,0,2:3:0:0:
200,135,77822,5,8,2:3:0:0:
40,219,77958,1,0,2:3:0:0:
116,88,78094,1,8,2:3:0:0:
124,267,78231,1,0,2:3:0:0:
312,135,78367,5,8,2:3:0:0:
472,219,78504,1,0,2:3:0:0:
396,88,78640,1,8,2:3:0:0:
388,267,78776,1,0,2:3:0:0:
256,84,78913,5,8,2:3:0:0:
192,279,79049,1,0,2:3:0:0:
358,158,79185,1,8,2:3:0:0:
153,158,79322,1,0,2:3:0:0:
319,279,79458,5,8,2:3:0:0:
396,88,79594,1,0,2:3:0:0:
116,88,79731,1,8,2:3:0:0:
256,352,79867,1,0,2:3:0:0:
256,8,80549,5,0,2:0:0:0:
256,8,80685,2,0,B|296:136|296:136|432:136|432:136|320:212|320:212|364:340|364:340|256:260|256:260|148:340|148:340|192:212|192:212|80:136|80:136|216:136|216:136|244:40,1,1300,0|0,2:0|2:0,2:0:0:0:
132,48,84367,5,8,3:0:0:0:
132,48,84640,5,8,3:0:0:0:
132,48,84913,5,8,3:0:0:0:
112,140,85094,1,8,3:0:0:0:
120,240,85276,1,8,3:0:0:0:
223,173,85458,5,8,3:0:0:0:
248,272,85640,1,8,3:0:0:0:
330,331,85822,1,8,3:0:0:0:
304,133,86004,5,8,3:0:0:0:
221,76,86185,1,8,3:0:0:0:
132,48,86367,1,8,3:0:0:0:
256,192,86549,5,8,3:0:0:0:
