osu file format v14

[General]
AudioFilename: audio.mp3
AudioLeadIn: 0
PreviewTime: 55656
Countdown: 0
SampleSet: Soft
StackLeniency: 0.7
Mode: 0
LetterboxInBreaks: 0
WidescreenStoryboard: 0

[Editor]
Bookmarks: 19942,21409,31844,42279,47496,48800,50105,51246,53039,53366,53692,54018,56463,72279,74887,77496,82558,84344,85159
DistanceSpacing: 0.3
BeatDivisor: 4
GridSize: 32
TimelineZoom: 2.100001

[Metadata]
Title:Fighting Gold (TV Size)
TitleUnicode:Fighting Gold (TV Size)
Artist:Coda
ArtistUnicode:Coda
Creator:hypercyte
Version:Gold Experience
Source:ジョジョの奇妙な冒険 黄金の風
Tags:JoJo's Bizarre Adventure Part 5 Golden Wind JoJo no Kimyou na Bouken Part 5 Ougon no Kaze e Bizzarre Avventure Di GioGio Parte 5: Vento Aureo opening hypercute tomadoi shiinoha kotone peter petereu testo
BeatmapID:1804239
BeatmapSetID:862547

[Difficulty]
HPDrainRate:6
CircleSize:4.2
OverallDifficulty:9
ApproachRate:9.3
SliderMultiplier:1.9
SliderTickRate:1

[Events]
//Background and Video events
Video,0,"fighting gold.mp4"
0,0,"fighting goooooooooooooooooooooooooooooooooooooooold.png",0,0
//Break Periods
//Storyboard Layer 0 (Background)
//Storyboard Layer 1 (Fail)
//Storyboard Layer 2 (Pass)
//Storyboard Layer 3 (Foreground)
//Storyboard Sound Samples

[TimingPoints]
548,326.086956521739,4,2,2,75,1,0
548,-83.3333333333333,4,2,2,75,0,0
3156,-90.9090909090909,4,2,2,75,0,0
4950,-200,4,2,2,50,0,0
5765,-90.9090909090909,4,2,1,80,0,0
7069,-90.9090909090909,4,2,1,40,0,0
7558,-90.9090909090909,4,2,1,60,0,0
8047,-90.9090909090909,4,2,1,80,0,0
8374,-111.111111111111,4,2,1,80,0,0
10982,-222.222222222221,4,2,1,40,0,0
12613,-181.818181818181,4,2,1,40,0,0
13917,-153.846153846153,4,2,1,50,0,0
14732,-133.333333333333,4,2,1,50,0,0
16526,-133.333333333333,4,2,1,60,0,0
17341,-105.263157894737,4,2,1,60,0,0
18645,-181.818181818181,4,2,1,60,0,0
19950,-83.3333333333333,4,2,1,70,0,0
20846,-83.3333333333333,4,2,1,5,0,0
20928,-83.3333333333333,4,2,1,70,0,0
21091,-83.3333333333333,4,2,1,5,0,0
21172,-83.3333333333333,4,2,1,70,0,0
21336,-83.3333333333333,4,2,1,5,0,0
21417,-100,4,2,1,70,0,0
31852,-125,4,2,1,70,0,0
42205,-125,4,2,1,5,0,0
42286,-125,4,2,1,60,0,0
42939,-133.333333333333,4,2,1,65,0,0
47015,-133.333333333333,4,2,1,55,0,0
47504,-83.3333333333333,4,2,1,70,0,0
51254,-125,4,2,1,80,0,0
55330,-100,4,2,1,5,0,0
56471,-83.3333333333333,4,2,1,90,0,1
79949,-83.3333333333333,4,2,1,80,0,1
82558,-100,4,2,1,70,0,0
84026,-100,4,2,1,5,0,0
84351,-100,4,2,1,80,0,0
85166,-100,4,2,1,90,0,0
89242,-100,4,2,1,5,0,0

[Colours]
Combo1 : 98,81,255
Combo2 : 242,188,26
Combo3 : 250,84,180
Combo4 : 53,185,255

[HitObjects]
176,115,548,6,0,B|250:97|250:97|324:135|324:135|398:117,1,227.999993041992,6|0,0:3|0:0,0:0:0:0:
511,318,1037,2,0,B|446:281|446:281|278:328,1,227.999993041992,6|0,0:3|0:0,0:0:0:0:
512,76,1526,1,2,0:3:0:0:
142,186,3156,6,0,P|193:144|317:214,1,209.000006378174,6|0,0:3|0:0,0:0:0:0:
479,186,3645,2,0,P|428:144|304:214,1,209.000006378174,6|0,0:3|0:0,0:0:0:0:
360,355,4134,1,2,0:3:0:0:
159,319,4950,5,2,0:0:0:0:
159,319,5113,2,0,P|208:256|150:239,1,166.25,2|0,0:0|0:0,0:0:0:0:
162,245,5765,6,0,B|176:182|176:182|147:113|147:113|165:30,1,209.000006378174,4|0,0:2|0:0,0:0:0:0:
372,99,6254,2,0,P|294:56|281:145,1,209.000006378174,4|2,0:2|0:0,0:0:0:0:
55,297,6743,2,0,L|78:195,1,104.500003189087,4|0,0:2|0:0,0:0:0:0:
162,305,7069,5,2,0:0:0:0:
176,290,7232,1,2,0:0:0:0:
186,271,7395,1,2,0:0:0:0:
324,382,7558,5,2,0:0:0:0:
298,336,7721,1,2,0:0:0:0:
296,283,7884,1,2,0:0:0:0:
160,342,8047,5,2,0:0:0:0:
186,271,8211,1,2,0:0:0:0:
169,74,8374,6,0,B|137:112|161:180|202:185|202:185|188:138,1,170.999994781494,4|0,0:2|0:0,0:0:0:0:
371,119,8863,2,0,B|354:72|283:59|258:92|258:92|306:103,1,170.999994781494,4|2,0:2|0:0,0:0:0:0:
286,286,9352,2,0,L|302:168,1,85.4999973907472,4|0,0:2|0:0,0:0:0:0:
85,62,9678,5,2,0:0:0:0:
125,152,9841,1,2,0:0:0:0:
116,261,10004,1,2,0:0:0:0:
250,194,10167,1,8,0:1:0:0:
248,206,10249,1,8,0:1:0:0:
246,218,10330,1,8,0:1:0:0:
202,82,10493,5,8,0:3:0:0:
387,182,10656,1,8,0:3:0:0:
488,85,10819,1,4,0:3:0:0:
512,267,11145,5,0,0:0:0:0:
512,267,11308,2,0,P|480:259|464:258,1,42.7499986953736,2|2,0:0|0:0,0:0:0:0:
400,299,11634,1,2,0:0:0:0:
400,299,11797,2,0,P|368:307|352:308,1,42.7499986953736,0|0,0:0|0:0,0:0:0:0:
287,262,12124,6,0,P|225:248|190:260,1,85.4999973907472,2|2,0:0|0:0,0:0:0:0:
109,369,12613,2,0,P|112:326|109:293,1,52.2500015945435,2|0,0:0|0:0,0:0:0:0:
84,240,12939,1,2,0:0:0:0:
208,304,13102,2,0,P|204:261|208:228,1,52.2500015945435,2|0,0:0|0:0,0:0:0:0:
154,121,13428,2,0,P|154:147|150:173,1,52.2500015945435,0|0,0:0|0:0,0:0:0:0:
210,42,13754,5,0,0:0:0:0:
300,126,13917,2,0,P|341:118|364:105,1,61.7499971733095,2|2,0:0|0:0,0:0:0:0:
217,64,14243,1,2,0:0:0:0:
221,187,14406,2,0,P|255:210|281:217,1,61.7499971733095,0|2,0:0|0:0,0:0:0:0:
400,325,14732,6,0,B|369:310|325:327|325:327|285:345|238:331,1,142.500005435944,2|2,0:0|0:0,0:0:0:0:
108,363,15221,2,0,P|172:373|187:382,1,71.2500027179719,2|0,0:0|0:0,0:0:0:0:
51,203,15547,1,2,0:0:0:0:
36,287,15711,2,0,P|106:270|135:196,1,142.500005435944,2|0,0:0|0:0,0:0:0:0:
181,34,16200,5,0,0:0:0:0:
171,57,16363,1,0,0:0:0:0:
206,130,16526,2,0,P|271:129|300:110,1,71.2500027179719,2|2,0:0|0:0,0:0:0:0:
382,53,16852,1,2,0:0:0:0:
344,129,17015,2,0,P|279:128|250:109,1,71.2500027179719,0|0,0:0|0:0,0:0:0:0:
155,279,17341,6,0,B|228:269|228:269|253:278|253:278|342:267,1,180.49999518013,2|2,0:0|0:0,0:0:0:0:
392,206,17830,1,2,0:0:0:0:
392,206,17993,1,2,0:0:0:0:
476,307,18156,1,2,0:0:0:0:
488,97,18319,1,2,0:0:0:0:
488,97,18645,6,0,L|374:92,1,104.500003189087,2|0,0:0|0:0,0:0:0:0:
317,44,19134,2,0,L|264:49,1,52.2500015945435,0|0,0:0|0:0,0:0:0:0:
197,89,19461,1,0,0:0:0:0:
197,89,19624,2,0,L|144:84,1,52.2500015945435,0|0,0:0|0:0,0:0:0:0:
376,184,19950,6,0,B|330:193|292:167|292:167|273:185|268:216|268:216|221:192|154:193|136:266|136:266,1,284.999991302491,12|0,0:0|0:0,0:0:0:0:
151,251,20439,1,8,0:0:0:0:
156,260,20521,1,8,0:0:0:0:
157,269,20602,1,8,0:0:0:0:
157,278,20683,6,0,B|178:217|178:217|170:148,1,113.999996520996,8|0,0:1|0:0,0:0:0:0:
84,99,20928,2,0,B|126:147|126:147|190:175,1,113.999996520996,8|0,0:1|0:0,0:0:0:0:
274,125,21172,2,0,B|210:137|210:137|154:178,1,113.999996520996,8|0,0:1|0:0,0:0:0:0:
386,203,21417,6,0,P|309:214|280:293,1,142.5,12|0,0:2|0:0,0:0:0:0:
358,279,21743,1,8,0:1:0:0:
387,120,21906,1,0,0:0:0:0:
443,260,22069,1,8,0:2:0:0:
309,176,22232,1,0,0:0:0:0:
466,167,22395,2,0,L|534:152,1,47.5,8|0,0:1|0:0,0:0:0:0:
301,160,22558,6,0,L|197:137,1,95,10|0,0:2|0:0,0:0:0:0:
108,184,22884,1,8,0:2:0:0:
122,100,23047,1,8,0:1:0:0:
172,238,23211,1,8,0:2:0:0:
30,224,23374,1,0,0:0:0:0:
108,184,23537,1,8,0:2:0:0:
242,318,23700,2,0,L|349:306,1,95,8|0,0:1|0:0,0:0:0:0:
508,384,24026,6,0,L|413:373,1,95,8|0,0:2|0:0,0:0:0:0:
407,184,24352,1,8,0:1:0:0:
425,279,24515,1,0,0:0:0:0:
495,215,24678,1,8,0:2:0:0:
392,90,24841,2,0,L|409:199,1,95,8|8,0:2|0:1,0:0:0:0:
512,74,25167,6,0,L|490:256,1,142.5,10|0,0:2|0:0,0:0:0:0:
425,279,25493,1,8,0:2:0:0:
251,226,25656,1,8,0:1:0:0:
279,316,25819,1,8,0:2:0:0:
170,133,25982,1,0,0:0:0:0:
138,314,26145,1,8,0:2:0:0:
42,136,26308,2,0,P|62:193|65:230,1,95,8|0,0:1|0:0,0:0:0:0:
9,15,26634,6,0,P|66:35|103:38,1,95,8|0,0:2|0:0,0:0:0:0:
274,10,26961,1,8,0:1:0:0:
214,74,27124,1,0,0:0:0:0:
246,157,27287,2,0,P|297:136|338:134,1,95,8|8,0:2|0:2,0:0:0:0:
360,54,27612,1,8,0:1:0:0:
490,250,27776,6,0,P|447:229|400:228,1,95,10|0,0:2|0:0,0:0:0:0:
344,341,28102,1,8,0:2:0:0:
227,215,28265,2,0,P|245:264|248:310,1,95,8|8,0:1|0:2,0:0:0:0:
165,384,28591,1,0,0:0:0:0:
48,192,28754,2,0,P|30:241|80:321,1,142.5,8|0,0:2|0:0,0:0:0:0:
65,325,29080,6,0,B|155:293|155:293|273:310,1,190,2|0,0:0|0:0,0:0:0:0:
427,357,29569,2,0,L|307:373,1,95,8|0,0:1|0:0,0:0:0:0:
251,61,29895,5,8,0:1:0:0:
367,246,30058,1,8,0:1:0:0:
139,233,30221,1,8,0:1:0:0:
479,64,30384,1,8,0:1:0:0:
245,180,30874,5,2,0:0:0:0:
346,110,31037,1,8,0:0:0:0:
346,110,31118,1,8,0:0:0:0:
346,110,31200,1,8,0:1:0:0:
329,246,31363,1,8,0:0:0:0:
152,113,31526,1,8,0:1:0:0:
152,113,31852,6,0,B|127:157|132:196|148:223|148:223|138:190|151:164,1,152,12|8,0:0|0:1,0:0:0:0:
188,359,32341,2,0,P|216:328|270:301,1,76,8|0,0:0|0:0,0:0:0:0:
335,316,32667,1,8,0:0:0:0:
478,360,32830,2,0,P|440:322|423:290,1,76,8|0,0:1|0:0,0:0:0:0:
330,215,33156,6,0,P|378:164|397:71,1,152,8|8,0:2|0:1,0:0:0:0:
512,134,33645,2,0,P|482:89|459:-1,1,152,8|8,0:2|0:2,0:0:0:0:
282,141,34134,2,0,P|309:98|315:58,1,76,8|0,0:1|0:0,0:0:0:0:
85,200,34461,6,0,B|134:181|188:208|186:236|186:236|172:237|153:215,1,152,10|8,0:2|0:1,0:0:0:0:
22,271,34950,2,0,P|-9:205|-5:179,1,76,8|0,0:2|0:0,0:0:0:0:
41,119,35275,1,8,0:0:0:0:
3,17,35439,2,0,P|58:34|105:34,1,76,8|0,0:1|0:0,0:0:0:0:
237,22,35765,6,0,P|180:14|206:80,1,152,8|8,0:2|0:1,0:0:0:0:
320,155,36254,2,0,P|347:97|283:97,1,152,8|8,0:2|0:2,0:0:0:0:
396,19,36743,2,0,P|422:47|439:81,1,76,8|0,0:1|0:0,0:0:0:0:
203,157,37069,6,0,P|160:225|154:297,1,152,10|8,0:2|0:1,0:0:0:0:
298,316,37558,2,0,P|254:266|311:231,1,152,8|8,0:2|0:2,0:0:0:0:
395,286,38047,2,0,L|471:274,1,76,8|0,0:1|0:0,0:0:0:0:
376,141,38373,6,0,L|202:112,1,152,8|8,0:2|0:1,0:0:0:0:
139,179,38863,1,8,0:2:0:0:
225,116,39026,2,0,P|237:80|236:42,1,76,2|0,0:0|0:0,0:0:0:0:
48,157,39352,2,0,P|46:192|61:233,1,76,8|0,0:1|0:0,0:0:0:0:
4,13,39678,6,0,P|73:60|172:59,1,152,10|8,0:2|0:1,0:0:0:0:
254,30,40167,1,8,0:2:0:0:
254,30,40330,2,0,P|300:25|340:35,1,76,2|8,0:0|0:2,0:0:0:0:
512,161,40656,2,0,P|474:155|437:161,1,76,8|0,0:1|0:0,0:0:0:0:
291,243,40982,6,0,P|328:249|366:244,1,76,8|0,0:2|0:0,0:0:0:0:
155,157,41308,2,0,P|167:200|165:232,1,76,12|2,0:1|0:0,0:0:0:0:
22,384,41634,1,8,0:1:0:0:
157,332,41797,1,4,0:3:0:0:
48,162,41961,2,0,P|99:142|175:175,1,114,8|0,0:3|0:0,0:0:0:0:
302,168,42287,6,0,B|274:177|231:159|231:159|195:142|153:157,1,152,12|0,0:2|0:0,0:0:0:0:
295,264,42939,2,0,P|361:249|397:166,1,142.500005435944,8|8,0:1|0:2,0:0:0:0:
512,313,43428,1,8,0:2:0:0:
508,303,43509,1,2,0:0:0:0:
504,293,43591,6,0,L|401:303,1,71.2500027179719,2|0,0:3|0:0,0:0:0:0:
268,362,43917,1,2,0:3:0:0:
295,264,44080,2,0,P|263:228|215:212,1,71.2500027179719,2|8,0:0|0:1,0:0:0:0:
385,295,44406,2,0,P|387:246|365:201,1,71.2500027179719,2|2,0:0|0:3,0:0:0:0:
263,119,44732,1,0,0:0:0:0:
116,249,44895,6,0,P|189:256|246:213,1,142.500005435944,12|10,0:0|0:0,0:0:0:0:
200,19,45384,1,0,0:0:0:0:
200,19,45547,2,0,L|46:39,1,142.500005435944,8|2,0:1|0:3,0:0:0:0:
276,79,46037,1,2,0:0:0:0:
276,79,46200,6,0,L|357:89,1,71.2500027179719,2|0,0:3|0:0,0:0:0:0:
416,21,46526,1,2,0:3:0:0:
435,126,46689,1,2,0:0:0:0:
512,0,46852,1,8,0:1:0:0:
487,218,47015,1,8,0:0:0:0:
330,131,47178,5,8,0:1:0:0:
306,170,47259,1,8,0:1:0:0:
265,192,47341,1,8,0:1:0:0:
219,190,47422,1,8,0:1:0:0:
186,166,47504,6,0,P|262:167|315:293,1,227.999993041992,12|8,0:1|0:1,0:0:0:0:
512,24,47993,2,0,P|436:25|383:151,1,227.999993041992,12|0,0:2|0:0,0:0:0:0:
475,356,48482,2,0,L|454:243,1,113.999996520996,8|0,0:1|0:0,0:0:0:0:
181,103,48808,6,0,B|221:110|249:136|249:136|276:113|315:110|315:110|346:141|387:151,1,227.999993041992,12|8,0:2|0:1,0:0:0:0:
204,241,49297,2,0,P|153:192|141:298,1,227.999993041992,12|0,0:2|0:0,0:0:0:0:
25,372,49787,2,0,P|81:367|142:388,1,113.999996520996,8|0,0:1|0:0,0:0:0:0:
371,317,50113,5,14,0:2:0:0:
327,305,50194,1,8,0:2:0:0:
281,305,50276,1,10,0:2:0:0:
244,332,50357,1,8,0:2:0:0:
224,373,50439,1,8,0:2:0:0:
305,123,50602,5,8,0:1:0:0:
456,282,50765,1,8,0:1:0:0:
391,201,50928,1,8,0:2:0:0:
281,305,51091,1,8,0:1:0:0:
135,52,51254,6,0,B|185:75|238:40|238:40|288:7|353:29,1,228,12|0,0:0|0:0,0:0:0:0:
111,185,51906,1,8,0:1:0:0:
114,170,51988,1,8,0:1:0:0:
121,156,52069,5,8,0:1:0:0:
246,227,52232,1,8,0:0:0:0:
122,309,52395,1,8,0:0:0:0:
136,80,52558,5,8,0:1:0:0:
310,271,52721,1,8,0:0:0:0:
52,342,52884,1,8,0:0:0:0:
152,2,53047,5,8,0:1:0:0:
290,117,53374,5,8,0:1:0:0:
362,64,53591,5,8,0:3:0:0:
299,0,53808,5,4,0:3:0:0:
352,234,54026,5,12,0:2:0:0:
256,192,54107,12,0,55330,0:0:0:0:
178,74,56471,6,0,B|196:193,1,113.999996520996,12|0,0:2|0:0,0:0:0:0:
214,279,56796,1,8,0:2:0:0:
274,99,56961,2,0,B|293:220,1,113.999996520996,8|0,0:1|0:0,0:0:0:0:
119,250,57287,1,8,0:2:0:0:
310,296,57450,1,8,0:2:0:0:
83,331,57613,1,8,0:1:0:0:
378,237,57776,5,2,0:0:0:0:
378,237,57857,1,2,0:0:0:0:
378,237,57939,2,0,P|399:290|388:345,1,113.999996520996,2|0,0:0|0:0,0:0:0:0:
192,181,58265,2,0,P|172:138|177:73,1,113.999996520996,8|0,0:1|0:0,0:0:0:0:
283,219,58591,1,2,0:0:0:0:
375,27,58754,1,8,0:2:0:0:
403,235,58917,1,8,0:1:0:0:
512,121,59080,6,0,P|446:117|401:136,1,113.999996520996,2|0,0:0|0:0,0:0:0:0:
283,219,59406,1,2,0:0:0:0:
281,73,59569,1,8,0:1:0:0:
402,134,59732,1,2,0:0:0:0:
179,147,59895,2,0,L|192:26,1,113.999996520996,8|8,0:2|0:2,0:0:0:0:
211,254,60221,1,8,0:1:0:0:
57,90,60384,5,2,0:0:0:0:
57,90,60466,1,2,0:0:0:0:
57,90,60547,1,2,0:0:0:0:
111,296,60711,1,0,0:0:0:0:
179,61,60874,1,8,0:1:0:0:
120,309,61037,1,0,0:0:0:0:
292,156,61200,2,0,L|175:146,1,113.999996520996,0|0,0:0|0:0,0:0:0:0:
6,318,61526,2,0,L|119:308,1,113.999996520996,8|0,0:1|0:0,0:0:0:0:
320,331,61852,5,8,0:2:0:0:
235,268,62015,2,0,P|213:334|231:383,1,113.999996520996,2|8,0:0|0:1,0:0:0:0:
329,231,62341,2,0,P|351:165|333:116,1,113.999996520996,2|8,0:0|0:0,0:0:0:0:
143,119,62667,2,0,P|121:185|139:234,1,113.999996520996,8|8,0:2|0:1,0:0:0:0:
275,17,62993,5,2,0:0:0:0:
275,17,63075,1,0,0:0:0:0:
275,17,63156,1,10,0:0:0:0:
329,231,63319,1,0,0:0:0:0:
459,131,63482,1,8,0:1:0:0:
432,272,63645,1,0,0:0:0:0:
408,44,63808,1,8,0:0:0:0:
346,338,63971,1,8,0:0:0:0:
94,214,64135,5,8,0:1:0:0:
128,181,64216,1,8,0:1:0:0:
172,165,64298,1,8,0:1:0:0:
219,167,64379,1,8,0:1:0:0:
262,188,64461,6,0,L|253:263,1,56.9999982604981,12|0,0:1|0:0,0:0:0:0:
200,375,64624,2,0,L|182:228,1,113.999996520996,2|8,0:0|0:1,0:0:0:0:
348,172,64950,2,0,L|330:318,1,113.999996520996,2|0,0:0|0:0,0:0:0:0:
477,119,65276,2,0,L|459:-27,1,113.999996520996,2|8,0:0|0:1,0:0:0:0:
193,314,65602,5,12,0:2:0:0:
221,52,65765,1,0,0:0:0:0:
318,257,65928,1,2,0:0:0:0:
119,194,66091,1,8,0:1:0:0:
377,144,66254,1,0,0:0:0:0:
73,288,66417,1,8,0:3:0:0:
321,76,66580,1,8,0:1:0:0:
321,76,66662,1,8,0:1:0:0:
321,76,66743,1,8,0:1:0:0:
202,356,66906,6,0,B|210:324|210:324|197:224,1,113.999996520996,12|0,0:2|0:0,0:0:0:0:
181,143,67232,1,8,0:2:0:0:
299,329,67395,2,0,B|280:199,1,113.999996520996,8|0,0:1|0:0,0:0:0:0:
422,55,67721,1,8,0:2:0:0:
398,181,67884,1,8,0:2:0:0:
285,14,68047,5,8,0:1:0:0:
229,8,68128,1,2,0:0:0:0:
182,38,68210,1,2,0:0:0:0:
163,91,68291,1,2,0:0:0:0:
181,143,68374,6,0,P|178:75|137:35,1,113.999996520996,2|0,0:0|0:0,0:0:0:0:
27,275,68700,2,0,P|71:241|127:243,1,113.999996520996,8|0,0:1|0:0,0:0:0:0:
337,363,69026,2,0,P|269:357|214:266,1,170.999994781494,2|0,0:0|0:0,0:0:0:0:
264,194,69352,1,8,0:1:0:0:
97,325,69515,5,2,0:0:0:0:
186,82,69678,1,2,0:3:0:0:
171,220,69841,1,2,0:0:0:0:
64,136,70004,1,8,0:1:0:0:
186,82,70167,1,2,0:0:0:0:
267,247,70330,1,8,0:2:0:0:
287,39,70493,1,8,0:2:0:0:
355,293,70656,1,8,0:1:0:0:
382,0,70819,1,2,0:0:0:0:
410,383,70982,5,2,0:0:0:0:
412,108,71145,1,0,0:0:0:0:
468,307,71308,2,0,L|355:293,1,113.999996520996,8|8,0:1|0:2,0:0:0:0:
333,157,71634,2,0,L|446:143,1,113.999996520996,8|8,0:2|0:2,0:0:0:0:
265,236,71961,5,8,0:1:0:0:
247,182,72042,1,8,0:1:0:0:
206,142,72124,1,8,0:1:0:0:
153,125,72205,1,8,0:1:0:0:
97,134,72287,6,0,P|172:140|217:105,1,113.999996520996,12|0,0:1|0:0,0:0:0:0:
292,12,72613,1,8,0:1:0:0:
420,127,72776,2,0,P|369:103|313:114,1,113.999996520996,2|0,0:0|0:0,0:0:0:0:
139,21,73102,1,8,0:2:0:0:
164,174,73265,1,8,0:1:0:0:
0,13,73428,6,0,L|16:148,1,113.999996520996,12|0,0:2|0:0,0:0:0:0:
139,21,73754,1,8,0:2:0:0:
90,229,73917,5,8,0:1:0:0:
330,156,74080,1,0,0:0:0:0:
46,148,74243,5,4,0:3:0:0:
378,243,74406,2,0,P|338:244|306:256,1,56.9999982604981,2|2,0:3|0:3,0:0:0:0:
227,124,74569,5,2,0:3:0:0:
256,76,74650,1,8,0:1:0:0:
306,49,74732,1,8,0:1:0:0:
362,52,74813,1,8,0:1:0:0:
409,83,74895,6,0,P|361:48|346:-12,1,113.999996520996,12|0,0:1|0:0,0:0:0:0:
454,191,75221,1,8,0:1:0:0:
321,248,75384,2,0,P|237:208|191:213,1,113.999996520996,2|8,0:0|0:0,0:0:0:0:
50,352,75711,1,8,0:0:0:0:
188,306,75874,1,8,0:1:0:0:
90,144,76037,6,0,B|104:181|104:181|91:264,1,113.999996520996,12|0,0:0|0:0,0:0:0:0:
10,192,76363,1,8,0:0:0:0:
259,87,76526,5,8,0:1:0:0:
234,327,76689,1,2,0:0:0:0:
177,74,76852,6,0,L|190:146,1,56.9999982604981,2|0,0:3|0:0,0:0:0:0:
320,355,77015,2,0,L|333:283,1,56.9999982604981,8|8,0:3|0:3,0:0:0:0:
345,143,77178,5,4,0:3:0:0:
384,129,77259,1,4,0:3:0:0:
423,141,77341,1,4,0:3:0:0:
448,174,77422,1,4,0:3:0:0:
446,218,77504,6,0,P|439:132|458:82,1,113.999996520996,12|0,0:0|0:0,0:0:0:0:
505,16,77830,1,8,0:1:0:0:
261,82,77993,6,0,P|314:63|357:26,1,113.999996520996,12|0,0:0|0:0,0:0:0:0:
132,44,78319,1,2,0:0:0:0:
104,235,78482,1,8,0:1:0:0:
9,28,78645,6,0,P|39:107|25:186,1,113.999996520996,12|0,0:0|0:0,0:0:0:0:
132,44,78971,1,8,0:0:0:0:
104,235,79134,1,8,0:1:0:0:
261,82,79297,6,0,B|241:161|241:161|262:221|262:221|237:300,1,227.999993041992,12|0,0:0|0:0,0:0:0:0:
340,153,79787,1,8,0:1:0:0:
104,235,79950,6,0,P|33:207|132:174,1,227.999993041992,12|0,0:0|0:0,0:0:0:0:
235,253,80439,5,8,0:1:0:0:
261,82,80602,1,0,0:0:0:0:
339,344,80765,1,2,0:3:0:0:
313,180,80928,1,0,0:0:0:0:
129,305,81091,2,0,L|141:191,1,113.999996520996,8|0,0:1|0:0,0:0:0:0:
10,68,81417,2,0,L|22:182,1,113.999996520996,2|0,0:3|0:0,0:0:0:0:
461,139,81743,5,8,0:0:0:0:
127,59,81906,1,8,0:0:0:0:
455,151,82069,1,8,0:1:0:0:
117,190,82232,1,8,0:0:0:0:
449,163,82395,1,8,0:1:0:0:
186,129,82557,1,12,0:0:0:0:
256,192,82640,12,0,84026,0:0:0:0:
256,192,85166,5,14,0:0:0:0:
256,192,85248,12,0,89242,0:0:0:0:
