osu file format v14

[General]
AudioFilename: audio.mp3
AudioLeadIn: 0
PreviewTime: 55472
Countdown: 0
SampleSet: None
StackLeniency: 0.7
Mode: 0
LetterboxInBreaks: 0
WidescreenStoryboard: 1

[Editor]
DistanceSpacing: 1.1
BeatDivisor: 4
GridSize: 32
TimelineZoom: 3.499999

[Metadata]
Title:Fighting Gold (TV Size)
TitleUnicode:Fighting Gold (TV Size)
Artist:Coda
ArtistUnicode:Coda
Creator:Tatan
Version:Requiem
Source:ジョジョの奇妙な冒険 黄金の風
Tags:JoJo's Bizarre Adventure Kimyō Kimyou na Bōken Bouken Golden Wind Vento Aureo Ōgon no Kaze Ougon Giorno Giovanna Bruno Bucciarati Buccellati Guido Mista Leone Abbacchio Narancia Ghirga Pannacotta Fugo Gold Experience Sticky Fingers Aerosmith Sex Pistols Moody Blues Cloudchaser -Kazu- Ulqui Crissa [-Crissaegrim-] TheShadowOfDark ezek
BeatmapID:1805978
BeatmapSetID:863407

[Difficulty]
HPDrainRate:6
CircleSize:4
OverallDifficulty:9
ApproachRate:9.5
SliderMultiplier:2.1
SliderTickRate:1

[Events]
//Background and Video events
Video,0,"fighting gold.mp4"
0,0,"bg2.jpg",0,0
//Break Periods
//Storyboard Layer 0 (Background)
//Storyboard Layer 1 (Fail)
//Storyboard Layer 2 (Pass)
//Storyboard Layer 3 (Foreground)
//Storyboard Sound Samples

[TimingPoints]
548,326.086956521739,4,2,66,70,1,0
955,-100,4,2,66,5,0,0
1036,-83.3333333333333,4,2,66,70,0,0
1444,-83.3333333333333,4,2,66,5,0,0
1525,-111.111111111111,4,2,66,70,0,0
1689,-111.111111111111,4,2,66,5,0,0
3156,-111.111111111111,4,2,66,70,0,0
3564,-111.111111111111,4,2,66,5,0,0
3644,-76.9230769230769,4,2,66,70,0,0
4053,-76.9230769230769,4,2,66,5,0,0
4133,-111.111111111111,4,2,66,70,0,0
4297,-111.111111111111,4,2,66,5,0,0
4950,-111.111111111111,4,2,66,70,0,0
5764,-111.111111111111,4,2,66,80,0,0
5927,-90.9090909090909,4,2,66,80,0,0
6009,-90.9090909090909,4,2,66,5,0,0
6090,-76.9230769230769,4,2,66,80,0,0
6172,-76.9230769230769,4,2,66,5,0,0
6254,-71.4285714285714,4,2,66,80,0,0
6336,-71.4285714285714,4,2,66,5,0,0
6416,-66.6666666666667,4,2,66,80,0,0
6499,-66.6666666666667,4,2,66,5,0,0
6579,-62.5,4,2,66,80,0,0
6662,-62.5,4,2,66,5,0,0
6742,-222.222222222221,4,2,66,80,0,0
8373,-62.5,4,2,66,80,0,0
8455,-62.5,4,2,66,5,0,0
8536,-71.4285714285714,4,2,66,80,0,0
8618,-62.5,4,2,66,5,0,0
8699,-83.3333333333333,4,2,66,80,0,0
8781,-62.5,4,2,66,5,0,0
8862,-71.4285714285714,4,2,66,80,0,0
8944,-62.5,4,2,66,5,0,0
9025,-66.6666666666667,4,2,66,80,0,0
9107,-62.5,4,2,66,5,0,0
9188,-62.5,4,2,66,80,0,0
9270,-62.5,4,2,66,5,0,0
9352,-62.5,4,2,66,80,0,0
9677,-250,4,2,66,80,0,0
10492,-250,4,2,99,80,0,0
10655,-250,4,2,88,80,0,0
10818,-250,4,2,77,80,0,0
11144,-133.333333333333,4,2,66,60,0,0
12856,-133.333333333333,4,2,66,5,0,0
12938,-133.333333333333,4,2,66,60,0,0
18644,-285.714285714284,4,2,66,60,0,0
19949,-100,4,2,66,80,0,0
20682,-76.9230769230769,4,2,66,80,0,0
20927,-71.4285714285714,4,2,66,80,0,0
21171,-58.8235294117647,4,2,66,80,0,0
21335,-83.3333333333333,4,2,66,80,0,0
21416,-83.3333333333333,4,3,66,70,0,0
21743,-100,4,3,66,70,0,0
30873,-133.333333333333,4,3,66,60,0,0
31852,-100,4,3,66,60,0,0
40982,-83.3333333333333,4,3,66,70,0,0
41471,-83.3333333333333,4,3,99,70,0,0
41634,-83.3333333333333,4,3,88,70,0,0
41960,-83.3333333333333,4,3,77,70,0,0
42287,-153.846153846153,4,3,66,70,0,0
44243,-105.263157894737,4,3,66,70,0,0
44895,-153.846153846153,4,3,66,70,0,0
46200,-153.846153846153,4,3,77,70,0,0
46526,-153.846153846153,4,3,66,70,0,0
46689,-153.846153846153,4,3,77,70,0,0
46852,-153.846153846153,4,3,66,70,0,0
47015,-153.846153846153,4,3,77,70,0,0
47178,-153.846153846153,4,3,66,70,0,0
47504,-100,4,3,66,80,0,0
47993,-83.3333333333333,4,3,66,80,0,0
50112,-83.3333333333333,4,3,77,80,0,0
50275,-83.3333333333333,4,3,66,80,0,0
50357,-83.3333333333333,4,3,77,80,0,0
50601,-83.3333333333333,4,3,66,80,0,0
50683,-83.3333333333333,4,3,77,80,0,0
50765,-83.3333333333333,4,3,66,80,0,0
50846,-83.3333333333333,4,3,77,80,0,0
51091,-83.3333333333333,4,3,66,80,0,0
51172,-83.3333333333333,4,3,77,80,0,0
51254,-133.333333333333,4,3,66,80,0,0
52232,-399.999999999997,4,3,77,80,0,0
52558,-399.999999999997,4,3,66,80,0,0
52721,-399.999999999997,4,3,88,80,0,0
52884,-399.999999999997,4,3,99,80,0,0
53047,-100,4,3,66,80,0,0
55330,-100,4,3,66,50,0,0
55656,-166.666666666667,4,2,66,70,0,0
55982,-66.6666666666667,4,2,66,70,0,0
56471,-76.9230769230769,4,3,66,90,0,1
57694,-76.9230769230769,4,3,99,90,0,1
57775,-76.9230769230769,4,3,88,90,0,1
57938,-76.9230769230769,4,3,77,90,0,1
58265,-76.9230769230769,4,3,66,90,0,1
60303,-76.9230769230769,4,3,77,90,0,1
60384,-76.9230769230769,4,3,88,90,0,1
60547,-76.9230769230769,4,3,99,90,0,1
60711,-76.9230769230769,4,3,66,90,0,1
62911,-76.9230769230769,4,3,88,90,0,1
62993,-76.9230769230769,4,3,77,90,0,1
63156,-76.9230769230769,4,3,99,90,0,1
63319,-76.9230769230769,4,3,66,90,0,1
64216,-76.9230769230769,4,3,77,90,0,1
64297,-76.9230769230769,4,3,77,90,0,1
64461,-76.9230769230769,4,3,66,90,0,1
64623,-76.9230769230769,4,3,88,90,0,1
64786,-76.9230769230769,4,3,66,90,0,1
66091,-58.8235294117647,4,3,66,90,0,1
66417,-76.9230769230769,4,3,77,90,0,1
66743,-76.9230769230769,4,3,66,90,0,1
68129,-76.9230769230769,4,3,77,90,0,1
68210,-76.9230769230769,4,3,88,90,0,1
68373,-76.9230769230769,4,3,99,90,0,1
68699,-76.9230769230769,4,3,66,90,0,1
70737,-76.9230769230769,4,3,88,90,0,1
70819,-76.9230769230769,4,3,77,90,0,1
70982,-76.9230769230769,4,3,99,90,0,1
71308,-76.9230769230769,4,3,66,90,0,1
72042,-76.9230769230769,4,3,88,90,0,1
72123,-76.9230769230769,4,3,77,90,0,1
72286,-76.9230769230769,4,3,66,90,0,1
72612,-76.9230769230769,4,3,66,90,0,1
74406,-76.9230769230769,4,3,77,90,0,1
74569,-76.9230769230769,4,3,66,90,0,1
74732,-76.9230769230769,4,3,77,90,0,1
74895,-76.9230769230769,4,3,66,90,0,1
76851,-76.9230769230769,4,3,77,90,0,1
77015,-76.9230769230769,4,3,88,90,0,1
77178,-76.9230769230769,4,3,66,90,0,1
77259,-76.9230769230769,4,3,88,90,0,1
77341,-76.9230769230769,4,3,77,90,0,1
77504,-76.9230769230769,4,3,66,90,0,1
77993,-71.4285714285714,4,3,66,90,0,1
78319,-66.6666666666667,4,3,66,90,0,1
81743,-33.3333333333333,4,3,66,90,0,1
81906,-33.3333333333333,4,3,88,90,0,1
82069,-33.3333333333333,4,3,77,90,0,1
82395,-33.3333333333333,4,3,99,90,0,1
82558,-95.2380952380952,4,3,66,85,0,0
82599,-95.2380952380952,4,3,66,5,0,0
84352,-181.818181818181,4,2,66,60,0,0
89162,-181.818181818181,4,2,66,5,0,0

[Colours]
Combo1 : 247,207,72
Combo2 : 255,128,64

[HitObjects]
204,143,548,6,0,P|303:117|214:42,1,262.5,2|0,3:2|0:0,0:0:0:0:
86,170,1037,2,0,B|168:147|236:199|236:199|303:251|387:225,1,314.999990386963,2|0,3:2|0:0,0:0:0:0:
411,53,1526,2,0,P|390:103|397:162,1,94.499997116089,4|0,3:0|0:0,0:0:0:0:
480,256,3156,6,0,B|381:229|308:300|308:300|333:300|366:318,1,236.249992790222,2|0,3:2|0:0,0:0:0:0:
495,177,3645,2,0,P|394:172|182:343,1,341.249984378816,2|0,3:2|0:0,0:0:0:0:
27,353,4134,2,0,P|78:350|136:311,1,94.499997116089,4|0,3:2|0:0,0:0:0:0:
3,150,4949,5,0,3:0:0:0:
3,150,5112,2,0,B|3:77|97:66|155:149|37:277,1,283.499991348267,0|0,3:0|0:0,0:0:0:0:
7,345,5764,5,4,3:2:0:0:
45,267,5928,2,0,P|16:209|16:172,1,57.7500017623902,0|0,0:3|0:0,0:0:0:0:
115,232,6091,2,0,P|107:167|120:132,1,68.2499968757631
192,234,6254,2,0,P|207:170|230:142,1,73.4999977569581,4|0,3:2|0:0,0:0:0:0:
264,269,6417,2,0,P|299:214|331:196,1,78.7500030040742
320,320,6580,2,0,P|372:281|408:274,1,84
197,364,6742,5,4,3:2:0:0:
107,350,6905,1,0,0:0:0:0:
193,350,7069,6,0,L|172:349,1,11.8124996395111,2|0,0:0|0:0,0:0:0:0:
103,336,7231,1,0,0:0:0:0:
189,336,7394,5,0,0:0:0:0:
99,322,7558,2,0,L|78:321,1,11.8124996395111,2|0,0:0|0:0,0:0:0:0:
185,322,7720,5,0,0:0:0:0:
95,308,7883,1,0,0:0:0:0:
181,308,8047,6,0,L|160:307,1,11.8124996395111,2|0,0:0|0:0,0:0:0:0:
91,294,8210,1,0,0:0:0:0:
72,203,8373,6,0,P|48:168|40:126,1,84,4|0,3:2|0:0,0:0:0:0:
145,174,8536,2,0,P|134:133|142:91,1,73.4999977569581
227,158,8699,2,0,P|230:115|252:80,1,62.9999980773927
309,173,8862,2,0,P|327:134|358:108,1,73.4999977569581,4|0,3:2|0:0,0:0:0:0:
374,216,9025,2,0,P|403:186|443:172,1,78.7500030040742
428,272,9188,2,0,P|465:254|507:254,1,84
366,384,9351,5,4,3:2:0:0:
352,294,9514,1,0,0:0:0:0:
352,380,9678,2,0,L|351:361,1,10.5,2|0,0:0|0:0,0:0:0:0:
338,290,9840,1,0,0:0:0:0:
338,376,10003,5,0,0:0:0:0:
331,186,10167,1,8,0:3:0:0:
322,183,10249,1,8,0:3:0:0:
314,181,10330,1,8,0:3:0:0:
128,128,10492,1,8,0:3:0:0:
75,314,10655,1,8,0:3:0:0:
261,367,10818,1,8,0:3:0:0:
78,295,11307,6,0,L|-32:302,1,78.7500030040742,2|0,0:0|0:0,0:0:0:0:
146,221,11634,2,0,B|198:209|198:209|239:247|239:247|296:255,1,157.500006008148,2|0,0:0|0:0,0:0:0:0:
305,95,12123,2,0,P|286:150|298:206,1,78.7500030040742,2|0,0:0|0:0,0:0:0:0:
499,143,12449,1,2,0:0:0:0:
499,143,12612,2,0,P|433:142|368:157,1,118.125004506111,2|0,0:0|0:0,0:0:0:0:
286,169,12938,1,2,0:0:0:0:
348,323,13101,2,0,B|365:345|389:351|389:351|415:289|396:224,1,157.500006008148,2|0,0:0|0:0,0:0:0:0:
315,102,13590,6,0,L|226:98,1,78.7500030040742
0,160,13916,2,0,L|89:156,1,78.7500030040742,2|0,0:0|0:0,0:0:0:0:
186,25,14242,2,0,B|138:36|138:36|161:172,1,157.500006008148,2|0,0:0|0:0,0:0:0:0:
313,231,14731,2,0,P|230:219|174:274,1,157.500006008148,2|0,0:0|0:0,0:0:0:0:
376,305,15220,2,0,P|402:261|447:237,1,78.7500030040742,2|0,0:0|0:0,0:0:0:0:
260,295,15546,1,2,0:0:0:0:
260,295,15710,2,0,B|256:337|256:337|264:373,2,78.7500030040742,2|0|0,0:0|0:0|0:0,0:0:0:0:
313,231,16199,6,0,L|319:119,1,78.7500030040742
156,155,16525,2,0,P|232:170|255:166,1,78.7500030040742,2|0,0:0|0:0,0:0:0:0:
380,55,16851,2,0,B|339:25|339:25|226:48,1,157.500006008148,2|0,0:0|0:0,0:0:0:0:
90,120,17340,2,0,P|140:138|197:119,1,78.7500030040742,2|0,0:0|0:0,0:0:0:0:
138,48,17666,1,2,0:0:0:0:
84,124,17829,2,0,P|75:167|86:220,1,78.7500030040742,2|0,0:0|0:0,0:0:0:0:
122,297,18155,1,2,0:0:0:0:
230,233,18319,2,0,P|268:228|348:253,1,118.125004506111,2|0,0:0|0:0,0:0:0:0:
409,308,18645,6,0,B|337:284|281:335|281:335|225:385|153:362,1,275.624991588593,2|0,0:0|0:0,0:0:0:0:
144,376,19949,2,0,B|98:344|98:344|121:148,1,210,4|0,3:3|0:0,0:0:0:0:
448,215,20519,1,0,0:0:0:0:
440,266,20601,1,0,0:0:0:0:
412,312,20682,6,0,P|336:306|284:262,1,136.499993751526,8|0,0:3|0:0,0:0:0:0:
424,78,20927,6,0,P|458:149|444:221,1,146.999995513916,8|0,0:3|0:0,0:0:0:0:
176,214,21172,6,0,P|262:156|349:173,1,178.500003404617,8|0,0:3|0:0,0:0:0:0:
280,338,21417,6,0,L|194:337,1,62.9999980773926,4|0,0:2|0:0,0:0:0:0:
128,368,21580,2,0,L|42:367,1,62.9999980773926
57,148,21743,1,8,0:0:0:0:
154,276,21905,1,0,0:0:0:0:
130,75,22068,1,0,0:0:0:0:
27,229,22231,2,0,P|14:289|45:357,1,105,0|8,0:0|0:0,0:0:0:0:
177,164,22557,2,0,L|44:155,1,105
257,243,22883,5,0,0:0:0:0:
239,64,23046,1,8,0:0:0:0:
150,248,23210,1,0,0:0:0:0:
125,67,23373,1,0,0:0:0:0:
262,252,23536,2,0,B|361:274|398:194|398:194|373:209|350:205,1,210
219,57,24025,6,0,L|212:-4,1,52.5,0|0,0:0|2:0,0:0:0:0:
352,122,24188,2,0,L|359:61,1,52.5,0|0,0:0|2:0,0:0:0:0:
198,223,24351,1,8,0:0:0:0:
358,275,24514,1,0,0:0:0:0:
146,324,24677,1,0,0:0:0:0:
378,374,24840,2,0,L|493:367,1,105,0|8,0:0|0:0,0:0:0:0:
393,87,25166,6,0,B|349:135|349:135|383:192|383:192|375:283,1,210
488,123,25655,1,8,0:0:0:0:
290,66,25818,1,0,0:0:0:0:
505,205,25981,1,0,0:0:0:0:
332,248,26144,2,0,B|276:229|233:268|233:268|190:307|135:289,1,210
165,158,26634,6,0,L|169:226,1,52.5,0|0,0:0|2:0,0:0:0:0:
76,69,26797,2,0,L|72:121,1,52.5,0|0,0:0|2:0,0:0:0:0:
247,104,26960,1,8,0:0:0:0:
66,209,27123,1,0,0:0:0:0:
225,315,27286,2,0,L|346:309,1,105
503,298,27612,1,8,0:0:0:0:
411,159,27775,6,0,B|324:166|324:166|307:183|307:183|207:191,1,210
0,113,28264,2,0,B|149:105,1,105,8|0,0:0|0:0,0:0:0:0:
228,100,28590,1,0,0:0:0:0:
160,280,28753,2,0,P|112:219|113:170,1,105,0|8,0:0|0:0,0:0:0:0:
312,61,29079,2,0,P|300:164|188:183,1,210
34,26,29568,5,12,0:0:0:0:
228,100,29731,1,0,0:0:0:0:
50,291,29894,1,12,0:0:0:0:
128,32,30057,1,8,0:0:0:0:
288,256,30220,1,8,0:0:0:0:
6,206,30384,2,0,B|48:168|48:168|148:153|148:153|237:194,1,210,4|0,0:2|0:0,0:0:0:0:
401,212,30873,5,0,0:0:0:0:
288,256,31037,1,0,0:0:0:0:
290,295,31118,1,0,0:0:0:0:
293,334,31200,2,0,L|296:368,1,26.25,8|0,0:0|0:0,0:0:0:0:
352,128,31363,1,0,0:0:0:0:
416,224,31526,2,0,L|422:302,1,78.7500030040742,8|0,0:0|0:0,0:0:0:0:
334,133,31852,6,0,L|195:128,1,105,4|0,0:2|0:0,0:0:0:0:
83,119,32178,1,8,0:0:0:0:
172,54,32341,2,0,P|193:132|89:229,1,210
15,295,32830,2,0,L|142:301,1,105,8|0,0:0|0:0,0:0:0:0:
223,383,33156,6,0,L|327:378,1,105
448,320,33482,1,8,0:0:0:0:
351,182,33645,2,0,B|313:232|313:232|330:397,1,210
448,192,34134,2,0,B|458:87|458:87,1,105,8|0,0:0|0:0,0:0:0:0:
288,96,34460,6,0,P|354:88|397:36,1,105,4|0,0:0|0:0,0:0:0:0:
206,61,34787,1,8,0:0:0:0:
163,182,34950,2,0,B|218:156|218:156|278:182|278:182|365:178,1,210
197,53,35439,2,0,B|68:47,1,105,8|0,0:0|0:0,0:0:0:0:
0,123,35765,6,0,B|4:227|4:227,1,105
120,284,36091,1,8,0:0:0:0:
184,174,36254,2,0,P|98:158|-4:251,1,210
123,293,36743,2,0,L|240:296,1,105,8|0,0:0|0:0,0:0:0:0:
329,178,37069,6,0,P|305:227|313:294,1,105,4|0,0:0|0:0,0:0:0:0:
415,249,37395,1,8,0:0:0:0:
412,125,37558,2,0,B|360:91|360:91|181:101,1,210
0,123,38047,2,0,B|104:128,1,105,8|0,0:0|0:0,0:0:0:0:
329,178,38373,6,0,B|224:183,1,105
206,279,38700,1,8,0:0:0:0:
276,347,38863,2,0,P|294:238|222:183,1,210
101,276,39352,2,0,L|210:279,1,105,8|0,0:0|0:0,0:0:0:0:
281,190,39678,6,0,L|385:187,1,105,4|0,0:0|0:0,0:0:0:0:
503,290,40004,1,8,0:0:0:0:
407,384,40167,2,0,B|368:328|368:328|387:182,1,210
512,94,40656,2,0,L|407:96,1,105,8|0,0:0|0:0,0:0:0:0:
176,116,40982,6,0,B|218:99|237:44|237:44|232:132|294:207,1,251.999992309571,0|4,0:0|0:0,0:0:0:0:
452,286,41471,1,8,0:0:0:0:
455,254,41552,1,8,0:0:0:0:
459,223,41634,1,8,0:0:0:0:
229,267,41797,1,8,0:0:0:0:
448,318,41960,1,8,0:0:0:0:
336,306,42123,1,8,0:0:0:0:
214,257,42287,6,0,L|210:158,1,68.2499968757631,4|0,0:2|0:0,0:0:0:0:
297,157,42613,2,0,L|301:58,1,68.2499968757631,8|0,0:0|0:0,0:0:0:0:
246,7,42939,2,0,P|208:59|130:44,1,136.499993751526,4|0,0:3|0:0,0:0:0:0:
32,8,43428,1,0,0:0:0:0:
30,42,43509,1,0,0:0:0:0:
29,76,43591,6,0,L|27:139,1,34.1249984378815,12|0,0:0|0:0,0:0:0:0:
109,133,43754,2,0,L|106:195,1,34.1249984378815
144,274,43917,6,0,L|141:211,1,34.1249984378815,8|0,0:0|0:0,0:0:0:0:
224,217,44080,2,0,L|221:154,1,34.1249984378815
273,38,44243,6,0,L|270:104,1,49.8749986681939,12|0,0:0|0:0,0:0:0:0:
362,102,44406,2,0,L|360:152,1,49.8749986681939
413,291,44569,6,0,L|411:238,1,49.8749986681939,8|0,0:0|0:0,0:0:0:0:
502,227,44732,2,0,L|499:166,1,49.8749986681939
324,166,44895,6,0,L|320:265,1,68.2499968757631,4|0,0:2|0:0,0:0:0:0:
307,340,45221,2,0,P|276:325|236:325,1,68.2499968757631
61,329,45547,2,0,P|114:332|170:263,1,136.499993751526,12|0,0:3|0:0,0:0:0:0:
80,146,46036,1,0,0:0:0:0:
82,180,46117,1,0,0:0:0:0:
84,214,46200,6,0,L|85:275,1,34.1249984378815,8|0,0:0|0:0,0:0:0:0:
166,162,46363,2,0,L|167:223,1,34.1249984378815
244,266,46526,6,0,L|245:205,1,34.1249984378815,8|0,0:0|0:0,0:0:0:0:
326,318,46689,2,0,L|327:257,1,34.1249984378815,8|8,0:0|0:0,0:0:0:0:
322,106,46852,1,12,0:0:0:0:
497,216,47015,5,8,0:0:0:0:
465,226,47096,1,8,0:0:0:0:
431,225,47178,1,8,0:0:0:0:
392,212,47259,1,8,0:0:0:0:
351,190,47340,1,8,0:0:0:0:
299,185,47422,1,8,0:0:0:0:
250,199,47504,6,0,L|255:332,1,105,12|0,0:2|0:0,0:0:0:0:
356,184,47830,1,8,0:0:0:0:
159,142,47993,2,0,L|164:275,1,125.999996154785,4|0,0:2|0:0,0:0:0:0:
365,174,48319,1,0,0:0:0:0:
73,91,48482,2,0,L|78:224,1,125.999996154785,12|0,0:0|0:0,0:0:0:0:
288,279,48808,6,0,P|203:265|151:270,1,125.999996154785,12|0,0:2|0:0,0:0:0:0:
117,382,49134,1,0,0:0:0:0:
346,214,49297,2,0,P|264:185|212:181,1,125.999996154785,12|0,3:2|0:0,0:0:0:0:
110,377,49623,1,0,0:0:0:0:
413,162,49786,2,0,P|337:119|287:106,1,125.999996154785,12|0,0:0|0:0,0:0:0:0:
44,122,50113,5,8,0:0:0:0:
7,163,50194,1,8,0:0:0:0:
13,218,50276,1,8,0:0:0:0:
57,251,50357,1,8,0:0:0:0:
111,242,50439,2,0,P|154:231|198:230,1,62.9999980773926,8|0,0:0|0:0,0:0:0:0:
348,341,50602,5,8,0:0:0:0:
292,340,50683,1,8,0:0:0:0:
255,299,50765,1,8,0:0:0:0:
263,244,50846,1,8,0:0:0:0:
308,213,50928,5,8,0:0:0:0:
350,141,51009,1,8,0:0:0:0:
326,66,51091,1,8,0:0:0:0:
252,41,51172,1,8,0:0:0:0:
170,51,51254,6,0,B|142:112|181:164|181:164|169:182|169:182|195:231|178:288|178:288|157:269|138:268|138:268,1,275.62501051426,4|0,0:2|0:0,0:0:0:0:
128,352,51906,5,8,0:0:0:0:
141,353,51987,1,0,0:0:0:0:
154,354,52069,1,0,0:0:0:0:
278,190,52232,1,8,0:0:0:0:
73,165,52395,1,8,0:0:0:0:
157,370,52558,5,4,0:2:0:0:
363,110,52721,1,8,0:0:0:0:
11,78,52884,1,8,0:0:0:0:
187,372,53047,6,0,B|238:335|222:266|222:266|196:167|275:127|359:179|321:260|321:260|289:316|291:390|370:405|398:355|398:355|365:353|344:328,1,630,4|4,0:2|0:2,0:0:0:0:
256,192,54107,12,0,55330,0:0:0:0:
437,239,55656,6,0,P|441:202|433:171,1,62.9999980773926,2|0,0:0|0:0,0:0:0:0:
359,125,55982,2,0,B|423:167|495:125|482:-16|278:68,1,315.000012016297,2|0,0:0|0:0,0:0:0:0:
131,168,56471,6,0,P|146:98|137:32,1,136.499993751526,4|0,0:2|0:0,0:0:0:0:
318,334,56797,1,0,0:0:0:0:
270,75,56960,1,8,0:0:0:0:
185,267,57123,1,0,0:0:0:0:
382,165,57286,1,0,0:0:0:0:
131,168,57450,1,0,0:0:0:0:
318,359,57612,5,8,0:0:0:0:
347,372,57693,1,8,0:0:0:0:
386,374,57775,1,8,0:0:0:0:
456,356,57856,1,8,0:0:0:0:
506,297,57939,2,0,P|518:224|501:143,1,136.499993751526,8|0,0:0|0:0,0:0:0:0:
296,201,58265,2,0,B|317:255|361:274|361:274|397:248|397:184,1,136.499993751526,8|0,0:0|0:0,0:0:0:0:
344,117,58591,2,0,B|271:92|216:142|216:142|160:193|89:169,1,272.999987503052,0|8,0:0|0:0,0:0:0:0:
296,201,59080,6,0,B|321:235|311:279|311:279|282:312|276:366,1,136.499993751526,0|4,0:0|0:0,0:0:0:0:
147,204,59406,1,0,0:0:0:0:
387,355,59569,1,8,0:0:0:0:
134,328,59732,1,0,0:0:0:0:
324,132,59895,1,0,0:0:0:0:
284,326,60058,1,0,0:0:0:0:
16,278,60221,5,8,0:0:0:0:
18,246,60302,1,8,0:0:0:0:
22,199,60384,1,8,0:0:0:0:
28,128,60466,1,8,0:0:0:0:
34,56,60547,2,0,P|107:44|168:72,1,136.499993751526,8|4,0:0|0:2,0:0:0:0:
302,267,60873,1,8,0:0:0:0:
154,213,61036,2,0,B|163:171|211:145|211:145|300:195|385:173,1,272.999987503052,4|0,0:2|0:0,0:0:0:0:
511,25,61526,6,0,P|510:93|490:162,1,136.499993751526,8|0,0:0|0:0,0:0:0:0:
413,33,61852,1,4,0:0:0:0:
359,260,62015,1,0,0:0:0:0:
315,101,62178,1,8,0:0:0:0:
507,242,62341,1,0,0:0:0:0:
199,186,62504,1,0,0:0:0:0:
474,108,62667,1,0,0:0:0:0:
271,333,62830,5,8,0:0:0:0:
239,331,62911,1,8,0:0:0:0:
192,327,62993,1,8,0:0:0:0:
121,321,63075,1,8,0:0:0:0:
47,312,63156,2,0,P|16:237|47:137,1,136.499993751526,8|4,0:0|0:2,0:0:0:0:
190,25,63482,1,8,0:0:0:0:
124,232,63645,1,4,0:2:0:0:
26,24,63808,1,0,0:0:0:0:
146,245,63971,1,0,0:0:0:0:
377,55,64134,5,8,0:0:0:0:
377,350,64297,1,8,0:3:0:0:
377,350,64379,1,8,0:3:0:0:
377,350,64461,1,4,0:2:0:0:
215,150,64623,5,8,0:0:0:0:
435,246,64786,1,8,0:0:0:0:
67,309,64950,1,0,0:0:0:0:
206,136,65113,5,4,0:2:0:0:
245,353,65276,1,0,0:0:0:0:
68,104,65439,1,8,0:0:0:0:
495,247,65601,2,0,P|401:309|270:203,1,272.999987503052,4|0,0:2|0:0,0:0:0:0:
352,46,66091,2,0,B|403:82|403:82|381:248,1,178.500003404617,8|0,0:0|0:0,0:0:0:0:
168,292,66417,5,8,0:0:0:0:
157,271,66498,1,8,0:0:0:0:
153,237,66580,1,8,0:0:0:0:
158,196,66661,1,8,0:0:0:0:
187,158,66743,5,8,0:0:0:0:
255,154,66824,1,0,0:0:0:0:
324,150,66906,2,0,L|468:146,1,136.499993751526,4|0,0:2|0:0,0:0:0:0:
234,257,67232,1,0,0:0:0:0:
303,35,67395,1,8,0:0:0:0:
336,323,67558,1,0,0:0:0:0:
193,160,67721,2,0,P|186:78|204:12,1,136.499993751526
267,234,68047,5,8,0:0:0:0:
234,257,68128,1,8,0:0:0:0:
174,263,68210,1,8,0:0:0:0:
109,227,68292,1,8,0:0:0:0:
89,155,68373,2,0,L|82:-3,1,136.499993751526,8|0,0:2|0:0,0:0:0:0:
320,141,68700,5,8,0:0:0:0:
229,355,68863,1,0,0:0:0:0:
201,152,69026,1,0,0:0:0:0:
423,311,69189,1,0,0:0:0:0:
143,328,69352,1,8,0:0:0:0:
376,214,69515,2,0,P|451:205|523:217,1,136.499993751526,0|4,0:0|0:0,0:0:0:0:
325,354,69841,5,0,0:0:0:0:
308,95,70004,1,8,0:0:0:0:
143,328,70167,1,0,0:0:0:0:
21,106,70330,2,0,P|77:57|181:76,1,136.499993751526
194,343,70656,5,8,0:0:0:0:
153,335,70737,1,8,0:0:0:0:
107,296,70819,1,8,0:0:0:0:
88,223,70901,1,8,0:0:0:0:
113,147,70982,2,0,L|260:150,1,136.499993751526,8|0,0:0|0:0,0:0:0:0:
450,202,71308,1,8,0:0:0:0:
197,249,71471,1,4,0:0:0:0:
445,371,71634,1,0,0:0:0:0:
129,332,71797,1,0,0:0:0:0:
470,119,71960,5,8,0:0:0:0:
469,152,72041,1,8,0:0:0:0:
457,206,72123,1,8,0:0:0:0:
401,246,72205,1,8,0:0:0:0:
333,255,72286,2,0,L|193:248,1,136.499993751526,4|0,0:2|0:0,0:0:0:0:
31,53,72613,5,8,0:0:0:0:
88,336,72776,1,0,0:0:0:0:
166,51,72939,1,4,0:0:0:0:
0,256,73102,1,0,0:0:0:0:
200,366,73265,1,8,0:0:0:0:
212,132,73428,2,0,B|156:118|116:142|116:142|69:136|69:136|14:162|14:162|52:174|70:199,1,272.999987503052,4|0,0:2|0:0,0:0:0:0:
292,214,73917,2,0,P|327:145|299:66,1,136.499993751526,8|0,0:0|0:0,0:0:0:0:
108,224,74243,1,0,0:0:0:0:
383,321,74406,5,8,0:0:0:0:
386,252,74487,1,8,0:0:0:0:
389,184,74569,1,8,0:0:0:0:
191,85,74732,1,8,0:0:0:0:
194,153,74814,1,8,0:0:0:0:
197,222,74895,2,0,L|201:369,1,136.499993751526,4|0,0:2|0:0,0:0:0:0:
368,70,75221,5,8,0:0:0:0:
108,224,75384,1,0,0:0:0:0:
383,321,75547,1,4,0:0:0:0:
172,38,75710,1,0,0:0:0:0:
459,128,75873,1,8,0:0:0:0:
81,319,76036,2,0,B|15:303|6:222|6:222|41:161|41:161|21:83,1,272.999987503052,4|0,0:2|0:0,0:0:0:0:
221,205,76526,2,0,B|195:243|195:243|74:216,1,136.499993751526,8|0,0:0|0:0,0:0:0:0:
345,96,76852,5,8,0:0:0:0:
352,134,76933,1,8,0:0:0:0:
351,170,77015,1,8,0:0:0:0:
346,205,77096,5,8,0:0:0:0:
321,267,77177,1,8,0:0:0:0:
347,328,77259,1,8,0:0:0:0:
408,354,77340,1,8,0:0:0:0:
468,325,77422,1,8,0:0:0:0:
486,261,77504,6,0,L|490:86,1,136.499993751526,4|0,0:2|0:0,0:0:0:0:
185,334,77830,1,8,0:0:0:0:
411,230,77993,6,0,L|414:54,1,146.999995513916,4|0,0:2|0:0,0:0:0:0:
99,320,78319,1,0,0:0:0:0:
408,354,78482,1,8,0:0:0:0:
108,182,78645,6,0,L|104:6,1,157.500006008148,4|0,0:2|0:0,0:0:0:0:
423,322,78971,1,0,0:0:0:0:
65,349,79134,1,8,0:0:0:0:
335,176,79297,6,0,L|338:0,1,157.500006008148,4|0,0:2|0:0,0:0:0:0:
45,316,79623,1,0,0:0:0:0:
447,351,79786,1,8,0:0:0:0:
21,208,79950,6,0,L|17:32,1,157.500006008148,4|0,0:2|0:0,0:0:0:0:
329,328,80276,5,0,0:0:0:0:
207,33,80438,1,8,0:0:0:0:
135,346,80601,1,0,0:0:0:0:
380,135,80765,1,0,0:0:0:0:
57,166,80928,1,0,0:0:0:0:
336,330,81091,1,8,0:0:0:0:
212,11,81254,1,0,0:0:0:0:
129,368,81417,1,0,0:0:0:0:
397,130,81580,1,0,0:0:0:0:
89,213,81743,6,0,B|33:156|33:156|110:136|110:136,1,157.500006008148,12|0,0:0|0:0,0:0:0:0:
324,120,81906,2,0,B|402:133|402:133|351:194|351:194,1,157.500006008148,8|0,0:0|0:0,0:0:0:0:
187,330,82069,2,0,B|115:365|115:365|120:286|120:286,1,157.500006008148,8|0,0:0|0:0,0:0:0:0:
173,80,82232,2,0,B|209:9|209:9|252:76|252:76,1,157.500006008148,8|0,0:0|0:0,0:0:0:0:
332,275,82395,2,0,B|343:353|343:353|269:324|269:324,1,157.500006008148,12|0,0:0|0:0,0:0:0:0:
134,233,82558,6,0,B|60:157|60:157|162:131|162:131|211:38|211:38|266:126|266:126|370:144|370:144|304:226|304:226|319:328|319:328|220:290|220:290|128:337|128:337|133:260,1,992.249969718934,4|0,0:2|0:0,0:0:0:0:
460,276,85167,5,4,0:2:0:0:
256,192,85330,12,0,89162,0:0:0:0:
