osu file format v14

[General]
AudioFilename: audio.mp3
AudioLeadIn: 0
PreviewTime: 55472
Countdown: 0
SampleSet: Soft
StackLeniency: 0.7
Mode: 0
LetterboxInBreaks: 0
WidescreenStoryboard: 1

[Editor]
DistanceSpacing: 2
BeatDivisor: 4
GridSize: 32
TimelineZoom: 1.7

[Metadata]
Title:Fighting Gold (TV Size)
TitleUnicode:Fighting Gold (TV Size)
Artist:Coda
ArtistUnicode:Coda
Creator:Tatan
Version:Extra
Source:ジョジョの奇妙な冒険 黄金の風
Tags:JoJo's Bizarre Adventure Kimyō Kimyou na Bōken Bouken Golden Wind Vento Aureo Ōgon no Kaze Ougon Giorno Giovanna Bruno Bucciarati Buccellati Guido Mista Leone Abbacchio Narancia Ghirga Pannacotta Fugo Gold Experience Sticky Fingers Aerosmith Sex Pistols Moody Blues Cloudchaser -Kazu- Ulqui Crissa [-Crissaegrim-] TheShadowOfDark ezek
BeatmapID:1820405
BeatmapSetID:863407

[Difficulty]
HPDrainRate:5
CircleSize:3.5
OverallDifficulty:8.7
ApproachRate:9.2
SliderMultiplier:2
SliderTickRate:1

[Events]
//Background and Video events
Video,0,"fighting gold.mp4"
0,0,"bg2.jpg",0,0
//Break Periods
//Storyboard Layer 0 (Background)
//Storyboard Layer 1 (Fail)
//Storyboard Layer 2 (Pass)
//Storyboard Layer 3 (Foreground)
//Storyboard Sound Samples

[TimingPoints]
548,326.086956521739,4,2,66,70,1,0
548,-100,4,2,66,70,0,0
955,-100,4,2,66,5,0,0
1036,-100,4,2,66,70,0,0
1444,-100,4,2,66,5,0,0
1525,-100,4,2,66,70,0,0
1689,-100,4,2,66,5,0,0
3156,-100,4,2,66,70,0,0
3564,-100,4,2,66,5,0,0
3644,-100,4,2,66,70,0,0
4053,-100,4,2,66,5,0,0
4133,-100,4,2,66,70,0,0
4297,-100,4,2,66,5,0,0
4950,-100,4,2,66,70,0,0
5113,-133.333333333333,4,2,66,70,0,0
5764,-133.333333333333,4,2,66,80,0,0
5765,-83.3333333333333,4,2,66,80,0,0
6009,-83.3333333333333,4,2,66,5,0,0
6090,-83.3333333333333,4,2,66,80,0,0
6172,-83.3333333333333,4,2,66,5,0,0
6254,-83.3333333333333,4,2,66,80,0,0
6336,-83.3333333333333,4,2,66,5,0,0
6416,-83.3333333333333,4,2,66,80,0,0
6499,-83.3333333333333,4,2,66,5,0,0
6579,-83.3333333333333,4,2,66,80,0,0
6662,-83.3333333333333,4,2,66,5,0,0
6742,-133.333333333333,4,2,66,80,0,0
8374,-83.3333333333333,4,2,66,80,0,0
8455,-83.3333333333333,4,2,66,5,0,0
8536,-83.3333333333333,4,2,66,80,0,0
8618,-83.3333333333333,4,2,66,5,0,0
8699,-83.3333333333333,4,2,66,80,0,0
8781,-83.3333333333333,4,2,66,5,0,0
8862,-83.3333333333333,4,2,66,80,0,0
8944,-83.3333333333333,4,2,66,5,0,0
9025,-83.3333333333333,4,2,66,80,0,0
9107,-83.3333333333333,4,2,66,5,0,0
9188,-83.3333333333333,4,2,66,80,0,0
9270,-83.3333333333333,4,2,66,5,0,0
9352,-133.333333333333,4,2,66,80,0,0
10492,-133.333333333333,4,2,99,80,0,0
10655,-133.333333333333,4,2,88,80,0,0
10818,-133.333333333333,4,2,77,80,0,0
11144,-133.333333333333,4,2,66,60,0,0
12856,-133.333333333333,4,2,66,5,0,0
12938,-133.333333333333,4,2,66,60,0,0
19949,-133.333333333333,4,2,66,80,0,0
21416,-100,4,3,66,70,0,0
30384,-133.333333333333,4,3,66,70,0,0
30873,-133.333333333333,4,3,66,60,0,0
31200,-133.333333333333,4,3,66,60,0,0
31852,-100,4,3,66,60,0,0
40982,-100,4,3,66,70,0,0
41471,-100,4,3,99,70,0,0
41634,-100,4,3,88,70,0,0
41798,-100,4,3,88,70,0,0
41960,-100,4,3,77,70,0,0
42124,-100,4,3,77,70,0,0
42287,-111.111111111111,4,3,66,70,0,0
46200,-111.111111111111,4,3,77,70,0,0
46526,-111.111111111111,4,3,66,70,0,0
46689,-111.111111111111,4,3,77,70,0,0
46852,-111.111111111111,4,3,66,70,0,0
47015,-111.111111111111,4,3,77,70,0,0
47178,-111.111111111111,4,3,66,70,0,0
47504,-100,4,3,66,80,0,0
50112,-100,4,3,77,80,0,0
50275,-100,4,3,66,80,0,0
50357,-100,4,3,77,80,0,0
50601,-100,4,3,66,80,0,0
50683,-100,4,3,77,80,0,0
50765,-100,4,3,66,80,0,0
50846,-100,4,3,77,80,0,0
51091,-100,4,3,66,80,0,0
51172,-100,4,3,77,80,0,0
51254,-90.9090909090909,4,3,66,80,0,0
51907,-100,4,3,66,80,0,0
52232,-100,4,3,77,80,0,0
52558,-100,4,3,66,80,0,0
52721,-100,4,3,88,80,0,0
52884,-100,4,3,99,80,0,0
53047,-133.333333333333,4,3,66,80,0,0
53944,-133.333333333333,4,3,66,5,0,0
54026,-142.857142857143,4,3,66,80,0,0
55330,-142.857142857143,4,3,66,50,0,0
55656,-142.857142857143,4,2,66,70,0,0
55983,-100,4,2,66,70,0,0
56471,-76.9230769230769,4,3,66,90,0,1
57694,-76.9230769230769,4,3,99,90,0,1
57775,-76.9230769230769,4,3,88,90,0,1
57938,-76.9230769230769,4,3,77,90,0,1
58265,-76.9230769230769,4,3,66,90,0,1
60304,-76.9230769230769,4,3,77,90,0,1
60384,-76.9230769230769,4,3,88,90,0,1
60547,-76.9230769230769,4,3,99,90,0,1
60711,-76.9230769230769,4,3,66,90,0,1
60874,-76.9230769230769,4,3,66,90,0,1
62911,-76.9230769230769,4,3,88,90,0,1
62993,-76.9230769230769,4,3,77,90,0,1
63156,-76.9230769230769,4,3,99,90,0,1
63319,-76.9230769230769,4,3,66,90,0,1
63483,-76.9230769230769,4,3,66,90,0,1
64216,-76.9230769230769,4,3,77,90,0,1
64461,-76.9230769230769,4,3,66,90,0,1
64543,-76.9230769230769,4,3,66,90,0,1
64623,-76.9230769230769,4,3,88,90,0,1
64786,-76.9230769230769,4,3,66,90,0,1
66417,-76.9230769230769,4,3,77,90,0,1
66743,-76.9230769230769,4,3,66,90,0,1
68129,-76.9230769230769,4,3,77,90,0,1
68210,-76.9230769230769,4,3,88,90,0,1
68373,-76.9230769230769,4,3,99,90,0,1
68699,-76.9230769230769,4,3,66,90,0,1
70737,-76.9230769230769,4,3,88,90,0,1
70819,-76.9230769230769,4,3,77,90,0,1
70982,-76.9230769230769,4,3,99,90,0,1
71308,-76.9230769230769,4,3,66,90,0,1
72042,-76.9230769230769,4,3,88,90,0,1
72123,-76.9230769230769,4,3,77,90,0,1
72286,-76.9230769230769,4,3,66,90,0,1
72613,-76.9230769230769,4,3,66,90,0,1
74406,-76.9230769230769,4,3,77,90,0,1
74569,-76.9230769230769,4,3,66,90,0,1
74732,-76.9230769230769,4,3,77,90,0,1
74895,-76.9230769230769,4,3,66,90,0,1
76851,-76.9230769230769,4,3,77,90,0,1
77015,-76.9230769230769,4,3,88,90,0,1
77178,-76.9230769230769,4,3,66,90,0,1
77259,-76.9230769230769,4,3,88,90,0,1
77341,-76.9230769230769,4,3,77,90,0,1
77504,-76.9230769230769,4,3,66,90,0,1
81906,-76.9230769230769,4,3,88,90,0,1
82069,-76.9230769230769,4,3,77,90,0,1
82395,-76.9230769230769,4,3,99,90,0,1
82558,-100,4,3,66,85,0,0
84026,-100,4,2,66,60,0,0
85167,-181.818181818181,4,2,66,60,0,0
89162,-181.818181818181,4,2,66,5,0,0

[Colours]
Combo1 : 247,207,72
Combo2 : 255,128,64

[HitObjects]
352,110,548,6,0,P|385:158|321:270,1,200,2|0,3:2|0:0,0:0:0:0:
168,229,1037,2,0,B|152:176|152:176|232:160|320:184,1,200,2|0,3:2|0:0,0:0:0:0:
240,288,1526,1,4,3:2:0:0:
240,288,3156,6,0,B|132:270|171:353|30:335,1,200,2|0,3:2|0:0,0:0:0:0:
103,177,3645,2,0,P|103:250|22:207,1,200,2|0,3:2|0:0,0:0:0:0:
179,124,4134,1,4,3:2:0:0:
179,124,4950,5,0,3:0:0:0:
179,124,5113,2,0,B|223:95|277:97|277:97|279:89|279:89|277:97|277:97|330:100|372:137,1,225.000008583069,0|0,3:0|0:0,0:0:0:0:
480,272,5765,5,4,3:2:0:0:
496,112,5928,1,0,0:3:0:0:
384,320,6091,1,0,0:0:0:0:
314,177,6254,1,4,3:2:0:0:
394,330,6417,1,0,0:0:0:0:
394,122,6580,1,0,0:0:0:0:
288,304,6743,2,0,L|177:308,1,75.0000028610231,4|0,3:2|0:0,0:0:0:0:
128,317,7069,6,0,P|94:333|57:335,2,75.0000028610231,2|0|0,0:0|0:0|0:0,0:0:0:0:
213,306,7558,2,0,P|244:326|264:357,2,75.0000028610231,2|0|0,0:0|0:0|0:0,0:0:0:0:
159,237,8048,2,0,P|161:199|178:166,1,75.0000028610231,2|0,0:0|0:0,0:0:0:0:
324,53,8374,5,4,3:2:0:0:
253,227,8537,1,0,0:0:0:0:
224,32,8700,1,0,0:0:0:0:
416,96,8863,1,4,3:2:0:0:
178,166,9026,1,0,0:0:0:0:
400,224,9189,1,0,0:0:0:0:
324,53,9352,6,0,P|312:114|322:160,1,75.0000028610231,4|0,3:2|0:0,0:0:0:0:
384,208,9678,2,0,P|396:269|386:315,2,75.0000028610231,2|0|0,0:0|0:0|0:0,0:0:0:0:
288,256,10167,1,8,0:3:0:0:
288,256,10249,1,8,0:3:0:0:
288,256,10330,2,0,L|188:252,1,75.0000028610231,8|0,0:3|0:0,0:0:0:0:
112,336,10656,2,0,L|212:332,1,75.0000028610231,8|0,0:3|0:0,0:0:0:0:
96,144,11308,6,0,P|48:192|40:220,1,75.0000028610231,2|0,0:0|0:0,0:0:0:0:
176,208,11634,2,0,B|199:160|199:160|188:42,1,150.000005722046,2|0,0:0|0:0,0:0:0:0:
92,287,12124,2,0,B|173:274|156:330|244:316,1,150.000005722046,2|0,0:0|0:0,0:0:0:0:
416,288,12613,2,0,P|363:291|320:271,1,75.0000028610231,2|0,0:0|0:0,0:0:0:0:
272,224,12939,1,2,0:0:0:0:
322,97,13102,2,0,P|382:139|372:216,1,150.000005722046,2|0,0:0|0:0,0:0:0:0:
237,137,13591,2,0,L|232:46,1,75.0000028610231,0|0,0:0|0:0,0:0:0:0:
416,32,13917,6,0,L|411:106,1,75.0000028610231,2|0,0:0|0:0,0:0:0:0:
272,224,14243,2,0,P|316:187|411:213,1,150.000005722046,2|0,0:0|0:0,0:0:0:0:
282,311,14732,2,0,L|188:307,1,75.0000028610231,2|0,0:0|0:0,0:0:0:0:
96,301,15058,1,0,0:0:0:0:
160,160,15221,2,0,P|169:216|162:254,1,75.0000028610231,2|0,0:0|0:0,0:0:0:0:
48,144,15547,1,2,0:0:0:0:
187,70,15711,2,0,P|260:64|340:101,1,150.000005722046,2|0,0:0|0:0,0:0:0:0:
320,256,16200,2,0,P|313:203|325:159,1,75.0000028610231,0|0,0:0|0:0,0:0:0:0:
466,115,16526,6,0,P|415:143|368:143,1,75.0000028610231,2|0,0:0|0:0,0:0:0:0:
253,142,16852,2,0,P|304:171|318:259,1,150.000005722046,2|0,0:0|0:0,0:0:0:0:
120,282,17341,2,0,B|134:245|134:245|188:217|253:229,1,150.000005722046,2|0,0:0|0:0,0:0:0:0:
393,265,17830,2,0,P|340:255|293:258,1,75.0000028610231,2|0,0:0|0:0,0:0:0:0:
240,352,18156,1,2,0:0:0:0:
382,338,18319,2,0,P|392:285|389:238,1,75.0000028610231,2|0,0:0|0:0,0:0:0:0:
327,141,18645,2,0,P|420:164|369:90,2,225.000008583069,2|0|0,0:0|0:0|0:0,0:0:0:0:
327,141,19950,6,0,P|245:123|160:145,1,150.000005722046,4|0,3:3|0:0,0:0:0:0:
96,192,20520,1,0,0:0:0:0:
96,192,20601,1,0,0:0:0:0:
96,192,20683,2,0,L|90:314,2,112.500004291535,8|8|8,0:3|0:3|0:3,0:0:0:0:
188,33,21417,6,0,P|232:73|235:146,1,100,4|0,0:2|0:0,0:0:0:0:
96,192,21743,2,0,P|111:145|149:114,1,100,8|0,0:0|0:0,0:0:0:0:
304,176,22069,1,0,0:0:0:0:
192,292,22232,2,0,L|188:187,1,100,0|8,0:0|0:0,0:0:0:0:
381,109,22558,2,0,P|413:177|315:276,1,200,0|0,0:0|0:0,0:0:0:0:
297,73,23047,2,0,P|352:21|412:27,1,100,8|0,0:0|0:0,0:0:0:0:
489,104,23374,1,0,0:0:0:0:
304,176,23537,2,0,B|192:160|224:240|99:222,1,200,0|0,0:0|0:0,0:0:0:0:
112,48,24026,6,0,P|140:91|135:148,1,100,0|0,0:0|0:0,0:0:0:0:
23,244,24352,2,0,P|22:194|49:153,1,100,8|0,0:0|0:0,0:0:0:0:
192,240,24678,1,0,0:0:0:0:
123,334,24841,2,0,L|3:333,1,100,0|8,0:0|0:0,0:0:0:0:
231,144,25167,2,0,P|289:214|255:321,1,200,0|0,0:0|0:0,0:0:0:0:
138,138,25656,2,0,L|146:32,1,100,8|0,0:0|0:0,0:0:0:0:
352,96,25982,1,0,0:0:0:0:
225,205,26145,2,0,L|242:-24,1,200
439,35,26634,6,0,P|457:105|439:153,1,100,0|0,0:0|0:0,0:0:0:0:
275,154,26961,2,0,P|326:103|377:95,1,100,8|0,0:0|0:0,0:0:0:0:
410,281,27287,2,0,P|306:242|214:266,1,200,0|8,0:0|0:0,0:0:0:0:
104,349,27776,2,0,L|120:133,1,200,0|0,0:0|0:0,0:0:0:0:
287,134,28265,2,0,P|232:169|177:169,1,100,8|0,0:0|0:0,0:0:0:0:
112,48,28591,1,0,0:0:0:0:
369,80,28754,2,0,P|383:144|348:207,1,100,0|8,0:0|0:0,0:0:0:0:
191,265,29080,2,0,P|210:157|306:139,1,200,0|0,0:0|0:0,0:0:0:0:
428,288,29569,6,0,P|350:308|293:289,1,100,12|0,0:0|0:0,0:0:0:0:
369,80,29895,1,12,0:0:0:0:
479,180,30058,1,8,0:0:0:0:
274,222,30221,1,8,0:0:0:0:
472,34,30384,2,0,B|491:77|491:77|476:201,1,150,4|0,0:2|0:0,0:0:0:0:
453,319,30874,5,0,0:0:0:0:
363,257,31037,1,0,0:0:0:0:
363,257,31118,1,0,0:0:0:0:
363,257,31200,2,0,L|252:253,1,75.0000028610231,8|0,0:0|0:0,0:0:0:0:
186,374,31526,2,0,P|218:323|216:283,1,75.0000028610231,8|0,0:0|0:0,0:0:0:0:
100,150,31853,6,0,P|68:230|141:310,1,200,4|8,0:2|0:0,0:0:0:0:
217,154,32342,1,0,0:0:0:0:
159,67,32505,2,0,L|47:59,1,100,0|0,0:0|0:0,0:0:0:0:
159,223,32831,1,8,0:0:0:0:
258,74,32994,2,0,L|47:58,1,200,0|0,0:0|0:0,0:0:0:0:
327,133,33483,6,0,P|348:71|319:15,1,100,8|0,0:0|0:0,0:0:0:0:
209,237,33809,2,0,L|308:232,1,100,0|0,0:0|0:0,0:0:0:0:
438,44,34135,2,0,L|314:38,1,100,8|0,0:0|0:0,0:0:0:0:
400,288,34461,6,0,P|407:202|289:131,1,200,4|8,0:0|0:0,0:0:0:0:
209,237,34950,1,0,0:0:0:0:
304,332,35113,2,0,L|309:221,1,100,0|0,0:0|0:0,0:0:0:0:
195,379,35439,1,8,0:0:0:0:
379,384,35603,2,0,L|388:169,1,200,0|0,0:0|0:0,0:0:0:0:
232,137,36092,6,0,P|268:189|321:204,1,100,8|0,0:0|0:0,0:0:0:0:
414,89,36418,2,0,P|350:94|311:132,1,100,0|0,0:0|0:0,0:0:0:0:
474,269,36744,2,0,L|479:158,1,100,8|0,0:0|0:0,0:0:0:0:
298,310,37070,6,0,P|394:325|473:268,1,200,4|8,0:0|0:0,0:0:0:0:
402,151,37559,1,0,0:0:0:0:
291,211,37722,2,0,P|288:267|301:319,1,100,0|0,0:0|0:0,0:0:0:0:
445,231,38048,1,8,0:0:0:0:
226,129,38211,2,0,P|203:238|221:347,1,200,0|0,0:0|0:0,0:0:0:0:
367,47,38700,6,0,L|252:42,1,100,8|0,0:0|0:0,0:0:0:0:
260,215,39026,2,0,P|303:181|310:108,1,100,0|0,0:0|0:0,0:0:0:0:
170,53,39353,2,0,P|185:99|225:128,1,100,8|0,0:0|0:0,0:0:0:0:
367,47,39679,2,0,P|331:156|393:250,1,200,4|8,0:0|0:0,0:0:0:0:
511,310,40168,2,0,B|395:293|425:371|306:351,1,200,0|0,0:0|0:0,0:0:0:0:
165,272,40657,2,0,P|224:271|276:301,1,100,8|0,0:0|0:0,0:0:0:0:
95,367,40983,2,0,B|74:317|74:317|86:150,1,200,0|4,0:0|0:0,0:0:0:0:
201,38,41472,6,0,L|271:36,2,50,8|8|8,0:0|0:0|0:0,0:0:0:0:
28,48,41798,1,8,0:0:0:0:
170,133,41961,2,0,L|291:129,1,100,8|0,0:0|0:0,0:0:0:0:
465,21,42287,6,0,B|472:77|472:77|442:125|442:125|368:192|304:96|400:32|441:125|441:125|452:176|452:176|443:197|443:197|481:253|456:332,1,539.999983520508,4|0,0:2|0:0,0:0:0:0:
374,380,43429,1,0,0:0:0:0:
290,224,43592,1,12,0:0:0:0:
384,264,43755,1,0,0:0:0:0:
194,255,43918,1,8,0:0:0:0:
275,131,44081,1,0,0:0:0:0:
188,345,44244,1,12,0:0:0:0:
97,262,44407,1,0,0:0:0:0:
290,224,44570,2,0,P|303:266|303:311,1,89.9999972534181,8|0,0:0|0:0,0:0:0:0:
92,354,44896,6,0,B|55:276|131:232|131:232|210:269|184:346|184:346|238:336|285:360|285:360|277:337|277:337|339:371|415:355,1,539.999983520508,4|0,0:2|0:0,0:0:0:0:
498,289,46037,1,0,0:0:0:0:
368,160,46200,1,8,0:0:0:0:
385,272,46363,1,0,0:0:0:0:
420,80,46526,1,8,0:0:0:0:
300,90,46689,1,8,0:0:0:0:
477,168,46852,1,12,0:0:0:0:
501,28,47016,1,8,0:0:0:0:
368,160,47179,2,0,P|356:221|363:258,1,89.9999972534181,8|0,0:0|0:0,0:0:0:0:
493,305,47505,6,0,B|378:289|422:369|305:360,1,200,12|0,0:2|0:0,0:0:0:0:
164,307,47994,2,0,P|203:256|334:280,1,200,12|0,0:2|0:0,0:0:0:0:
69,352,48483,2,0,P|79:285|76:234,1,100,12|0,0:0|0:0,0:0:0:0:
28,134,48809,6,0,P|115:177|209:151,1,200,12|0,0:2|0:0,0:0:0:0:
359,0,49298,2,0,P|294:41|318:164,1,200,12|0,3:2|0:0,0:0:0:0:
471,118,49787,2,0,P|391:92|356:96,1,100,12|0,0:0|0:0,0:0:0:0:
209,151,50113,5,8,0:0:0:0:
471,218,50276,1,8,0:0:0:0:
225,269,50439,1,8,0:0:0:0:
419,295,50602,1,8,0:0:0:0:
376,92,50765,1,8,0:0:0:0:
252,354,50929,1,8,0:0:0:0:
209,151,51092,1,8,0:0:0:0:
435,311,51255,6,0,B|424:269|424:269|359:243|306:273|306:273|288:265|288:265|237:300|143:275,1,330.000010070801,4|0,0:2|0:0,0:0:0:0:
63,268,51907,2,0,P|64:300|75:330,2,50,8|0|0,0:0|0:0|0:0,0:0:0:0:
242,129,52233,1,8,0:0:0:0:
221,313,52396,1,8,0:0:0:0:
133,47,52559,5,4,0:2:0:0:
359,212,52722,1,8,0:0:0:0:
37,265,52885,1,8,0:0:0:0:
397,82,53048,6,0,B|487:22|576:198|423:277|249:156,1,412.500015735627,4|0,0:2|0:0,0:0:0:0:
41,136,54026,6,0,B|80:153|97:184|97:184|52:82|133:23|214:77|177:160|177:160|141:230|212:287|283:242|260:163,1,559.999982910157,4|0,0:2|0:0,0:0:0:0:
341,260,55657,6,0,P|352:224|354:187,1,69.9999978637696,2|0,0:0|0:0,0:0:0:0:
56,279,55983,2,0,B|162:272|129:347|241:332,1,200,2|0,0:0|0:0,0:0:0:0:
395,158,56471,6,0,P|292:128|229:268,1,259.999988098145,4|0,0:2|0:0,0:0:0:0:
477,285,56961,1,8,0:0:0:0:
422,41,57124,1,0,0:0:0:0:
320,225,57287,1,0,0:0:0:0:
512,124,57450,1,0,0:0:0:0:
291,33,57613,2,0,P|226:34|161:65,1,129.999994049073,8|0,0:0|0:0,0:0:0:0:
320,225,57939,2,0,P|278:124|204:205,1,259.999988098145,8|8,0:0|0:0,0:0:0:0:
320,352,58429,1,0,0:0:0:0:
408,231,58592,2,0,B|272:217|304:321|163:301,1,259.999988098145,0|8,0:0|0:0,0:0:0:0:
40,124,59081,6,0,P|146:91|200:217,1,259.999988098145,0|0,0:0|0:0,0:0:0:0:
44,356,59570,1,8,0:0:0:0:
117,179,59733,1,0,0:0:0:0:
179,370,59896,1,0,0:0:0:0:
2,204,60059,1,0,0:0:0:0:
240,64,60222,2,0,L|378:60,1,129.999994049073,8|0,0:0|0:0,0:0:0:0:
320,263,60548,6,0,P|312:186|350:128,1,129.999994049073,8|4,0:0|0:2,0:0:0:0:
458,217,60874,1,8,0:0:0:0:
384,368,61037,2,0,P|256:336|128:368,1,259.999988098145,4|0,0:2|0:0,0:0:0:0:
176,141,61526,2,0,P|202:199|192:263,1,129.999994049073,8|0,0:0|0:0,0:0:0:0:
32,144,61852,5,4,0:0:0:0:
144,32,62016,2,0,P|216:24|286:36,1,129.999994049073,0|8,0:0|0:0,0:0:0:0:
464,112,62342,1,0,0:0:0:0:
240,192,62505,1,0,0:0:0:0:
480,240,62668,1,0,0:0:0:0:
400,32,62831,1,8,0:0:0:0:
277,287,62994,6,0,P|329:324|482:224,1,259.999988098145,8|4,0:0|0:2,0:0:0:0:
338,101,63483,2,0,P|346:164|379:242,1,129.999994049073,8|0,0:0|0:0,0:0:0:0:
480,64,63809,1,0,0:0:0:0:
224,32,63972,1,0,0:0:0:0:
370,225,64135,2,0,L|530:209,1,129.999994049073,8|0,0:0|0:0,0:0:0:0:
208,48,64461,5,4,0:2:0:0:
289,284,64624,1,8,0:0:0:0:
312,40,64787,1,8,0:0:0:0:
176,304,64950,1,0,0:0:0:0:
103,85,65113,5,4,0:2:0:0:
388,158,65276,1,0,0:0:0:0:
72,212,65439,1,8,0:0:0:0:
448,48,65602,2,0,P|496:160|432:320,1,259.999988098145,4|0,0:2|0:0,0:0:0:0:
240,256,66092,2,0,P|298:226|364:227,1,129.999994049073,8|0,0:0|0:0,0:0:0:0:
230,361,66418,2,0,P|134:265|214:153,1,259.999988098145,8|0,0:0|0:0,0:0:0:0:
480,185,66907,6,0,B|344:171|376:275|235:255,1,259.999988098145,4|0,0:2|0:0,0:0:0:0:
496,64,67396,1,8,0:0:0:0:
453,317,67559,1,0,0:0:0:0:
269,82,67722,1,0,0:0:0:0:
336,352,67885,1,0,0:0:0:0:
395,95,68048,6,0,P|332:75|257:87,1,129.999994049073,8|0,0:0|0:0,0:0:0:0:
373,237,68374,2,0,P|325:157|326:276,1,259.999988098145,8|8,0:2|0:0,0:0:0:0:
480,192,68863,1,0,0:0:0:0:
334,75,69026,2,0,B|198:61|230:165|89:145,1,259.999988098145,0|8,0:0|0:0,0:0:0:0:
307,170,69516,2,0,P|321:249|295:352,1,129.999994049073,0|4,0:0|0:0,0:0:0:0:
208,80,69842,5,0,0:0:0:0:
416,144,70005,1,8,0:0:0:0:
208,272,70168,1,0,0:0:0:0:
352,48,70331,1,0,0:0:0:0:
400,304,70494,1,0,0:0:0:0:
163,175,70657,2,0,P|147:111|179:15,1,129.999994049073,8|0,0:0|0:0,0:0:0:0:
286,226,70982,6,0,P|302:290|270:386,1,129.999994049073,8|0,0:0|0:0,0:0:0:0:
145,276,71309,1,8,0:0:0:0:
272,128,71472,2,0,L|420:136,1,129.999994049073,4|0,0:0|0:0,0:0:0:0:
291,352,71798,1,0,0:0:0:0:
163,175,71961,2,0,L|171:27,1,129.999994049073,8|0,0:0|0:0,0:0:0:0:
416,224,72287,5,4,0:2:0:0:
128,320,72450,1,0,0:0:0:0:
336,48,72613,1,8,0:0:0:0:
432,336,72776,1,0,0:0:0:0:
192,144,72939,1,4,0:0:0:0:
493,247,73102,1,0,0:0:0:0:
218,344,73266,1,8,0:0:0:0:
430,86,73429,6,0,B|462:150|462:150|430:342,1,259.999988098145,4|0,0:2|0:0,0:0:0:0:
314,176,73918,2,0,P|335:47|335:47,1,129.999994049073,8|0,0:0|0:0,0:0:0:0:
342,282,74244,1,0,0:0:0:0:
216,137,74406,2,0,L|231:55,2,64.9999970245363,8|8|8,0:0|0:0|0:0,0:0:0:0:
273,355,74733,1,8,0:0:0:0:
438,190,74895,6,0,P|331:170|290:186,1,129.999994049073,4|0,0:0|0:0,0:0:0:0:
140,340,75222,1,8,0:0:0:0:
400,282,75385,1,0,0:0:0:0:
164,114,75548,1,4,0:0:0:0:
284,356,75711,1,0,0:0:0:0:
366,65,75874,1,8,0:0:0:0:
55,280,76037,6,0,B|103:328|103:328|311:292,1,259.999988098145,4|0,0:2|0:0,0:0:0:0:
342,161,76526,2,0,B|134:197,1,129.999994049073,8|0,0:0|0:0,0:0:0:0:
479,211,76852,2,0,L|484:139,3,64.9999970245363,8|8|0|0,0:0|0:0|0:0|0:0,0:0:0:0:
400,282,77178,2,0,L|395:346,3,64.9999970245363,8|0|8|0,0:0|0:0|0:0|0:0,0:0:0:0:
214,184,77505,6,0,P|198:72|230:8,1,129.999994049073,4|0,0:2|0:0,0:0:0:0:
317,265,77831,1,8,0:0:0:0:
142,306,77994,2,0,L|-22:315,1,129.999994049073,4|0,0:2|0:0,0:0:0:0:
320,256,78320,2,0,L|484:265,1,129.999994049073,0|8,0:0|0:0,0:0:0:0:
224,208,78646,6,0,P|213:272|232:334,1,129.999994049073,4|0,0:2|0:0,0:0:0:0:
304,112,78972,1,0,0:0:0:0:
112,176,79135,1,8,0:0:0:0:
400,256,79298,2,0,L|411:105,1,129.999994049073,4|0,0:2|0:0,0:0:0:0:
341,364,79624,1,0,0:0:0:0:
496,261,79787,1,8,0:0:0:0:
224,208,79950,2,0,L|59:216,1,129.999994049073,4|0,0:2|0:0,0:0:0:0:
336,320,80276,1,0,0:0:0:0:
256,80,80439,5,8,0:0:0:0:
176,352,80602,1,0,0:0:0:0:
384,144,80766,1,0,0:0:0:0:
96,64,80929,1,0,0:0:0:0:
384,320,81092,1,8,0:0:0:0:
336,0,81255,1,0,0:0:0:0:
128,288,81418,1,0,0:0:0:0:
448,144,81581,1,0,0:0:0:0:
133,150,81743,5,12,0:0:0:0:
321,178,81906,1,8,0:0:0:0:
321,178,81988,1,0,0:0:0:0:
321,178,82069,1,8,0:0:0:0:
216,280,82232,1,8,0:0:0:0:
216,64,82396,1,12,0:0:0:0:
118,153,82558,1,4,0:2:0:0:
256,192,82722,12,0,84026,0:0:0:0:
301,142,85167,5,4,0:2:0:0:
256,192,85249,12,0,89162,0:0:0:0:
