osu file format v14

[General]
AudioFilename: audio.mp3
AudioLeadIn: 0
PreviewTime: 55517
Countdown: 0
SampleSet: Normal
StackLeniency: 0.7
Mode: 1
LetterboxInBreaks: 0
WidescreenStoryboard: 1

[Editor]
Bookmarks: 30898,86821
DistanceSpacing: 2.3
BeatDivisor: 4
GridSize: 32
TimelineZoom: 2.6

[Metadata]
Title:Fighting Gold (TV Size)
TitleUnicode:Fighting Gold (TV Size)
Artist:Coda
ArtistUnicode:Coda
Creator:Molybdenum
Version:Slyme's Kantan
Source:ジョジョの奇妙な冒険 黄金の風
Tags:catzertm mari_0hara mari 0hara slyme iamveryfat dopaminexd jojos JoJo's Bizarre Adventure Golden Wind Part 5 JoJo no Kimyō na Bōken Ōgon no Kaze Toshiyuki O'mori 大森俊之 Neko Oikawa 及川眠子 anime pop rock japanese op theme giorno giovanna
BeatmapID:3740825
BeatmapSetID:1792184

[Difficulty]
HPDrainRate:8
CircleSize:2
OverallDifficulty:3
ApproachRate:10
SliderMultiplier:1.4
SliderTickRate:1

[Events]
//Background and Video events
0,0,"giorno_giovanna___jjba__minimalist_wallpaper__by_nquitcoph_deblo56.jpg",0,-30
Video,0,"output.mp4"
//Break Periods
//Storyboard Layer 0 (Background)
//Storyboard Layer 1 (Fail)
//Storyboard Layer 2 (Pass)
//Storyboard Layer 3 (Foreground)
//Storyboard Layer 4 (Overlay)
//Storyboard Sound Samples

[TimingPoints]
572,326.086956521739,4,1,0,70,1,0
11006,-100,4,1,0,60,0,0
21441,-100,4,1,0,60,0,0
56455,-100,4,1,0,75,0,0
56495,-100,4,1,0,75,0,1
82582,-100,4,1,0,75,0,0
82664,-100,4,1,0,70,0,0

[HitObjects]
256,192,572,5,0,0:0:0:0:
256,192,1061,1,8,0:0:0:0:
256,192,1550,1,0,0:0:0:0:
256,192,3180,1,8,0:0:0:0:
256,192,3669,1,0,0:0:0:0:
256,192,4158,1,8,0:0:0:0:
256,192,5789,1,8,0:0:0:0:
256,192,6278,1,8,0:0:0:0:
256,192,6767,1,0,0:0:0:0:
256,192,8398,1,0,0:0:0:0:
256,192,8887,1,0,0:0:0:0:
256,192,9376,1,8,0:0:0:0:
256,192,11332,1,8,0:0:0:0:
256,192,12148,1,0,0:0:0:0:
256,192,12963,1,8,0:0:0:0:
256,192,13941,1,0,0:0:0:0:
256,192,14756,1,8,0:0:0:0:
256,192,15571,1,0,0:0:0:0:
256,192,16550,1,0,0:0:0:0:
256,192,17365,1,8,0:0:0:0:
256,192,18180,1,8,0:0:0:0:
256,192,18669,1,0,0:0:0:0:
256,192,19974,1,0,0:0:0:0:
256,192,20707,1,8,0:0:0:0:
256,192,21441,1,0,0:0:0:0:
256,192,21767,1,8,0:0:0:0:
256,192,22093,1,8,0:0:0:0:
256,192,22582,1,0,0:0:0:0:
256,192,23398,1,8,0:0:0:0:
256,192,24050,1,0,0:0:0:0:
256,192,24376,1,0,0:0:0:0:
256,192,24702,1,8,0:0:0:0:
256,192,25191,1,0,0:0:0:0:
256,192,26006,1,0,0:0:0:0:
256,192,26658,1,0,0:0:0:0:
256,192,26985,1,0,0:0:0:0:
256,192,27311,1,8,0:0:0:0:
256,192,27800,1,8,0:0:0:0:
256,192,28615,1,0,0:0:0:0:
256,192,29104,1,8,0:0:0:0:
256,192,30408,1,0,0:0:0:0:
256,192,30898,1,0,0:0:0:0:
256,192,31224,1,8,0:0:0:0:
256,192,31876,1,12,0:0:0:0:
256,192,32528,1,8,0:0:0:0:
256,192,33180,1,0,0:0:0:0:
256,192,34158,1,0,0:0:0:0:
256,192,34485,1,8,0:0:0:0:
256,192,35137,1,8,0:0:0:0:
256,192,35626,1,0,0:0:0:0:
256,192,36767,1,0,0:0:0:0:
256,192,37093,1,8,0:0:0:0:
256,192,37745,1,8,0:0:0:0:
256,192,38398,1,0,0:0:0:0:
256,192,39050,1,8,0:0:0:0:
256,192,39376,1,0,0:0:0:0:
256,192,39702,1,8,0:0:0:0:
256,192,40191,1,8,0:0:0:0:
256,192,41985,1,0,0:0:0:0:
256,192,42311,1,12,0:0:0:0:
256,192,42963,1,8,0:0:0:0:
256,192,43615,1,8,0:0:0:0:
256,192,44104,1,0,0:0:0:0:
256,192,44430,1,8,0:0:0:0:
256,192,45245,1,8,0:0:0:0:
256,192,45571,1,0,0:0:0:0:
256,192,46224,1,8,0:0:0:0:
256,192,46713,1,0,0:0:0:0:
256,192,47039,1,8,0:0:0:0:
256,192,47528,1,12,0:0:0:0:
256,192,48017,1,0,0:0:0:0:
256,192,48832,1,8,0:0:0:0:
256,192,49321,1,8,0:0:0:0:
256,192,50137,1,8,0:0:0:0:
256,192,50626,1,0,0:0:0:0:
256,192,51278,1,12,0:0:0:0:
256,192,54050,1,4,0:0:0:0:
256,192,56495,1,4,0:0:0:0:
256,192,56985,1,8,0:0:0:0:
256,192,57311,1,0,0:0:0:0:
256,192,57963,1,8,0:0:0:0:
256,192,58289,1,0,0:0:0:0:
256,192,58615,1,8,0:0:0:0:
256,192,59104,1,0,0:0:0:0:
256,192,59593,1,8,0:0:0:0:
256,192,59919,1,0,0:0:0:0:
256,192,60571,1,8,0:0:0:0:
256,192,61876,1,0,0:0:0:0:
256,192,62365,1,0,0:0:0:0:
256,192,62691,1,8,0:0:0:0:
256,192,63017,1,8,0:0:0:0:
256,192,63506,1,0,0:0:0:0:
256,192,63832,1,8,0:0:0:0:
256,192,64485,1,8,0:0:0:0:
256,192,64974,1,0,0:0:0:0:
256,192,65300,1,8,0:0:0:0:
256,192,65626,1,0,0:0:0:0:
256,192,66441,1,8,0:0:0:0:
256,192,66930,1,4,0:0:0:0:
256,192,67746,1,0,0:0:0:0:
256,192,68398,1,8,0:0:0:0:
256,192,68724,1,8,0:0:0:0:
256,192,69050,1,0,0:0:0:0:
256,192,69539,1,8,0:0:0:0:
256,192,70028,1,8,0:0:0:0:
256,192,70354,1,0,0:0:0:0:
256,192,71006,1,8,0:0:0:0:
224,192,71985,1,0,0:0:0:0:
224,192,72311,1,8,0:0:0:0:
224,192,72800,1,8,0:0:0:0:
224,192,73126,1,0,0:0:0:0:
224,192,73452,1,12,0:0:0:0:
224,192,73778,1,0,0:0:0:0:
224,192,74593,1,0,0:0:0:0:
224,192,74919,1,8,0:0:0:0:
224,192,75408,1,8,0:0:0:0:
224,192,75735,1,0,0:0:0:0:
224,192,76061,1,12,0:0:0:0:
224,192,76387,1,0,0:0:0:0:
224,192,77202,1,0,0:0:0:0:
224,192,77528,1,12,0:0:0:0:
224,192,78017,1,12,0:0:0:0:
224,192,78343,1,0,0:0:0:0:
224,192,78669,1,12,0:0:0:0:
224,192,79321,1,12,0:0:0:0:
224,192,79974,1,4,0:0:0:0:
256,192,81767,1,8,0:0:0:0:
256,192,82093,1,8,0:0:0:0:
256,192,82582,1,4,0:0:0:0:
256,192,85191,12,0,86821,0:0:0:0:
