osu file format v14

[General]
AudioFilename: audio.mp3
AudioLeadIn: 0
PreviewTime: 55571
Countdown: 0
SampleSet: None
StackLeniency: 0.2
Mode: 0
LetterboxInBreaks: 0
WidescreenStoryboard: 0

[Editor]
Bookmarks: 85164
DistanceSpacing: 0.3
BeatDivisor: 4
GridSize: 32
TimelineZoom: 1.2

[Metadata]
Title:Fighting Gold (TV Size)
TitleUnicode:Fighting Gold (TV Size)
Artist:Coda
ArtistUnicode:Coda
Creator:GranDSenpai
Version:Outback World Cup
Source:ジョジョの奇妙な冒険 黄金の風
Tags:
BeatmapID:1821326
BeatmapSetID:871722

[Difficulty]
HPDrainRate:6
CircleSize:4.2
OverallDifficulty:8
ApproachRate:9.5
SliderMultiplier:2.5
SliderTickRate:1

[Events]
//Background and Video events
0,0,"maxresdefault.jpg",0,0
//Break Periods
//Storyboard Layer 0 (Background)
//Storyboard Layer 1 (Fail)
//Storyboard Layer 2 (Pass)
//Storyboard Layer 3 (Foreground)
//Storyboard Sound Samples

[TimingPoints]
548,326.086956521739,4,2,1,90,1,0
548,-50,4,2,1,90,0,0
6743,-50,4,2,1,70,0,0
8374,-50,4,2,1,90,0,0
11145,-50,4,2,1,50,0,0
15058,-50,4,2,1,60,0,0
17667,-50,4,2,1,70,0,0
19950,-50,4,2,1,90,0,0
20683,-33.3333333333333,4,2,1,90,0,0
22558,-100,4,2,1,90,0,0
22803,-100,4,2,1,20,0,0
22884,-100,4,2,1,90,0,0
24270,-100,4,2,1,20,0,0
24352,-100,4,2,1,90,0,0
25412,-100,4,2,1,20,0,0
25493,-100,4,2,1,90,0,0
26879,-100,4,2,1,20,0,0
26961,-100,4,2,1,90,0,0
28020,-100,4,2,1,20,0,0
28102,-100,4,2,1,90,0,0
29325,-100,4,2,1,20,0,0
29406,-100,4,2,1,90,0,0
30221,314.13612565445,4,2,1,90,1,0
30378,-200,4,2,1,90,0,0
30849,333.333333333333,4,2,1,90,1,0
31849,326.086956521739,4,2,1,90,1,0
47501,-50,4,2,1,90,0,0
48805,-44.4444444444445,4,2,1,90,0,0
51251,-40,4,2,1,90,0,0
54022,-1000,4,2,1,90,0,0
55653,-1000,4,2,1,50,0,0
56468,-100,4,2,1,90,0,1
64457,-66.6666666666667,4,2,1,90,0,1
65598,-50,4,2,1,90,0,1
66414,-50,4,2,1,90,0,0
66903,-100,4,2,1,90,0,1
72283,-50,4,2,1,90,0,1
74240,-100,4,2,1,90,0,1
74892,-50,4,2,1,90,0,1
78642,-40,4,2,1,90,0,1
82555,-1000,4,2,1,90,0,1
84022,-50,4,2,1,90,0,0
85164,-100,4,2,1,90,0,0
85245,-100,4,2,1,50,0,0
89077,-100,4,2,1,10,0,0

[HitObjects]
40,273,548,6,0,P|189:95|397:198,1,500,6|0,1:2|0:0,0:0:0:0:
168,277,1037,6,0,B|165:27|165:27|286:245,1,500,6|0,1:2|0:0,0:0:0:0:
76,184,1526,5,6,1:2:0:0:
472,111,3156,6,0,P|323:289|115:186,1,500,6|0,1:2|0:0,0:0:0:0:
393,352,3645,6,0,B|272:134|272:134|275:384,1,500,6|0,1:2|0:0,0:0:0:0:
448,198,4134,5,6,1:2:0:0:
93,346,5765,5,6,1:2:0:0:
85,196,5928,1,0,0:0:0:0:
78,46,6091,1,0,0:0:0:0:
306,337,6254,5,6,1:2:0:0:
168,191,6417,1,0,0:0:0:0:
280,25,6580,1,0,0:0:0:0:
403,266,6743,5,6,1:2:0:0:
423,177,7069,1,2,0:0:0:0:
305,271,7395,5,2,0:0:0:0:
287,175,7558,1,2,0:0:0:0:
147,311,7884,5,2,0:0:0:0:
156,201,8047,1,2,0:0:0:0:
429,363,8374,5,6,1:2:0:0:
400,190,8537,1,0,0:0:0:0:
372,17,8700,1,0,0:0:0:0:
485,259,8863,5,6,1:2:0:0:
263,142,9026,1,0,0:0:0:0:
28,227,9189,1,0,0:0:0:0:
360,296,9352,5,6,1:2:0:0:
381,180,9678,1,2,0:0:0:0:
208,320,10004,5,2,0:0:0:0:
176,162,10167,1,0,3:0:0:0:
162,156,10249,1,0,3:0:0:0:
115,173,10330,5,4,0:0:0:0:
355,260,10493,1,8,0:3:0:0:
95,357,10656,1,4,0:3:0:0:
95,357,10819,1,4,0:3:0:0:
161,327,11145,5,0,0:0:0:0:
353,289,11308,1,2,0:0:0:0:
161,327,11634,1,0,0:0:0:0:
353,289,11797,1,2,0:0:0:0:
161,327,12124,1,2,0:0:0:0:
135,157,12450,5,0,0:0:0:0:
387,224,12613,1,2,0:0:0:0:
135,157,12939,1,0,0:0:0:0:
387,224,13102,1,2,0:0:0:0:
135,157,13428,1,2,0:0:0:0:
91,90,13754,5,0,0:0:0:0:
405,37,13917,1,2,0:0:0:0:
91,90,14243,1,0,0:0:0:0:
405,37,14406,1,2,0:0:0:0:
91,90,14732,1,2,0:0:0:0:
135,157,15058,5,0,0:0:0:0:
387,224,15221,1,2,0:0:0:0:
135,157,15547,1,0,0:0:0:0:
387,224,15710,1,2,0:0:0:0:
135,157,16036,1,2,0:0:0:0:
161,327,16363,5,0,0:0:0:0:
353,289,16526,1,2,0:0:0:0:
161,327,16852,1,0,0:0:0:0:
353,289,17015,1,2,0:0:0:0:
161,327,17342,1,2,0:0:0:0:
20,221,17667,5,0,0:0:0:0:
118,248,17830,1,2,0:0:0:0:
20,221,18156,1,0,0:0:0:0:
118,248,18319,1,2,0:0:0:0:
20,221,18645,1,0,0:0:0:0:
113,364,18971,5,0,0:0:0:0:
183,344,19134,1,2,0:0:0:0:
113,364,19461,1,0,0:0:0:0:
183,344,19624,1,2,0:0:0:0:
347,168,19950,6,0,B|316:83|249:34|249:34|296:194|253:332|253:332|107:271|97:88,1,750,6|0,1:2|0:0,0:0:0:0:
35,62,20520,5,0,3:0:0:0:
54,46,20602,1,0,3:0:0:0:
77,37,20683,2,0,B|217:26|217:26|346:108|346:108|431:101,1,375.000014305115,6|0,1:2|0:0,0:0:0:0:
416,225,20928,2,0,B|313:185|313:185|203:227|203:227|55:182,1,375.000014305115,6|0,1:2|0:0,0:0:0:0:
71,357,21172,2,0,B|142:306|142:306|340:364|340:364|470:326,1,375.000014305115,6|0,1:2|0:0,0:0:0:0:
496,228,21417,5,6,1:2:0:0:
496,228,21580,1,0,0:0:0:0:
310,243,21743,1,8,0:0:0:0:
418,294,21906,1,0,0:0:0:0:
185,304,22069,1,0,1:0:0:0:
310,243,22232,1,0,0:0:0:0:
69,262,22395,1,8,0:0:0:0:
184,304,22558,6,0,B|149:246|180:170|180:170|202:211,1,187.5,0|0,1:0|0:0,0:0:0:0:
208,227,22884,1,0,0:0:0:0:
353,148,23047,1,8,0:0:0:0:
207,109,23211,1,0,0:0:0:0:
498,1,23374,1,0,1:0:0:0:
297,24,23537,1,0,0:0:0:0:
498,186,23700,1,8,0:0:0:0:
353,148,23864,1,0,0:0:0:0:
218,214,24026,6,0,P|150:154|59:158,1,187.5,0|0,1:2|0:0,0:0:0:0:
0,205,24352,1,8,0:0:0:0:
153,298,24515,1,0,0:0:0:0:
0,205,24678,1,0,1:0:0:0:
250,138,24841,1,0,0:0:0:0:
0,205,25004,1,8,0:0:0:0:
311,247,25167,6,0,P|330:193|312:52,1,187.5,6|0,1:2|0:0,0:0:0:0:
268,14,25493,1,0,0:0:0:0:
104,239,25656,1,8,0:0:0:0:
51,103,25819,1,0,0:0:0:0:
208,177,25982,1,0,1:0:0:0:
12,247,26145,1,0,0:0:0:0:
131,325,26308,1,8,0:0:0:0:
131,325,26471,1,8,0:0:0:0:
305,282,26634,6,0,P|216:290|185:373,1,187.5,0|0,1:0|0:0,0:0:0:0:
254,376,26961,1,8,0:0:0:0:
407,352,27124,1,0,0:0:0:0:
209,270,27287,1,0,1:0:0:0:
356,284,27450,1,0,0:0:0:0:
180,160,27613,1,8,0:0:0:0:
470,137,27776,6,0,P|386:115|398:30,1,187.5,0|0,1:2|0:0,0:0:0:0:
471,19,28102,1,0,0:0:0:0:
275,0,28265,2,0,L|280:124,1,125,8|0,0:0|0:0,0:0:0:0:
62,209,28591,5,0,1:0:0:0:
242,187,28754,1,0,0:0:0:0:
345,283,28917,1,8,0:0:0:0:
105,90,29080,6,0,P|198:98|283:61,1,187.5,0|0,1:0|0:0,0:0:0:0:
328,7,29406,1,0,0:0:0:0:
144,0,29569,1,8,0:0:0:0:
5,118,29732,1,0,0:0:0:0:
449,194,29895,5,8,1:2:0:0:
65,258,30058,1,8,1:2:0:0:
401,346,30221,1,8,1:2:0:0:
195,142,30378,6,0,P|237:72|294:130,1,187.5,6|0,1:2|0:0,0:0:0:0:
125,232,31015,5,0,3:0:0:0:
123,250,31099,1,0,3:0:0:0:
121,268,31182,1,8,0:0:0:0:
396,302,31349,1,0,1:0:0:0:
166,350,31515,1,8,0:0:0:0:
299,23,31849,6,0,P|225:119|104:132,1,250,6|8,1:2|0:0,0:0:0:0:
469,116,32338,2,0,P|348:129|273:225,1,250,0|0,1:0|1:0,0:0:0:0:
499,217,32827,1,8,0:0:0:0:
60,145,33153,6,0,P|100:260|55:374,1,250,0|8,1:0|0:0,0:0:0:0:
223,76,33642,2,2,P|182:191|227:305,1,250,0|0,1:0|1:0,0:0:0:0:
121,62,34131,1,8,0:0:0:0:
512,220,34457,6,0,B|404:225|404:225|290:175,1,250,4|8,1:2|0:0,0:0:0:0:
430,324,34946,2,0,B|316:273|316:273|192:278,1,250,0|0,1:0|1:0,0:0:0:0:
430,144,35435,1,8,0:0:0:0:
23,25,35762,6,0,P|112:102|217:49,1,250,0|8,1:0|0:0,0:0:0:0:
96,231,36251,2,0,P|202:178|291:255,1,250,0|0,1:0|1:0,0:0:0:0:
71,342,36740,1,8,0:0:0:0:
270,24,37066,6,0,P|368:95|490:84,1,250,4|8,1:2|0:0,0:0:0:0:
214,170,37555,1,0,0:0:0:0:
214,170,37718,2,0,P|276:159|337:172,1,125,0|0,1:2|0:0,0:0:0:0:
129,271,38044,2,0,P|189:283|251:273,1,125,8|0,0:0|0:0,0:0:0:0:
238,62,38370,6,0,P|211:143|128:121,1,187.5,0|0,1:2|0:0,0:0:0:0:
134,84,38696,2,0,P|72:93|10:83,1,125,8|0,0:0|0:0,0:0:0:0:
346,188,39022,2,0,P|407:196|469:186,1,125,0|0,1:0|0:0,0:0:0:0:
219,314,39349,2,0,P|157:322|95:312,1,125,8|0,0:0|0:0,0:0:0:0:
376,44,39675,6,0,P|349:111|380:280,1,250,4|8,1:2|0:0,0:0:0:0:
213,0,40164,2,0,P|240:67|209:236,1,250,0|0,1:0|1:0,0:0:0:0:
7,126,40653,2,0,L|137:117,1,125,8|0,0:0|0:0,0:0:0:0:
377,257,40979,6,0,P|301:213|172:281,1,187.5,4|0,1:2|0:0,0:0:0:0:
154,292,41305,1,4,0:0:0:0:
430,207,41468,1,0,0:0:0:0:
95,151,41631,1,8,0:3:0:0:
375,274,41794,1,4,0:3:0:0:
259,353,41957,1,4,0:3:0:0:
426,75,42283,5,4,1:2:0:0:
426,75,42772,1,0,3:0:0:0:
96,38,42935,1,4,1:2:0:0:
96,38,43262,1,0,0:0:0:0:
316,1,43425,5,0,0:0:0:0:
316,19,43506,1,0,0:0:0:0:
314,37,43588,1,4,0:0:0:0:
214,113,43751,1,0,0:0:0:0:
309,200,43914,1,0,0:0:0:0:
241,275,44077,1,0,0:0:0:0:
274,345,44240,5,4,1:2:0:0:
241,275,44403,1,0,0:0:0:0:
309,200,44566,1,0,0:0:0:0:
214,113,44729,1,0,0:0:0:0:
460,52,44892,5,4,1:2:0:0:
460,52,45381,1,0,3:0:0:0:
70,146,45544,1,4,1:2:0:0:
70,146,45871,1,0,0:0:0:0:
134,45,46033,5,0,0:0:0:0:
145,60,46115,1,0,0:0:0:0:
159,72,46196,1,4,0:0:0:0:
253,132,46359,1,0,0:0:0:0:
359,167,46522,1,0,0:0:0:0:
471,177,46685,1,0,0:0:0:0:
393,63,46848,5,4,1:2:0:0:
219,56,47012,1,0,0:0:0:0:
77,230,47175,1,8,3:2:0:0:
117,269,47256,1,8,3:2:0:0:
170,250,47338,1,8,3:2:0:0:
210,289,47419,1,8,3:2:0:0:
253,270,47501,6,0,B|320:222|322:63|322:63|331:237|408:318,1,500,4|8,1:2|0:0,0:0:0:0:
395,13,47990,2,0,B|383:186|463:272|463:272|422:120|495:34,1,500,4|0,1:2|0:0,0:0:0:0:
408,318,48479,2,0,P|348:213|324:64,1,250,8|0,1:2|0:0,0:0:0:0:
85,384,48805,6,0,B|190:246|132:92|132:92|128:245|-5:307,1,562.500021457673,4|8,1:2|0:0,0:0:0:0:
201,55,49294,2,0,B|267:241|181:382|181:382|258:277|385:286,1,562.500021457673,4|0,1:2|0:0,0:0:0:0:
126,88,49783,2,0,P|152:176|83:371,1,281.250010728836,8|0,1:2|0:0,0:0:0:0:
40,162,50109,5,4,1:2:0:0:
472,224,50272,1,4,1:2:0:0:
499,158,50598,5,4,1:2:0:0:
12,228,50761,1,4,1:2:0:0:
0,97,51088,5,4,1:2:0:0:
512,287,51251,2,0,B|532:189|451:14|451:14|335:172|351:375|351:375|445:291|438:186|438:186|381:121|293:142|293:142|243:263|271:385,1,1250,4|8,1:2|3:2,0:0:0:0:
185,359,51984,5,8,3:2:0:0:
110,343,52066,2,0,P|74:273|67:196,1,156.25,4|0,1:2|0:0,0:0:0:0:
15,78,52229,2,0,P|86:109|164:103,1,156.25,0|0,1:0|0:0,0:0:0:0:
232,16,52392,2,0,P|331:22|408:59,1,156.25,0|0,1:0|0:0,0:0:0:0:
482,180,52555,6,0,P|414:217|370:281,1,156.25,4|0,1:2|0:0,0:0:0:0:
275,219,52718,2,0,P|231:282|163:320,1,156.25,0|0,1:0|0:0,0:0:0:0:
146,203,52881,2,0,P|68:197|2:157,1,156.25,0|0,1:0|0:0,0:0:0:0:
209,77,53044,6,0,B|388:162|602:124|602:124|544:-4|289:13|200:208|281:385|281:385|346:279|522:228|522:228|321:169|66:319|66:319,1,1718.75,4|0,1:2|0:0,0:0:0:0:
13,220,54022,6,0,P|62:226|108:210,1,100,4|0,1:2|0:0,0:0:0:0:
448,296,55653,1,0,0:0:0:0:
448,296,55979,2,0,L|448:264,1,31.25
53,113,56468,5,6,1:2:0:0:
53,113,56794,1,0,0:0:0:0:
303,62,56957,1,8,0:0:0:0:
110,57,57120,1,0,0:0:0:0:
323,198,57283,1,0,1:0:0:0:
226,19,57446,1,0,1:0:0:0:
175,342,57609,1,8,0:0:0:0:
442,296,57772,6,0,L|433:234,1,62.5
492,141,57935,5,0,1:0:0:0:
454,143,58016,1,0,0:0:0:0:
417,145,58098,1,0,0:0:0:0:
379,147,58179,1,0,0:0:0:0:
342,149,58261,1,8,0:0:0:0:
304,151,58342,1,0,0:0:0:0:
267,153,58424,1,0,0:0:0:0:
229,155,58505,1,0,0:0:0:0:
192,157,58587,1,0,1:0:0:0:
155,159,58668,1,0,0:0:0:0:
117,161,58750,1,0,1:0:0:0:
80,163,58831,1,0,0:0:0:0:
19,214,58914,5,8,0:0:0:0:
19,214,59077,1,0,0:0:0:0:
380,25,59240,5,0,1:0:0:0:
320,261,59403,1,0,0:0:0:0:
272,82,59566,1,8,0:0:0:0:
472,312,59729,1,0,0:0:0:0:
107,360,59892,6,0,L|102:279,1,62.5,0|0,1:0|0:0,0:0:0:0:
235,292,60055,2,0,L|230:211,1,62.5
118,183,60218,2,0,L|121:120,1,62.5,8|0,0:0|0:0,0:0:0:0:
207,74,60381,2,0,L|210:11,1,62.5,0|0,1:0|0:0,0:0:0:0:
34,63,60544,5,0,1:0:0:0:
53,108,60625,1,0,0:0:0:0:
82,149,60707,1,0,0:0:0:0:
118,183,60788,1,0,0:0:0:0:
161,209,60870,1,8,0:0:0:0:
208,225,60951,1,0,0:0:0:0:
258,231,61033,1,0,0:0:0:0:
307,226,61114,1,0,0:0:0:0:
355,211,61196,1,0,1:0:0:0:
398,186,61277,1,0,0:0:0:0:
436,153,61359,1,0,1:0:0:0:
465,113,61440,1,0,0:0:0:0:
411,61,61522,5,8,0:0:0:0:
262,120,61685,1,0,0:0:0:0:
465,313,61848,5,0,1:0:0:0:
109,288,62012,1,0,0:0:0:0:
330,248,62175,1,8,0:0:0:0:
182,132,62338,1,0,0:0:0:0:
0,352,62501,6,0,L|63:356,1,62.5,0|0,1:0|0:0,0:0:0:0:
131,206,62664,2,0,L|194:210,1,62.5,0|0,1:0|0:0,0:0:0:0:
194,342,62827,2,0,L|257:346,1,62.5,8|0,0:0|0:0,0:0:0:0:
307,266,62990,2,0,L|370:270,1,62.5
494,357,63153,5,0,1:0:0:0:
505,295,63234,1,0,0:0:0:0:
501,233,63316,1,0,0:0:0:0:
483,173,63397,1,0,0:0:0:0:
452,119,63479,1,8,0:0:0:0:
409,74,63560,1,0,0:0:0:0:
357,40,63642,1,0,0:0:0:0:
298,19,63723,1,0,0:0:0:0:
236,12,63805,1,0,1:0:0:0:
174,19,63886,1,0,0:0:0:0:
116,41,63968,1,0,1:0:0:0:
64,76,64049,1,0,0:0:0:0:
127,126,64131,6,0,L|200:111,3,62.5,0|0|0|0,3:0|3:0|3:0|3:0,0:0:0:0:
265,181,64457,6,0,L|358:187,1,93.7500035762788,4|0,0:0|0:0,0:0:0:0:
188,316,64620,2,0,P|90:267|62:192,1,187.500007152558,0|8,0:0|0:0,0:0:0:0:
209,0,64946,2,0,L|185:186,1,187.500007152558,0|0,1:0|0:0,0:0:0:0:
318,371,65272,2,0,L|294:184,1,187.500007152558,0|8,1:0|0:0,0:0:0:0:
12,214,65598,6,0,B|113:289|233:186|233:186|379:69|513:222,1,500,6|0,1:2|0:0,0:0:0:0:
511,342,66088,2,0,P|391:339|317:243,1,250,8|0,0:0|0:0,0:0:0:0:
62,13,66414,5,8,0:3:0:0:
64,75,66495,1,0,0:0:0:0:
93,130,66577,1,0,0:0:0:0:
143,167,66658,1,0,0:0:0:0:
204,179,66740,1,8,0:0:0:0:
264,164,66821,1,0,0:0:0:0:
398,3,66903,5,6,1:2:0:0:
398,3,67229,1,0,0:0:0:0:
200,52,67392,1,8,0:0:0:0:
421,100,67555,1,0,0:0:0:0:
68,25,67718,6,0,L|62:87,1,62.5,0|0,1:0|0:0,0:0:0:0:
164,142,67881,2,0,L|158:204,1,62.5,0|0,1:0|0:0,0:0:0:0:
5,205,68044,2,0,L|0:267,1,62.5,8|0,0:0|0:0,0:0:0:0:
181,316,68207,2,0,L|175:378,1,62.5
0,267,68370,5,0,1:0:0:0:
43,261,68451,1,0,0:0:0:0:
86,255,68533,1,0,0:0:0:0:
130,249,68614,1,0,0:0:0:0:
173,243,68696,1,8,0:0:0:0:
216,237,68777,1,0,0:0:0:0:
260,231,68859,1,0,0:0:0:0:
303,225,68940,1,0,0:0:0:0:
346,219,69022,1,0,1:0:0:0:
390,214,69103,1,0,0:0:0:0:
433,208,69185,1,0,1:0:0:0:
476,202,69266,1,0,0:0:0:0:
512,276,69348,5,8,0:0:0:0:
512,276,69512,1,0,0:0:0:0:
138,172,69675,5,0,1:0:0:0:
425,137,69838,1,0,0:0:0:0:
153,41,70001,1,8,0:0:0:0:
267,210,70164,1,0,0:0:0:0:
512,90,70327,6,0,L|508:164,1,62.5,0|0,1:0|0:0,0:0:0:0:
402,159,70490,2,0,L|398:233,1,62.5,0|0,1:0|0:0,0:0:0:0:
278,230,70653,2,0,L|274:304,1,62.5,8|0,0:0|0:0,0:0:0:0:
152,315,70816,2,0,L|148:389,1,62.5
18,357,70979,5,0,1:0:0:0:
7,295,71060,1,0,0:0:0:0:
11,233,71142,1,0,0:0:0:0:
29,173,71223,1,0,0:0:0:0:
60,119,71305,1,8,0:0:0:0:
103,74,71386,1,0,0:0:0:0:
155,40,71468,1,0,0:0:0:0:
214,19,71549,1,0,0:0:0:0:
276,12,71631,1,0,1:0:0:0:
338,19,71712,1,0,0:0:0:0:
396,41,71794,1,0,1:0:0:0:
448,76,71875,1,0,0:0:0:0:
481,129,71957,6,0,L|488:210,1,62.5,8|8,0:0|0:0,0:0:0:0:
371,220,72120,2,0,L|378:301,1,62.5,8|8,0:0|0:0,0:0:0:0:
498,373,72283,6,0,P|414:290|147:315,1,375,6|0,1:2|0:0,0:0:0:0:
47,363,72609,2,0,P|20:308|11:246,1,125,8|0,0:0|0:0,0:0:0:0:
19,94,72772,6,0,P|112:172|233:162,1,250,0|0,1:0|0:0,0:0:0:0:
476,24,73098,2,0,P|486:145|408:238,1,250,0|8,1:0|0:0,0:0:0:0:
77,353,73425,5,6,1:2:0:0:
77,353,73751,1,0,1:0:0:0:
398,252,73914,1,8,0:0:0:0:
147,297,74077,1,0,0:0:0:0:
426,373,74240,6,0,L|434:311,1,62.5,4|0,0:3|0:0,0:0:0:0:
304,285,74403,2,0,L|295:223,1,62.5,8|0,0:0|0:0,0:0:0:0:
42,231,74566,2,0,L|50:169,1,62.5,8|0,0:0|3:0,0:0:0:0:
224,128,74729,2,0,L|215:66,1,62.5,8|0,0:0|3:0,0:0:0:0:
481,21,74892,6,0,P|387:96|116:57,1,375,6|0,1:2|0:0,0:0:0:0:
50,0,75218,2,0,P|24:56|22:118,1,125,8|0,0:0|0:0,0:0:0:0:
19,316,75381,6,0,P|104:217|265:212,1,250,0|0,1:0|0:0,0:0:0:0:
501,75,75707,2,0,P|476:203|339:288,1,250,0|8,1:0|0:0,0:0:0:0:
91,95,76033,5,6,1:2:0:0:
91,95,76359,1,0,1:0:0:0:
365,38,76522,1,8,0:0:0:0:
155,167,76685,1,0,0:0:0:0:
430,312,76848,5,0,3:3:0:0:
471,284,76929,1,0,3:3:0:0:
490,236,77011,1,0,3:3:0:0:
473,188,77092,1,0,3:3:0:0:
432,159,77174,1,8,0:0:0:0:
380,163,77255,1,8,0:0:0:0:
344,197,77337,1,8,0:0:0:0:
335,245,77419,1,8,0:0:0:0:
341,353,77501,6,0,P|217:349|110:105,1,375,6|0,1:2|0:0,0:0:0:0:
149,11,77827,2,0,P|206:37|268:42,1,125,8|0,0:0|0:0,0:0:0:0:
463,8,77990,6,0,P|401:114|410:237,1,250,6|0,1:2|0:0,0:0:0:0:
206,379,78316,2,0,P|268:272|259:149,1,250,0|8,1:2|0:0,0:0:0:0:
8,300,78642,6,0,B|136:217|153:32|153:32|236:109|342:92|342:92|475:125|482:290|482:290|436:202|316:192,1,937.5,6|8,1:2|0:0,0:0:0:0:
499,85,79294,6,0,B|300:89|229:266|229:266|217:149|217:149|121:194|-6:62,1,625,6|8,1:2|0:0,0:0:0:0:
308,0,79783,1,8,0:0:0:0:
34,382,79946,6,0,B|245:305|332:116|219:1|219:1|143:65|132:241|132:241|339:76|549:168|549:168|416:236|310:199|244:352|244:352|388:289|494:344|494:344|348:143|397:-2|397:-2|337:120|171:138|46:27|46:27|84:144|50:205,1,2812.5,6|0,1:2|1:0,0:0:0:0:
512,77,81740,5,4,1:2:0:0:
0,137,81903,1,0,0:0:0:0:
0,17,82066,5,0,1:0:0:0:
512,197,82229,1,0,0:0:0:0:
0,257,82392,5,0,1:0:0:0:
512,317,82555,2,0,P|473:309|412:317,1,100,6|0,1:2|0:0,0:0:0:0:
215,241,85164,6,0,B|372:129|254:-31|254:-31|220:209|20:80|-23:312|-23:312|166:136|404:188|517:376|517:376|398:318|216:347|216:347|314:315|451:204|498:49|498:49|371:115|239:111|6:16|6:16|119:128|153:289|114:353,1,3000,6|0,1:2|0:0,0:0:0:0:
