osu file format v14

[General]
AudioFilename: audio.mp3
AudioLeadIn: 0
PreviewTime: 83866
Countdown: 0
SampleSet: Normal
StackLeniency: 0.7
Mode: 3
LetterboxInBreaks: 0
SpecialStyle: 0
WidescreenStoryboard: 0

[Editor]
DistanceSpacing: 1.2
BeatDivisor: 4
GridSize: 4
TimelineZoom: 1.5

[Metadata]
Title:Fighting Gold (Eurobeat Remix)
TitleUnicode:Fighting Gold (Eurobeat Remix)
Artist:Coda
ArtistUnicode:Coda
Creator:mijkolsmith
Version:I have a dream
Source:
Tags:
BeatmapID:1959761
BeatmapSetID:938205

[Difficulty]
HPDrainRate:8
CircleSize:4
OverallDifficulty:8
ApproachRate:5
SliderMultiplier:1.4
SliderTickRate:1

[Events]
//Background and Video events
0,0,"giorno.png",0,0
//Break Periods
//Storyboard Layer 0 (Background)
//Storyboard Layer 1 (Fail)
//Storyboard Layer 2 (Pass)
//Storyboard Layer 3 (Foreground)
//Storyboard Sound Samples

[TimingPoints]
62,326.086956521739,4,1,0,20,1,0

[HitObjects]
64,192,62,5,0,0:0:0:0:
448,192,62,1,0,0:0:0:0:
192,192,62,1,0,0:0:0:0:
64,192,551,1,0,0:0:0:0:
192,192,551,1,0,0:0:0:0:
320,192,551,1,0,0:0:0:0:
320,192,1040,1,0,0:0:0:0:
448,192,1040,1,0,0:0:0:0:
64,192,1040,1,0,0:0:0:0:
448,192,2670,1,0,0:0:0:0:
320,192,2670,1,0,0:0:0:0:
64,192,2670,1,0,0:0:0:0:
64,192,3159,1,0,0:0:0:0:
192,192,3159,1,0,0:0:0:0:
448,192,3159,1,0,0:0:0:0:
192,192,3648,1,0,0:0:0:0:
320,192,3648,1,0,0:0:0:0:
448,192,3648,1,0,0:0:0:0:
64,192,5279,1,0,0:0:0:0:
192,192,5279,1,0,0:0:0:0:
448,192,5279,1,0,0:0:0:0:
320,192,5442,1,0,0:0:0:0:
448,192,5605,1,0,0:0:0:0:
320,192,5768,1,0,0:0:0:0:
64,192,5768,1,0,0:0:0:0:
192,192,5768,1,0,0:0:0:0:
448,192,5931,1,0,0:0:0:0:
192,192,6094,1,0,0:0:0:0:
320,192,6257,1,0,0:0:0:0:
448,192,6257,1,0,0:0:0:0:
64,192,6257,1,0,0:0:0:0:
192,192,6420,1,0,0:0:0:0:
320,192,6583,1,0,0:0:0:0:
64,192,6746,1,0,0:0:0:0:
192,192,6909,1,0,0:0:0:0:
320,192,7072,1,0,0:0:0:0:
64,192,7235,1,0,0:0:0:0:
192,192,7398,1,0,0:0:0:0:
320,192,7561,1,0,0:0:0:0:
192,192,7725,1,0,0:0:0:0:
448,192,7888,1,0,0:0:0:0:
64,192,7888,1,0,0:0:0:0:
320,192,7888,1,0,0:0:0:0:
192,192,8051,1,0,0:0:0:0:
320,192,8214,1,0,0:0:0:0:
448,192,8377,1,0,0:0:0:0:
192,192,8377,1,0,0:0:0:0:
64,192,8377,1,0,0:0:0:0:
320,192,8540,1,0,0:0:0:0:
64,192,8703,1,0,0:0:0:0:
192,192,8866,1,0,0:0:0:0:
320,192,8866,1,0,0:0:0:0:
448,192,8866,1,0,0:0:0:0:
64,192,9029,1,0,0:0:0:0:
448,192,9192,1,0,0:0:0:0:
192,192,9355,1,0,0:0:0:0:
64,192,9518,1,0,0:0:0:0:
448,192,9681,1,0,0:0:0:0:
320,192,9681,1,0,0:0:0:0:
192,192,9763,1,0,0:0:0:0:
64,192,9763,1,0,0:0:0:0:
320,192,9844,1,0,0:0:0:0:
448,192,9844,1,0,0:0:0:0:
192,192,10007,1,0,0:0:0:0:
64,192,10007,1,0,0:0:0:0:
64,192,10170,1,0,0:0:0:0:
448,192,10170,1,0,0:0:0:0:
448,192,10333,1,0,0:0:0:0:
320,192,10333,1,0,0:0:0:0:
192,192,10496,1,0,0:0:0:0:
64,192,10496,1,0,0:0:0:0:
448,192,10496,1,0,0:0:0:0:
320,192,10822,128,0,10985:0:0:0:0:
192,192,10985,128,0,11148:0:0:0:0:
320,192,11148,128,0,11475:0:0:0:0:
64,192,11638,128,0,11964:0:0:0:0:
448,192,11964,128,0,12127:0:0:0:0:
192,192,12127,128,0,12290:0:0:0:0:
448,192,12290,1,0,0:0:0:0:
320,192,12453,128,0,12616:0:0:0:0:
64,192,12616,128,0,12779:0:0:0:0:
448,192,13431,128,0,13594:0:0:0:0:
64,192,13594,128,0,13757:0:0:0:0:
448,192,13757,128,0,14083:0:0:0:0:
192,192,14083,128,0,14246:0:0:0:0:
320,192,14246,128,0,14572:0:0:0:0:
192,192,14409,1,0,0:0:0:0:
64,192,14572,128,0,14735:0:0:0:0:
448,192,14735,128,0,14898:0:0:0:0:
192,192,14898,128,0,15061:0:0:0:0:
320,192,15061,128,0,15225:0:0:0:0:
64,192,15225,128,0,15714:0:0:0:0:
192,192,15714,1,0,0:0:0:0:
320,192,15877,1,0,0:0:0:0:
448,192,16040,1,0,0:0:0:0:
64,192,16040,128,0,16203:0:0:0:0:
320,192,16203,128,0,16366:0:0:0:0:
192,192,16366,128,0,16692:0:0:0:0:
320,192,16529,1,0,0:0:0:0:
448,192,16692,1,0,0:0:0:0:
320,192,16855,128,0,17181:0:0:0:0:
64,192,17018,1,0,0:0:0:0:
192,192,17181,128,0,17344:0:0:0:0:
448,192,17344,128,0,17507:0:0:0:0:
64,192,17507,128,0,17670:0:0:0:0:
320,192,17670,128,0,17833:0:0:0:0:
192,192,17833,128,0,17996:0:0:0:0:
448,192,17996,1,0,0:0:0:0:
320,192,18159,128,0,18975:0:0:0:0:
64,192,18322,1,0,0:0:0:0:
192,192,18485,1,0,0:0:0:0:
448,192,18648,1,0,0:0:0:0:
64,192,18811,1,0,0:0:0:0:
192,192,18975,1,0,0:0:0:0:
320,192,19138,1,0,0:0:0:0:
64,192,19301,1,0,0:0:0:0:
320,192,19464,1,0,0:0:0:0:
192,192,19464,1,0,0:0:0:0:
448,192,19464,1,0,0:0:0:0:
320,192,20116,1,0,0:0:0:0:
448,192,20116,1,0,0:0:0:0:
192,192,20197,1,0,0:0:0:0:
64,192,20279,1,0,0:0:0:0:
320,192,20279,1,0,0:0:0:0:
448,192,20279,1,0,0:0:0:0:
320,192,20523,1,0,0:0:0:0:
448,192,20523,1,0,0:0:0:0:
64,192,20523,1,0,0:0:0:0:
448,192,20768,1,0,0:0:0:0:
64,192,20768,1,0,0:0:0:0:
320,192,20768,1,0,0:0:0:0:
64,192,20931,1,0,0:0:0:0:
192,192,20931,1,0,0:0:0:0:
320,192,20931,1,0,0:0:0:0:
448,192,20931,128,0,21094:0:0:0:0:
192,192,21094,1,0,0:0:0:0:
448,192,21257,1,0,0:0:0:0:
320,192,21257,1,0,0:0:0:0:
64,192,21257,1,0,0:0:0:0:
448,192,21420,1,0,0:0:0:0:
320,192,21583,1,0,0:0:0:0:
192,192,21583,1,0,0:0:0:0:
64,192,21583,1,0,0:0:0:0:
64,192,21746,1,0,0:0:0:0:
192,192,21909,1,0,0:0:0:0:
320,192,21909,1,0,0:0:0:0:
448,192,21909,1,0,0:0:0:0:
64,192,22072,1,0,0:0:0:0:
448,192,22072,128,0,22235:0:0:0:0:
320,192,22235,1,0,0:0:0:0:
192,192,22235,1,0,0:0:0:0:
64,192,22235,1,0,0:0:0:0:
320,192,22398,1,0,0:0:0:0:
448,192,22561,1,0,0:0:0:0:
192,192,22561,1,0,0:0:0:0:
64,192,22561,1,0,0:0:0:0:
448,192,22725,1,0,0:0:0:0:
320,192,22888,1,0,0:0:0:0:
192,192,22888,1,0,0:0:0:0:
64,192,22888,1,0,0:0:0:0:
64,192,23051,1,0,0:0:0:0:
320,192,23214,1,0,0:0:0:0:
192,192,23214,1,0,0:0:0:0:
448,192,23214,1,0,0:0:0:0:
320,192,23377,1,0,0:0:0:0:
320,192,23540,1,0,0:0:0:0:
448,192,23540,1,0,0:0:0:0:
64,192,23540,1,0,0:0:0:0:
192,192,23540,128,0,23703:0:0:0:0:
64,192,23703,1,0,0:0:0:0:
192,192,23866,1,0,0:0:0:0:
320,192,23866,1,0,0:0:0:0:
448,192,23866,1,0,0:0:0:0:
320,192,24029,1,0,0:0:0:0:
448,192,24192,1,0,0:0:0:0:
192,192,24192,1,0,0:0:0:0:
64,192,24192,1,0,0:0:0:0:
192,192,24355,1,0,0:0:0:0:
64,192,24518,1,0,0:0:0:0:
320,192,24518,1,0,0:0:0:0:
448,192,24518,1,0,0:0:0:0:
192,192,24681,1,0,0:0:0:0:
64,192,24681,128,0,24844:0:0:0:0:
448,192,24844,1,0,0:0:0:0:
320,192,24844,1,0,0:0:0:0:
192,192,24844,1,0,0:0:0:0:
448,192,25007,1,0,0:0:0:0:
320,192,25170,1,0,0:0:0:0:
192,192,25170,1,0,0:0:0:0:
64,192,25170,1,0,0:0:0:0:
192,192,25333,1,0,0:0:0:0:
64,192,25496,1,0,0:0:0:0:
320,192,25496,1,0,0:0:0:0:
448,192,25496,1,0,0:0:0:0:
448,192,25659,1,0,0:0:0:0:
320,192,25822,1,0,0:0:0:0:
192,192,25822,1,0,0:0:0:0:
64,192,25822,1,0,0:0:0:0:
320,192,25985,1,0,0:0:0:0:
320,192,26148,1,0,0:0:0:0:
192,192,26148,1,0,0:0:0:0:
64,192,26148,1,0,0:0:0:0:
448,192,26148,128,0,26311:0:0:0:0:
192,192,26311,1,0,0:0:0:0:
320,192,26475,1,0,0:0:0:0:
448,192,26475,1,0,0:0:0:0:
64,192,26475,1,0,0:0:0:0:
320,192,26638,1,0,0:0:0:0:
448,192,26801,1,0,0:0:0:0:
192,192,26801,1,0,0:0:0:0:
64,192,26801,1,0,0:0:0:0:
64,192,26964,1,0,0:0:0:0:
192,192,27127,1,0,0:0:0:0:
320,192,27127,1,0,0:0:0:0:
448,192,27127,1,0,0:0:0:0:
64,192,27290,1,0,0:0:0:0:
320,192,27290,128,0,27453:0:0:0:0:
448,192,27453,1,0,0:0:0:0:
192,192,27453,1,0,0:0:0:0:
64,192,27453,1,0,0:0:0:0:
448,192,27616,1,0,0:0:0:0:
320,192,27779,1,0,0:0:0:0:
192,192,27779,1,0,0:0:0:0:
64,192,27779,1,0,0:0:0:0:
64,192,27942,1,0,0:0:0:0:
192,192,28105,1,0,0:0:0:0:
320,192,28105,1,0,0:0:0:0:
448,192,28105,1,0,0:0:0:0:
192,192,28268,1,0,0:0:0:0:
320,192,28431,1,0,0:0:0:0:
448,192,28431,1,0,0:0:0:0:
64,192,28431,1,0,0:0:0:0:
448,192,28594,1,0,0:0:0:0:
192,192,28757,1,0,0:0:0:0:
448,192,28757,1,0,0:0:0:0:
64,192,28757,1,0,0:0:0:0:
320,192,28757,128,0,28920:0:0:0:0:
192,192,28920,1,0,0:0:0:0:
320,192,29083,1,0,0:0:0:0:
448,192,29083,1,0,0:0:0:0:
64,192,29083,1,0,0:0:0:0:
320,192,29246,1,0,0:0:0:0:
448,192,29409,1,0,0:0:0:0:
192,192,29409,1,0,0:0:0:0:
64,192,29409,1,0,0:0:0:0:
192,192,29572,1,0,0:0:0:0:
64,192,29572,1,0,0:0:0:0:
448,192,29572,1,0,0:0:0:0:
320,192,29735,1,0,0:0:0:0:
448,192,29735,1,0,0:0:0:0:
192,192,29735,1,0,0:0:0:0:
64,192,29898,128,0,30388:0:0:0:0:
192,192,29898,128,0,30388:0:0:0:0:
320,192,29898,128,0,30388:0:0:0:0:
448,192,30388,1,0,0:0:0:0:
192,192,30551,1,0,0:0:0:0:
64,192,30551,1,0,0:0:0:0:
320,192,30632,1,0,0:0:0:0:
448,192,30714,1,0,0:0:0:0:
192,192,30714,1,0,0:0:0:0:
64,192,30714,1,0,0:0:0:0:
320,192,30877,1,0,0:0:0:0:
192,192,30877,1,0,0:0:0:0:
64,192,31040,1,0,0:0:0:0:
192,192,31040,1,0,0:0:0:0:
448,192,31040,1,0,0:0:0:0:
320,192,31203,1,0,0:0:0:0:
192,192,31284,1,0,0:0:0:0:
448,192,31366,1,0,0:0:0:0:
320,192,31366,1,0,0:0:0:0:
64,192,31366,1,0,0:0:0:0:
192,192,31529,1,0,0:0:0:0:
64,192,31692,1,0,0:0:0:0:
448,192,31692,1,0,0:0:0:0:
320,192,31773,1,0,0:0:0:0:
192,192,31855,1,0,0:0:0:0:
448,192,31936,1,0,0:0:0:0:
320,192,32018,1,0,0:0:0:0:
64,192,32018,1,0,0:0:0:0:
448,192,32181,1,0,0:0:0:0:
64,192,32344,1,0,0:0:0:0:
192,192,32344,1,0,0:0:0:0:
320,192,32344,1,0,0:0:0:0:
448,192,32426,1,0,0:0:0:0:
192,192,32507,1,0,0:0:0:0:
320,192,32589,1,0,0:0:0:0:
192,192,32670,1,0,0:0:0:0:
64,192,32670,1,0,0:0:0:0:
448,192,32670,1,0,0:0:0:0:
320,192,32833,1,0,0:0:0:0:
448,192,32996,1,0,0:0:0:0:
64,192,32996,1,0,0:0:0:0:
192,192,32996,1,0,0:0:0:0:
320,192,33078,1,0,0:0:0:0:
192,192,33159,1,0,0:0:0:0:
64,192,33241,1,0,0:0:0:0:
320,192,33322,1,0,0:0:0:0:
448,192,33322,1,0,0:0:0:0:
192,192,33322,1,0,0:0:0:0:
320,192,33485,1,0,0:0:0:0:
192,192,33648,1,0,0:0:0:0:
64,192,33648,1,0,0:0:0:0:
448,192,33648,1,0,0:0:0:0:
320,192,33730,1,0,0:0:0:0:
192,192,33811,1,0,0:0:0:0:
448,192,33893,1,0,0:0:0:0:
320,192,33975,1,0,0:0:0:0:
192,192,33975,1,0,0:0:0:0:
64,192,33975,1,0,0:0:0:0:
448,192,34138,1,0,0:0:0:0:
320,192,34301,1,0,0:0:0:0:
64,192,34301,1,0,0:0:0:0:
192,192,34382,1,0,0:0:0:0:
448,192,34464,1,0,0:0:0:0:
320,192,34545,1,0,0:0:0:0:
192,192,34627,1,0,0:0:0:0:
64,192,34627,1,0,0:0:0:0:
448,192,34790,1,0,0:0:0:0:
64,192,34953,1,0,0:0:0:0:
320,192,34953,1,0,0:0:0:0:
448,192,34953,1,0,0:0:0:0:
192,192,35034,1,0,0:0:0:0:
320,192,35116,1,0,0:0:0:0:
448,192,35197,1,0,0:0:0:0:
192,192,35279,1,0,0:0:0:0:
64,192,35279,1,0,0:0:0:0:
320,192,35279,1,0,0:0:0:0:
448,192,35442,1,0,0:0:0:0:
320,192,35605,1,0,0:0:0:0:
192,192,35605,1,0,0:0:0:0:
448,192,35686,1,0,0:0:0:0:
64,192,35768,1,0,0:0:0:0:
192,192,35850,1,0,0:0:0:0:
320,192,35931,1,0,0:0:0:0:
448,192,35931,1,0,0:0:0:0:
64,192,35931,1,0,0:0:0:0:
192,192,36094,1,0,0:0:0:0:
320,192,36257,1,0,0:0:0:0:
448,192,36257,1,0,0:0:0:0:
64,192,36339,1,0,0:0:0:0:
192,192,36420,1,0,0:0:0:0:
448,192,36502,1,0,0:0:0:0:
320,192,36583,1,0,0:0:0:0:
192,192,36583,1,0,0:0:0:0:
64,192,36583,1,0,0:0:0:0:
448,192,36746,1,0,0:0:0:0:
64,192,36909,1,0,0:0:0:0:
192,192,36909,1,0,0:0:0:0:
320,192,36991,1,0,0:0:0:0:
448,192,37072,1,0,0:0:0:0:
192,192,37154,1,0,0:0:0:0:
320,192,37235,1,0,0:0:0:0:
64,192,37235,1,0,0:0:0:0:
448,192,37235,1,0,0:0:0:0:
192,192,37398,1,0,0:0:0:0:
320,192,37561,1,0,0:0:0:0:
448,192,37561,1,0,0:0:0:0:
192,192,37643,1,0,0:0:0:0:
64,192,37725,1,0,0:0:0:0:
320,192,37806,1,0,0:0:0:0:
192,192,37888,1,0,0:0:0:0:
64,192,37888,1,0,0:0:0:0:
448,192,37888,1,0,0:0:0:0:
320,192,38051,1,0,0:0:0:0:
192,192,38214,1,0,0:0:0:0:
448,192,38214,1,0,0:0:0:0:
64,192,38295,1,0,0:0:0:0:
320,192,38377,1,0,0:0:0:0:
448,192,38377,1,0,0:0:0:0:
192,192,38458,1,0,0:0:0:0:
64,192,38540,1,0,0:0:0:0:
448,192,38540,1,0,0:0:0:0:
320,192,38703,1,0,0:0:0:0:
192,192,38866,1,0,0:0:0:0:
64,192,38866,1,0,0:0:0:0:
448,192,38866,1,0,0:0:0:0:
320,192,38947,1,0,0:0:0:0:
64,192,39029,1,0,0:0:0:0:
192,192,39110,1,0,0:0:0:0:
320,192,39192,1,0,0:0:0:0:
448,192,39192,1,0,0:0:0:0:
64,192,39192,1,0,0:0:0:0:
192,192,39355,1,0,0:0:0:0:
320,192,39518,1,0,0:0:0:0:
448,192,39518,1,0,0:0:0:0:
64,192,39600,1,0,0:0:0:0:
448,192,39681,1,0,0:0:0:0:
192,192,39681,1,0,0:0:0:0:
320,192,39763,1,0,0:0:0:0:
448,192,39844,1,0,0:0:0:0:
64,192,39844,1,0,0:0:0:0:
192,192,40007,1,0,0:0:0:0:
64,192,40170,1,0,0:0:0:0:
320,192,40170,1,0,0:0:0:0:
448,192,40170,1,0,0:0:0:0:
192,192,40252,1,0,0:0:0:0:
448,192,40333,1,0,0:0:0:0:
320,192,40415,1,0,0:0:0:0:
192,192,40496,1,0,0:0:0:0:
64,192,40496,1,0,0:0:0:0:
448,192,40496,1,0,0:0:0:0:
320,192,40659,1,0,0:0:0:0:
448,192,40659,1,0,0:0:0:0:
192,192,40741,1,0,0:0:0:0:
64,192,40822,1,0,0:0:0:0:
320,192,40822,1,0,0:0:0:0:
448,192,40822,1,0,0:0:0:0:
192,192,40985,1,0,0:0:0:0:
320,192,40985,1,0,0:0:0:0:
448,192,41148,1,0,0:0:0:0:
192,192,41148,1,0,0:0:0:0:
64,192,41148,1,0,0:0:0:0:
320,192,41311,1,0,0:0:0:0:
192,192,41311,1,0,0:0:0:0:
64,192,41475,1,0,0:0:0:0:
448,192,41475,1,0,0:0:0:0:
320,192,41475,1,0,0:0:0:0:
192,192,41638,1,0,0:0:0:0:
320,192,41638,1,0,0:0:0:0:
448,192,41801,1,0,0:0:0:0:
192,192,41801,1,0,0:0:0:0:
64,192,41801,1,0,0:0:0:0:
320,192,41964,1,0,0:0:0:0:
320,192,42290,1,0,0:0:0:0:
448,192,42453,1,0,0:0:0:0:
64,192,42453,1,0,0:0:0:0:
192,192,42453,1,0,0:0:0:0:
320,192,42616,1,0,0:0:0:0:
320,192,42942,1,0,0:0:0:0:
192,192,43023,1,0,0:0:0:0:
64,192,43105,1,0,0:0:0:0:
448,192,43105,1,0,0:0:0:0:
192,192,43268,1,0,0:0:0:0:
320,192,43431,1,0,0:0:0:0:
192,192,43594,1,0,0:0:0:0:
64,192,43757,1,0,0:0:0:0:
448,192,43757,1,0,0:0:0:0:
320,192,43757,1,0,0:0:0:0:
192,192,43920,1,0,0:0:0:0:
448,192,44083,1,0,0:0:0:0:
192,192,44246,1,0,0:0:0:0:
64,192,44246,1,0,0:0:0:0:
64,192,44409,1,0,0:0:0:0:
192,192,44409,1,0,0:0:0:0:
320,192,44409,1,0,0:0:0:0:
448,192,44572,1,0,0:0:0:0:
448,192,44898,1,0,0:0:0:0:
320,192,45061,1,0,0:0:0:0:
192,192,45061,1,0,0:0:0:0:
64,192,45061,1,0,0:0:0:0:
448,192,45225,1,0,0:0:0:0:
448,192,45551,1,0,0:0:0:0:
64,192,45632,1,0,0:0:0:0:
192,192,45714,1,0,0:0:0:0:
320,192,45714,1,0,0:0:0:0:
64,192,45877,1,0,0:0:0:0:
448,192,46040,1,0,0:0:0:0:
64,192,46203,1,0,0:0:0:0:
320,192,46366,1,0,0:0:0:0:
192,192,46366,1,0,0:0:0:0:
448,192,46366,1,0,0:0:0:0:
64,192,46529,1,0,0:0:0:0:
320,192,46692,1,0,0:0:0:0:
64,192,46855,1,0,0:0:0:0:
192,192,46855,1,0,0:0:0:0:
192,192,47018,1,0,0:0:0:0:
64,192,47018,1,0,0:0:0:0:
448,192,47018,1,0,0:0:0:0:
320,192,47344,1,0,0:0:0:0:
448,192,47344,1,0,0:0:0:0:
64,192,47344,1,0,0:0:0:0:
448,192,47507,1,0,0:0:0:0:
192,192,47507,1,0,0:0:0:0:
64,192,47507,1,0,0:0:0:0:
192,192,47833,1,0,0:0:0:0:
320,192,47833,1,0,0:0:0:0:
448,192,47833,1,0,0:0:0:0:
448,192,47996,1,0,0:0:0:0:
64,192,47996,1,0,0:0:0:0:
320,192,48322,1,0,0:0:0:0:
448,192,48322,1,0,0:0:0:0:
64,192,48322,1,0,0:0:0:0:
192,192,48648,1,0,0:0:0:0:
64,192,48648,1,0,0:0:0:0:
448,192,48648,1,0,0:0:0:0:
64,192,48811,1,0,0:0:0:0:
320,192,48811,1,0,0:0:0:0:
448,192,48811,1,0,0:0:0:0:
64,192,49138,1,0,0:0:0:0:
448,192,49138,1,0,0:0:0:0:
448,192,49301,1,0,0:0:0:0:
64,192,49301,1,0,0:0:0:0:
448,192,49627,1,0,0:0:0:0:
192,192,49627,1,0,0:0:0:0:
64,192,49627,1,0,0:0:0:0:
448,192,49790,1,0,0:0:0:0:
192,192,49790,1,0,0:0:0:0:
64,192,49790,1,0,0:0:0:0:
448,192,50116,1,0,0:0:0:0:
320,192,50116,1,0,0:0:0:0:
64,192,50116,1,0,0:0:0:0:
320,192,50279,1,0,0:0:0:0:
448,192,50279,1,0,0:0:0:0:
64,192,50279,1,0,0:0:0:0:
192,192,50605,1,0,0:0:0:0:
64,192,50605,1,0,0:0:0:0:
320,192,50605,1,0,0:0:0:0:
64,192,50768,1,0,0:0:0:0:
192,192,50768,1,0,0:0:0:0:
320,192,50768,1,0,0:0:0:0:
448,192,51420,1,0,0:0:0:0:
320,192,51420,1,0,0:0:0:0:
192,192,51583,1,0,0:0:0:0:
448,192,51583,1,0,0:0:0:0:
192,192,51746,1,0,0:0:0:0:
320,192,51746,1,0,0:0:0:0:
448,192,51828,1,0,0:0:0:0:
320,192,51909,1,0,0:0:0:0:
64,192,51909,1,0,0:0:0:0:
448,192,51991,1,0,0:0:0:0:
192,192,52072,1,0,0:0:0:0:
320,192,52072,1,0,0:0:0:0:
64,192,52154,1,0,0:0:0:0:
448,192,52235,1,0,0:0:0:0:
192,192,52235,1,0,0:0:0:0:
320,192,52235,1,0,0:0:0:0:
192,192,52398,1,0,0:0:0:0:
320,192,52398,1,0,0:0:0:0:
64,192,52398,1,0,0:0:0:0:
64,192,52561,1,0,0:0:0:0:
320,192,52561,128,0,53214:0:0:0:0:
448,192,52561,128,0,53214:0:0:0:0:
192,192,52888,1,0,0:0:0:0:
64,192,52888,1,0,0:0:0:0:
192,192,53132,1,0,0:0:0:0:
320,192,53377,1,0,0:0:0:0:
192,192,53540,128,0,54844:0:0:0:0:
64,192,53540,128,0,54844:0:0:0:0:
448,192,53540,128,0,54844:0:0:0:0:
320,192,53540,128,0,54844:0:0:0:0:
64,192,55170,128,0,55496:0:0:0:0:
448,192,55496,128,0,55985:0:0:0:0:
64,192,55985,1,0,0:0:0:0:
192,192,55985,1,0,0:0:0:0:
320,192,55985,1,0,0:0:0:0:
64,192,56148,1,0,0:0:0:0:
192,192,56230,1,0,0:0:0:0:
448,192,56311,1,0,0:0:0:0:
320,192,56393,1,0,0:0:0:0:
64,192,56475,1,0,0:0:0:0:
192,192,56475,1,0,0:0:0:0:
320,192,56556,1,0,0:0:0:0:
192,192,56638,1,0,0:0:0:0:
448,192,56719,1,0,0:0:0:0:
320,192,56801,1,0,0:0:0:0:
64,192,56801,1,0,0:0:0:0:
192,192,56964,1,0,0:0:0:0:
320,192,57127,1,0,0:0:0:0:
448,192,57127,1,0,0:0:0:0:
64,192,57127,128,0,57208:0:0:0:0:
192,192,57208,128,0,57290:0:0:0:0:
320,192,57290,128,0,57371:0:0:0:0:
448,192,57371,128,0,57453:0:0:0:0:
320,192,57453,1,0,0:0:0:0:
192,192,57453,1,0,0:0:0:0:
64,192,57453,128,0,57779:0:0:0:0:
192,192,57616,1,0,0:0:0:0:
320,192,57779,1,0,0:0:0:0:
448,192,57779,1,0,0:0:0:0:
192,192,57860,1,0,0:0:0:0:
64,192,57942,1,0,0:0:0:0:
320,192,58023,1,0,0:0:0:0:
448,192,58105,1,0,0:0:0:0:
64,192,58105,1,0,0:0:0:0:
192,192,58268,1,0,0:0:0:0:
320,192,58431,1,0,0:0:0:0:
64,192,58431,1,0,0:0:0:0:
192,192,58513,1,0,0:0:0:0:
448,192,58594,1,0,0:0:0:0:
320,192,58676,1,0,0:0:0:0:
192,192,58757,1,0,0:0:0:0:
64,192,58757,1,0,0:0:0:0:
448,192,58757,1,0,0:0:0:0:
320,192,58920,1,0,0:0:0:0:
448,192,59083,1,0,0:0:0:0:
192,192,59083,1,0,0:0:0:0:
64,192,59165,1,0,0:0:0:0:
320,192,59246,1,0,0:0:0:0:
192,192,59328,1,0,0:0:0:0:
64,192,59409,1,0,0:0:0:0:
448,192,59409,1,0,0:0:0:0:
192,192,59572,1,0,0:0:0:0:
64,192,59735,1,0,0:0:0:0:
192,192,59735,1,0,0:0:0:0:
448,192,59735,128,0,59817:0:0:0:0:
320,192,59817,128,0,59898:0:0:0:0:
192,192,59898,128,0,59980:0:0:0:0:
64,192,59980,128,0,60061:0:0:0:0:
192,192,60061,1,0,0:0:0:0:
320,192,60061,1,0,0:0:0:0:
448,192,60061,128,0,60388:0:0:0:0:
320,192,60225,1,0,0:0:0:0:
192,192,60388,1,0,0:0:0:0:
64,192,60388,1,0,0:0:0:0:
448,192,60469,1,0,0:0:0:0:
64,192,60551,1,0,0:0:0:0:
320,192,60632,1,0,0:0:0:0:
192,192,60714,1,0,0:0:0:0:
448,192,60714,1,0,0:0:0:0:
64,192,60877,1,0,0:0:0:0:
320,192,61040,1,0,0:0:0:0:
448,192,61040,1,0,0:0:0:0:
192,192,61121,1,0,0:0:0:0:
320,192,61203,1,0,0:0:0:0:
64,192,61284,1,0,0:0:0:0:
448,192,61366,1,0,0:0:0:0:
320,192,61366,1,0,0:0:0:0:
192,192,61366,1,0,0:0:0:0:
64,192,61529,1,0,0:0:0:0:
448,192,61692,1,0,0:0:0:0:
320,192,61692,1,0,0:0:0:0:
64,192,61773,1,0,0:0:0:0:
448,192,61855,1,0,0:0:0:0:
192,192,61936,1,0,0:0:0:0:
320,192,62018,1,0,0:0:0:0:
64,192,62018,1,0,0:0:0:0:
192,192,62181,1,0,0:0:0:0:
64,192,62344,1,0,0:0:0:0:
448,192,62344,1,0,0:0:0:0:
192,192,62426,1,0,0:0:0:0:
448,192,62507,1,0,0:0:0:0:
320,192,62589,1,0,0:0:0:0:
64,192,62670,1,0,0:0:0:0:
448,192,62670,1,0,0:0:0:0:
192,192,62670,128,0,62996:0:0:0:0:
64,192,62833,1,0,0:0:0:0:
320,192,62996,1,0,0:0:0:0:
448,192,62996,1,0,0:0:0:0:
64,192,63078,1,0,0:0:0:0:
320,192,63159,1,0,0:0:0:0:
192,192,63241,1,0,0:0:0:0:
448,192,63322,1,0,0:0:0:0:
64,192,63322,1,0,0:0:0:0:
192,192,63485,1,0,0:0:0:0:
320,192,63648,1,0,0:0:0:0:
448,192,63648,1,0,0:0:0:0:
192,192,63730,1,0,0:0:0:0:
320,192,63811,1,0,0:0:0:0:
192,192,63893,1,0,0:0:0:0:
448,192,63975,1,0,0:0:0:0:
64,192,63975,1,0,0:0:0:0:
320,192,63975,1,0,0:0:0:0:
192,192,64138,1,0,0:0:0:0:
448,192,64138,1,0,0:0:0:0:
64,192,64138,1,0,0:0:0:0:
64,192,64301,1,0,0:0:0:0:
448,192,64301,1,0,0:0:0:0:
64,192,64464,1,0,0:0:0:0:
192,192,64464,1,0,0:0:0:0:
320,192,64464,1,0,0:0:0:0:
448,192,64464,1,0,0:0:0:0:
448,192,64790,1,0,0:0:0:0:
64,192,64790,1,0,0:0:0:0:
192,192,64790,1,0,0:0:0:0:
448,192,65116,1,0,0:0:0:0:
320,192,65116,1,0,0:0:0:0:
64,192,65116,1,0,0:0:0:0:
448,192,65442,1,0,0:0:0:0:
192,192,65442,1,0,0:0:0:0:
64,192,65605,1,0,0:0:0:0:
192,192,65605,1,0,0:0:0:0:
448,192,65768,1,0,0:0:0:0:
64,192,65768,1,0,0:0:0:0:
192,192,65768,1,0,0:0:0:0:
320,192,65768,1,0,0:0:0:0:
320,192,65931,1,0,0:0:0:0:
448,192,65931,1,0,0:0:0:0:
320,192,66094,1,0,0:0:0:0:
64,192,66094,1,0,0:0:0:0:
64,192,66257,1,0,0:0:0:0:
448,192,66257,1,0,0:0:0:0:
192,192,66257,1,0,0:0:0:0:
448,192,66420,1,0,0:0:0:0:
320,192,66420,1,0,0:0:0:0:
192,192,66420,1,0,0:0:0:0:
64,192,66583,1,0,0:0:0:0:
192,192,66665,1,0,0:0:0:0:
320,192,66746,1,0,0:0:0:0:
448,192,66828,1,0,0:0:0:0:
320,192,66909,1,0,0:0:0:0:
192,192,66909,1,0,0:0:0:0:
64,192,66991,1,0,0:0:0:0:
448,192,67072,1,0,0:0:0:0:
320,192,67154,1,0,0:0:0:0:
192,192,67235,1,0,0:0:0:0:
448,192,67235,1,0,0:0:0:0:
64,192,67235,1,0,0:0:0:0:
320,192,67398,1,0,0:0:0:0:
192,192,67561,1,0,0:0:0:0:
64,192,67561,1,0,0:0:0:0:
448,192,67643,1,0,0:0:0:0:
320,192,67725,1,0,0:0:0:0:
192,192,67806,1,0,0:0:0:0:
64,192,67888,1,0,0:0:0:0:
448,192,67888,1,0,0:0:0:0:
320,192,67888,1,0,0:0:0:0:
192,192,68051,1,0,0:0:0:0:
448,192,68214,1,0,0:0:0:0:
320,192,68214,1,0,0:0:0:0:
192,192,68295,1,0,0:0:0:0:
64,192,68377,1,0,0:0:0:0:
448,192,68458,1,0,0:0:0:0:
320,192,68540,1,0,0:0:0:0:
192,192,68540,1,0,0:0:0:0:
64,192,68540,1,0,0:0:0:0:
448,192,68703,1,0,0:0:0:0:
64,192,68866,1,0,0:0:0:0:
320,192,68866,1,0,0:0:0:0:
448,192,68947,1,0,0:0:0:0:
192,192,69029,1,0,0:0:0:0:
320,192,69110,1,0,0:0:0:0:
64,192,69192,1,0,0:0:0:0:
448,192,69192,1,0,0:0:0:0:
192,192,69192,1,0,0:0:0:0:
320,192,69355,1,0,0:0:0:0:
192,192,69518,1,0,0:0:0:0:
64,192,69518,1,0,0:0:0:0:
448,192,69600,1,0,0:0:0:0:
320,192,69681,1,0,0:0:0:0:
192,192,69763,1,0,0:0:0:0:
64,192,69844,1,0,0:0:0:0:
448,192,69844,1,0,0:0:0:0:
192,192,70007,1,0,0:0:0:0:
320,192,70170,1,0,0:0:0:0:
448,192,70170,1,0,0:0:0:0:
192,192,70252,1,0,0:0:0:0:
64,192,70333,1,0,0:0:0:0:
448,192,70415,1,0,0:0:0:0:
320,192,70496,1,0,0:0:0:0:
192,192,70496,1,0,0:0:0:0:
64,192,70496,1,0,0:0:0:0:
448,192,70659,1,0,0:0:0:0:
320,192,70822,1,0,0:0:0:0:
64,192,70822,1,0,0:0:0:0:
192,192,70904,1,0,0:0:0:0:
448,192,70985,1,0,0:0:0:0:
320,192,71067,1,0,0:0:0:0:
192,192,71148,1,0,0:0:0:0:
64,192,71148,1,0,0:0:0:0:
448,192,71311,1,0,0:0:0:0:
320,192,71475,1,0,0:0:0:0:
192,192,71475,1,0,0:0:0:0:
64,192,71556,1,0,0:0:0:0:
448,192,71638,1,0,0:0:0:0:
192,192,71719,1,0,0:0:0:0:
64,192,71801,1,0,0:0:0:0:
448,192,71801,1,0,0:0:0:0:
320,192,71801,1,0,0:0:0:0:
192,192,71964,1,0,0:0:0:0:
448,192,72127,1,0,0:0:0:0:
320,192,72127,1,0,0:0:0:0:
192,192,72290,1,0,0:0:0:0:
448,192,72453,1,0,0:0:0:0:
192,192,72616,1,0,0:0:0:0:
320,192,72779,1,0,0:0:0:0:
448,192,72779,1,0,0:0:0:0:
192,192,72942,1,0,0:0:0:0:
64,192,72942,1,0,0:0:0:0:
448,192,72942,1,0,0:0:0:0:
320,192,73268,1,0,0:0:0:0:
192,192,73431,1,0,0:0:0:0:
64,192,73431,1,0,0:0:0:0:
320,192,73594,1,0,0:0:0:0:
192,192,73757,1,0,0:0:0:0:
64,192,73757,1,0,0:0:0:0:
64,192,73920,1,0,0:0:0:0:
192,192,73920,1,0,0:0:0:0:
320,192,74083,1,0,0:0:0:0:
448,192,74083,1,0,0:0:0:0:
448,192,74246,1,0,0:0:0:0:
320,192,74246,1,0,0:0:0:0:
448,192,74409,1,0,0:0:0:0:
192,192,74409,1,0,0:0:0:0:
64,192,74409,1,0,0:0:0:0:
320,192,74572,1,0,0:0:0:0:
64,192,74735,1,0,0:0:0:0:
448,192,74735,1,0,0:0:0:0:
320,192,74898,1,0,0:0:0:0:
192,192,75061,1,0,0:0:0:0:
320,192,75225,1,0,0:0:0:0:
192,192,75388,1,0,0:0:0:0:
64,192,75388,1,0,0:0:0:0:
448,192,75551,1,0,0:0:0:0:
320,192,75551,1,0,0:0:0:0:
64,192,75551,1,0,0:0:0:0:
192,192,75877,1,0,0:0:0:0:
448,192,76040,1,0,0:0:0:0:
320,192,76040,1,0,0:0:0:0:
64,192,76203,1,0,0:0:0:0:
192,192,76203,1,0,0:0:0:0:
320,192,76284,1,0,0:0:0:0:
448,192,76284,1,0,0:0:0:0:
192,192,76366,1,0,0:0:0:0:
64,192,76366,1,0,0:0:0:0:
320,192,76447,1,0,0:0:0:0:
448,192,76447,1,0,0:0:0:0:
192,192,76529,1,0,0:0:0:0:
64,192,76529,1,0,0:0:0:0:
448,192,76692,1,0,0:0:0:0:
64,192,76692,1,0,0:0:0:0:
448,192,76855,1,0,0:0:0:0:
64,192,76855,1,0,0:0:0:0:
192,192,77018,1,0,0:0:0:0:
448,192,77018,1,0,0:0:0:0:
320,192,77018,128,0,77344:0:0:0:0:
192,192,77344,128,0,77507:0:0:0:0:
320,192,77507,1,0,0:0:0:0:
448,192,77507,1,0,0:0:0:0:
64,192,77507,128,0,77833:0:0:0:0:
320,192,77833,128,0,78159:0:0:0:0:
192,192,78159,1,0,0:0:0:0:
64,192,78159,1,0,0:0:0:0:
448,192,78159,128,0,78811:0:0:0:0:
320,192,78811,1,0,0:0:0:0:
192,192,78811,1,0,0:0:0:0:
64,192,78811,128,0,79301:0:0:0:0:
448,192,79301,1,0,0:0:0:0:
64,192,79464,1,0,0:0:0:0:
448,192,79464,1,0,0:0:0:0:
192,192,79464,128,0,80931:0:0:0:0:
320,192,79464,128,0,80931:0:0:0:0:
64,192,81257,1,0,0:0:0:0:
192,192,81257,1,0,0:0:0:0:
320,192,81339,1,0,0:0:0:0:
448,192,81420,1,0,0:0:0:0:
192,192,81420,1,0,0:0:0:0:
64,192,81420,1,0,0:0:0:0:
320,192,81502,1,0,0:0:0:0:
192,192,81583,1,0,0:0:0:0:
448,192,81583,1,0,0:0:0:0:
64,192,81665,1,0,0:0:0:0:
192,192,81746,1,0,0:0:0:0:
320,192,81746,1,0,0:0:0:0:
448,192,81828,1,0,0:0:0:0:
320,192,81909,1,0,0:0:0:0:
64,192,81909,1,0,0:0:0:0:
192,192,81991,1,0,0:0:0:0:
448,192,82072,128,0,83540:0:0:0:0:
320,192,82072,128,0,83540:0:0:0:0:
64,192,82072,128,0,83540:0:0:0:0:
64,192,83866,128,0,84192:0:0:0:0:
320,192,83866,1,0,0:0:0:0:
448,192,83866,1,0,0:0:0:0:
448,192,84192,128,0,84681:0:0:0:0:
320,192,84192,1,0,0:0:0:0:
192,192,84192,1,0,0:0:0:0:
320,192,84681,1,0,0:0:0:0:
192,192,84681,1,0,0:0:0:0:
64,192,84681,1,0,0:0:0:0:
448,192,84844,1,0,0:0:0:0:
320,192,84926,1,0,0:0:0:0:
192,192,85007,1,0,0:0:0:0:
64,192,85007,1,0,0:0:0:0:
320,192,85089,1,0,0:0:0:0:
448,192,85089,1,0,0:0:0:0:
192,192,85170,1,0,0:0:0:0:
64,192,85170,1,0,0:0:0:0:
448,192,85252,1,0,0:0:0:0:
320,192,85333,1,0,0:0:0:0:
192,192,85333,1,0,0:0:0:0:
64,192,85415,1,0,0:0:0:0:
320,192,85496,1,0,0:0:0:0:
448,192,85496,1,0,0:0:0:0:
192,192,85578,1,0,0:0:0:0:
64,192,85659,1,0,0:0:0:0:
448,192,85659,1,0,0:0:0:0:
320,192,85741,1,0,0:0:0:0:
192,192,85741,1,0,0:0:0:0:
64,192,85822,1,0,0:0:0:0:
448,192,85822,1,0,0:0:0:0:
320,192,85904,1,0,0:0:0:0:
192,192,85904,1,0,0:0:0:0:
64,192,85985,1,0,0:0:0:0:
448,192,85985,1,0,0:0:0:0:
320,192,86067,1,0,0:0:0:0:
192,192,86148,1,0,0:0:0:0:
64,192,86230,1,0,0:0:0:0:
448,192,86311,1,0,0:0:0:0:
320,192,86311,1,0,0:0:0:0:
192,192,86393,1,0,0:0:0:0:
64,192,86393,1,0,0:0:0:0:
448,192,86475,1,0,0:0:0:0:
320,192,86475,1,0,0:0:0:0:
64,192,86556,1,0,0:0:0:0:
192,192,86638,1,0,0:0:0:0:
448,192,86638,1,0,0:0:0:0:
320,192,86719,1,0,0:0:0:0:
448,192,86801,1,0,0:0:0:0:
64,192,86801,1,0,0:0:0:0:
192,192,86882,1,0,0:0:0:0:
320,192,86964,1,0,0:0:0:0:
64,192,86964,1,0,0:0:0:0:
448,192,87045,1,0,0:0:0:0:
320,192,87127,1,0,0:0:0:0:
192,192,87127,1,0,0:0:0:0:
64,192,87208,1,0,0:0:0:0:
320,192,87290,1,0,0:0:0:0:
448,192,87290,1,0,0:0:0:0:
64,192,87371,1,0,0:0:0:0:
192,192,87453,1,0,0:0:0:0:
320,192,87453,1,0,0:0:0:0:
448,192,87534,1,0,0:0:0:0:
64,192,87616,1,0,0:0:0:0:
320,192,87697,1,0,0:0:0:0:
192,192,87779,1,0,0:0:0:0:
64,192,87779,1,0,0:0:0:0:
320,192,87860,1,0,0:0:0:0:
448,192,87860,1,0,0:0:0:0:
192,192,87942,1,0,0:0:0:0:
64,192,87942,1,0,0:0:0:0:
320,192,88023,1,0,0:0:0:0:
448,192,88105,1,0,0:0:0:0:
64,192,88105,1,0,0:0:0:0:
192,192,88186,1,0,0:0:0:0:
320,192,88268,1,0,0:0:0:0:
448,192,88268,1,0,0:0:0:0:
64,192,88350,1,0,0:0:0:0:
192,192,88350,1,0,0:0:0:0:
320,192,88431,1,0,0:0:0:0:
448,192,88431,1,0,0:0:0:0:
192,192,88513,1,0,0:0:0:0:
64,192,88513,1,0,0:0:0:0:
320,192,88594,1,0,0:0:0:0:
448,192,88594,1,0,0:0:0:0:
192,192,88676,1,0,0:0:0:0:
64,192,88757,1,0,0:0:0:0:
448,192,88839,1,0,0:0:0:0:
320,192,88920,1,0,0:0:0:0:
192,192,88920,1,0,0:0:0:0:
64,192,89002,1,0,0:0:0:0:
448,192,89002,1,0,0:0:0:0:
320,192,89083,1,0,0:0:0:0:
192,192,89083,1,0,0:0:0:0:
448,192,89165,1,0,0:0:0:0:
64,192,89246,1,0,0:0:0:0:
192,192,89246,1,0,0:0:0:0:
320,192,89328,1,0,0:0:0:0:
64,192,89409,1,0,0:0:0:0:
448,192,89409,1,0,0:0:0:0:
192,192,89491,1,0,0:0:0:0:
320,192,89572,1,0,0:0:0:0:
448,192,89572,1,0,0:0:0:0:
64,192,89654,1,0,0:0:0:0:
192,192,89735,1,0,0:0:0:0:
320,192,89735,1,0,0:0:0:0:
448,192,89817,1,0,0:0:0:0:
320,192,89898,1,0,0:0:0:0:
64,192,89898,1,0,0:0:0:0:
192,192,89980,1,0,0:0:0:0:
320,192,90061,1,0,0:0:0:0:
448,192,90061,1,0,0:0:0:0:
64,192,90143,1,0,0:0:0:0:
192,192,90225,1,0,0:0:0:0:
320,192,90306,1,0,0:0:0:0:
448,192,90388,1,0,0:0:0:0:
64,192,90388,1,0,0:0:0:0:
192,192,90469,1,0,0:0:0:0:
320,192,90469,1,0,0:0:0:0:
64,192,90551,1,0,0:0:0:0:
448,192,90551,1,0,0:0:0:0:
320,192,90632,1,0,0:0:0:0:
192,192,90714,1,0,0:0:0:0:
64,192,90714,1,0,0:0:0:0:
320,192,90795,1,0,0:0:0:0:
448,192,90877,1,0,0:0:0:0:
192,192,90877,1,0,0:0:0:0:
64,192,90958,1,0,0:0:0:0:
320,192,90958,1,0,0:0:0:0:
192,192,91040,1,0,0:0:0:0:
448,192,91040,1,0,0:0:0:0:
320,192,91121,1,0,0:0:0:0:
64,192,91121,1,0,0:0:0:0:
192,192,91203,1,0,0:0:0:0:
448,192,91203,1,0,0:0:0:0:
320,192,91284,1,0,0:0:0:0:
192,192,91366,1,0,0:0:0:0:
64,192,91447,1,0,0:0:0:0:
320,192,91529,1,0,0:0:0:0:
448,192,91529,1,0,0:0:0:0:
192,192,91610,1,0,0:0:0:0:
64,192,91610,1,0,0:0:0:0:
320,192,91692,1,0,0:0:0:0:
448,192,91692,1,0,0:0:0:0:
192,192,91773,1,0,0:0:0:0:
448,192,91855,1,0,0:0:0:0:
64,192,91855,1,0,0:0:0:0:
320,192,91936,1,0,0:0:0:0:
192,192,92018,1,0,0:0:0:0:
448,192,92018,1,0,0:0:0:0:
320,192,92100,1,0,0:0:0:0:
192,192,92181,1,0,0:0:0:0:
64,192,92181,1,0,0:0:0:0:
320,192,92263,1,0,0:0:0:0:
448,192,92344,1,0,0:0:0:0:
192,192,92344,1,0,0:0:0:0:
64,192,92426,1,0,0:0:0:0:
320,192,92507,1,0,0:0:0:0:
448,192,92507,1,0,0:0:0:0:
192,192,92589,1,0,0:0:0:0:
64,192,92670,1,0,0:0:0:0:
448,192,92670,1,0,0:0:0:0:
320,192,92752,1,0,0:0:0:0:
192,192,92833,1,0,0:0:0:0:
448,192,92915,1,0,0:0:0:0:
320,192,92996,1,0,0:0:0:0:
64,192,92996,1,0,0:0:0:0:
192,192,93078,1,0,0:0:0:0:
448,192,93078,1,0,0:0:0:0:
320,192,93159,1,0,0:0:0:0:
64,192,93159,1,0,0:0:0:0:
192,192,93241,1,0,0:0:0:0:
320,192,93322,1,0,0:0:0:0:
448,192,93322,1,0,0:0:0:0:
192,192,93404,1,0,0:0:0:0:
64,192,93485,1,0,0:0:0:0:
448,192,93485,1,0,0:0:0:0:
320,192,93567,1,0,0:0:0:0:
192,192,93648,1,0,0:0:0:0:
64,192,93648,1,0,0:0:0:0:
320,192,93730,1,0,0:0:0:0:
448,192,93811,1,0,0:0:0:0:
192,192,93811,1,0,0:0:0:0:
64,192,93811,1,0,0:0:0:0:
192,192,94138,1,0,0:0:0:0:
448,192,94301,1,0,0:0:0:0:
64,192,94301,1,0,0:0:0:0:
320,192,94301,1,0,0:0:0:0:
448,192,94464,1,0,0:0:0:0:
320,192,94627,1,0,0:0:0:0:
192,192,94627,1,0,0:0:0:0:
64,192,94627,1,0,0:0:0:0:
64,192,94790,1,0,0:0:0:0:
320,192,94790,1,0,0:0:0:0:
448,192,94790,1,0,0:0:0:0:
192,192,94953,1,0,0:0:0:0:
320,192,95034,1,0,0:0:0:0:
192,192,95116,1,0,0:0:0:0:
64,192,95116,1,0,0:0:0:0:
448,192,95116,1,0,0:0:0:0:
192,192,95279,1,0,0:0:0:0:
64,192,95360,1,0,0:0:0:0:
448,192,95442,1,0,0:0:0:0:
320,192,95442,1,0,0:0:0:0:
192,192,95523,1,0,0:0:0:0:
64,192,95523,1,0,0:0:0:0:
320,192,95605,1,0,0:0:0:0:
448,192,95605,1,0,0:0:0:0:
64,192,95686,1,0,0:0:0:0:
192,192,95768,1,0,0:0:0:0:
320,192,95768,1,0,0:0:0:0:
448,192,95850,1,0,0:0:0:0:
192,192,95931,1,0,0:0:0:0:
64,192,95931,1,0,0:0:0:0:
320,192,96013,1,0,0:0:0:0:
448,192,96094,1,0,0:0:0:0:
64,192,96094,1,0,0:0:0:0:
320,192,96176,1,0,0:0:0:0:
192,192,96176,1,0,0:0:0:0:
64,192,96257,1,0,0:0:0:0:
448,192,96257,1,0,0:0:0:0:
192,192,96339,1,0,0:0:0:0:
320,192,96339,1,0,0:0:0:0:
64,192,96420,1,0,0:0:0:0:
448,192,96420,1,0,0:0:0:0:
320,192,96502,1,0,0:0:0:0:
192,192,96583,1,0,0:0:0:0:
448,192,96665,1,0,0:0:0:0:
320,192,96746,1,0,0:0:0:0:
64,192,96746,1,0,0:0:0:0:
192,192,96828,1,0,0:0:0:0:
448,192,96828,1,0,0:0:0:0:
320,192,96909,1,0,0:0:0:0:
64,192,96909,1,0,0:0:0:0:
448,192,96991,1,0,0:0:0:0:
320,192,97072,1,0,0:0:0:0:
192,192,97072,1,0,0:0:0:0:
64,192,97154,1,0,0:0:0:0:
320,192,97235,1,0,0:0:0:0:
448,192,97235,1,0,0:0:0:0:
192,192,97317,1,0,0:0:0:0:
64,192,97398,1,0,0:0:0:0:
448,192,97398,1,0,0:0:0:0:
320,192,97480,1,0,0:0:0:0:
192,192,97561,1,0,0:0:0:0:
64,192,97561,1,0,0:0:0:0:
448,192,97643,1,0,0:0:0:0:
320,192,97725,1,0,0:0:0:0:
64,192,97725,1,0,0:0:0:0:
192,192,97806,1,0,0:0:0:0:
320,192,97888,1,0,0:0:0:0:
448,192,97888,1,0,0:0:0:0:
64,192,97969,1,0,0:0:0:0:
192,192,98051,1,0,0:0:0:0:
448,192,98132,1,0,0:0:0:0:
320,192,98214,1,0,0:0:0:0:
192,192,98214,1,0,0:0:0:0:
64,192,98295,1,0,0:0:0:0:
448,192,98295,1,0,0:0:0:0:
320,192,98377,1,0,0:0:0:0:
192,192,98377,1,0,0:0:0:0:
448,192,98458,1,0,0:0:0:0:
64,192,98540,1,0,0:0:0:0:
320,192,98540,1,0,0:0:0:0:
192,192,98621,1,0,0:0:0:0:
448,192,98703,1,0,0:0:0:0:
320,192,98703,1,0,0:0:0:0:
192,192,98784,1,0,0:0:0:0:
64,192,98784,1,0,0:0:0:0:
320,192,98866,1,0,0:0:0:0:
448,192,98866,1,0,0:0:0:0:
192,192,98947,1,0,0:0:0:0:
64,192,98947,1,0,0:0:0:0:
320,192,99029,1,0,0:0:0:0:
448,192,99029,1,0,0:0:0:0:
64,192,99110,1,0,0:0:0:0:
192,192,99192,1,0,0:0:0:0:
320,192,99273,1,0,0:0:0:0:
448,192,99355,1,0,0:0:0:0:
64,192,99355,1,0,0:0:0:0:
192,192,99436,1,0,0:0:0:0:
320,192,99436,1,0,0:0:0:0:
448,192,99518,1,0,0:0:0:0:
64,192,99518,1,0,0:0:0:0:
320,192,99600,1,0,0:0:0:0:
192,192,99681,1,0,0:0:0:0:
64,192,99681,1,0,0:0:0:0:
448,192,99763,1,0,0:0:0:0:
320,192,99844,1,0,0:0:0:0:
192,192,99844,1,0,0:0:0:0:
64,192,99926,1,0,0:0:0:0:
448,192,100007,1,0,0:0:0:0:
320,192,100007,1,0,0:0:0:0:
192,192,100089,1,0,0:0:0:0:
320,192,100170,1,0,0:0:0:0:
64,192,100170,1,0,0:0:0:0:
448,192,100252,1,0,0:0:0:0:
192,192,100333,1,0,0:0:0:0:
320,192,100333,1,0,0:0:0:0:
64,192,100415,1,0,0:0:0:0:
192,192,100496,1,0,0:0:0:0:
448,192,100496,1,0,0:0:0:0:
64,192,100578,1,0,0:0:0:0:
320,192,100659,1,0,0:0:0:0:
448,192,100741,1,0,0:0:0:0:
192,192,100822,1,0,0:0:0:0:
64,192,100822,1,0,0:0:0:0:
320,192,100904,1,0,0:0:0:0:
448,192,100904,1,0,0:0:0:0:
192,192,100985,1,0,0:0:0:0:
64,192,100985,1,0,0:0:0:0:
448,192,101067,1,0,0:0:0:0:
320,192,101148,1,0,0:0:0:0:
64,192,101148,1,0,0:0:0:0:
192,192,101230,1,0,0:0:0:0:
448,192,101311,1,0,0:0:0:0:
320,192,101311,1,0,0:0:0:0:
192,192,101393,1,0,0:0:0:0:
64,192,101393,1,0,0:0:0:0:
320,192,101475,1,0,0:0:0:0:
448,192,101475,1,0,0:0:0:0:
192,192,101556,1,0,0:0:0:0:
64,192,101556,1,0,0:0:0:0:
320,192,101638,1,0,0:0:0:0:
448,192,101638,1,0,0:0:0:0:
64,192,101719,1,0,0:0:0:0:
192,192,101801,1,0,0:0:0:0:
320,192,101882,1,0,0:0:0:0:
448,192,101964,1,0,0:0:0:0:
192,192,101964,1,0,0:0:0:0:
64,192,102045,1,0,0:0:0:0:
320,192,102045,1,0,0:0:0:0:
448,192,102127,1,0,0:0:0:0:
192,192,102127,1,0,0:0:0:0:
320,192,102208,1,0,0:0:0:0:
64,192,102290,1,0,0:0:0:0:
192,192,102290,1,0,0:0:0:0:
448,192,102371,1,0,0:0:0:0:
64,192,102453,1,0,0:0:0:0:
320,192,102453,1,0,0:0:0:0:
192,192,102534,1,0,0:0:0:0:
448,192,102616,1,0,0:0:0:0:
64,192,102616,1,0,0:0:0:0:
192,192,102697,1,0,0:0:0:0:
320,192,102779,1,0,0:0:0:0:
448,192,102779,1,0,0:0:0:0:
192,192,102860,1,0,0:0:0:0:
64,192,102942,1,0,0:0:0:0:
320,192,102942,1,0,0:0:0:0:
448,192,103023,1,0,0:0:0:0:
320,192,103105,1,0,0:0:0:0:
192,192,103105,1,0,0:0:0:0:
64,192,103186,1,0,0:0:0:0:
320,192,103268,1,0,0:0:0:0:
192,192,103350,1,0,0:0:0:0:
64,192,103431,1,0,0:0:0:0:
448,192,103431,1,0,0:0:0:0:
320,192,103513,1,0,0:0:0:0:
192,192,103513,1,0,0:0:0:0:
64,192,103594,1,0,0:0:0:0:
448,192,103594,1,0,0:0:0:0:
320,192,103676,1,0,0:0:0:0:
192,192,103757,1,0,0:0:0:0:
64,192,103757,1,0,0:0:0:0:
320,192,103839,1,0,0:0:0:0:
448,192,103920,1,0,0:0:0:0:
64,192,103920,1,0,0:0:0:0:
192,192,104002,1,0,0:0:0:0:
320,192,104083,1,0,0:0:0:0:
448,192,104083,1,0,0:0:0:0:
192,192,104165,1,0,0:0:0:0:
64,192,104246,128,0,105632:0:0:0:0:
320,192,104246,128,0,105632:0:0:0:0:
448,192,104246,128,0,105632:0:0:0:0:
64,192,105714,1,0,0:0:0:0:
320,192,105714,1,0,0:0:0:0:
448,192,105714,1,0,0:0:0:0:
192,192,106040,128,0,106203:0:0:0:0:
320,192,106203,128,0,106366:0:0:0:0:
192,192,106366,128,0,106692:0:0:0:0:
448,192,106855,128,0,107181:0:0:0:0:
64,192,107181,128,0,107344:0:0:0:0:
320,192,107344,128,0,107507:0:0:0:0:
192,192,107670,128,0,107996:0:0:0:0:
448,192,107996,128,0,108322:0:0:0:0:
64,192,108648,128,0,108811:0:0:0:0:
448,192,108811,128,0,108975:0:0:0:0:
64,192,108975,128,0,109301:0:0:0:0:
320,192,109464,128,0,109790:0:0:0:0:
64,192,109627,1,0,0:0:0:0:
192,192,109790,128,0,109953:0:0:0:0:
448,192,109953,128,0,110279:0:0:0:0:
320,192,110279,128,0,110605:0:0:0:0:
192,192,110605,128,0,110931:0:0:0:0:
448,192,110931,1,0,0:0:0:0:
320,192,111094,1,0,0:0:0:0:
192,192,111257,128,0,111583:0:0:0:0:
448,192,111420,1,0,0:0:0:0:
320,192,111583,128,0,111746:0:0:0:0:
64,192,111746,128,0,111909:0:0:0:0:
448,192,111909,1,0,0:0:0:0:
320,192,112072,128,0,112398:0:0:0:0:
192,192,112235,1,0,0:0:0:0:
64,192,112398,128,0,112561:0:0:0:0:
448,192,112561,128,0,112888:0:0:0:0:
320,192,112725,1,0,0:0:0:0:
192,192,112888,128,0,113051:0:0:0:0:
64,192,113051,128,0,113377:0:0:0:0:
448,192,113214,1,0,0:0:0:0:
320,192,113377,128,0,114192:0:0:0:0:
448,192,113540,1,0,0:0:0:0:
192,192,113703,1,0,0:0:0:0:
64,192,113866,1,0,0:0:0:0:
448,192,114029,1,0,0:0:0:0:
192,192,114192,1,0,0:0:0:0:
64,192,114355,1,0,0:0:0:0:
448,192,114518,1,0,0:0:0:0:
320,192,114681,1,0,0:0:0:0:
192,192,114681,1,0,0:0:0:0:
64,192,114681,1,0,0:0:0:0:
192,192,115333,1,0,0:0:0:0:
64,192,115333,1,0,0:0:0:0:
320,192,115415,1,0,0:0:0:0:
64,192,115496,1,0,0:0:0:0:
192,192,115496,1,0,0:0:0:0:
448,192,115496,1,0,0:0:0:0:
448,192,115741,1,0,0:0:0:0:
192,192,115741,1,0,0:0:0:0:
64,192,115741,1,0,0:0:0:0:
192,192,115985,1,0,0:0:0:0:
448,192,115985,1,0,0:0:0:0:
64,192,115985,1,0,0:0:0:0:
320,192,116148,1,0,0:0:0:0:
192,192,116148,1,0,0:0:0:0:
64,192,116148,128,0,116311:0:0:0:0:
448,192,116148,1,0,0:0:0:0:
320,192,116311,1,0,0:0:0:0:
448,192,116475,1,0,0:0:0:0:
192,192,116475,1,0,0:0:0:0:
64,192,116475,1,0,0:0:0:0:
448,192,116638,1,0,0:0:0:0:
320,192,116801,1,0,0:0:0:0:
192,192,116801,1,0,0:0:0:0:
64,192,116801,1,0,0:0:0:0:
64,192,116964,1,0,0:0:0:0:
192,192,117127,1,0,0:0:0:0:
320,192,117127,1,0,0:0:0:0:
448,192,117127,1,0,0:0:0:0:
448,192,117290,1,0,0:0:0:0:
64,192,117290,128,0,117453:0:0:0:0:
192,192,117453,1,0,0:0:0:0:
448,192,117453,1,0,0:0:0:0:
320,192,117453,1,0,0:0:0:0:
192,192,117616,1,0,0:0:0:0:
320,192,117779,1,0,0:0:0:0:
448,192,117779,1,0,0:0:0:0:
64,192,117779,1,0,0:0:0:0:
320,192,117942,1,0,0:0:0:0:
448,192,118105,1,0,0:0:0:0:
192,192,118105,1,0,0:0:0:0:
64,192,118105,1,0,0:0:0:0:
192,192,118268,1,0,0:0:0:0:
320,192,118431,1,0,0:0:0:0:
448,192,118431,1,0,0:0:0:0:
64,192,118431,1,0,0:0:0:0:
64,192,118594,1,0,0:0:0:0:
192,192,118757,1,0,0:0:0:0:
320,192,118757,1,0,0:0:0:0:
448,192,118757,1,0,0:0:0:0:
64,192,118757,1,0,0:0:0:0:
448,192,118920,1,0,0:0:0:0:
320,192,119083,1,0,0:0:0:0:
192,192,119083,1,0,0:0:0:0:
64,192,119083,1,0,0:0:0:0:
192,192,119246,1,0,0:0:0:0:
320,192,119409,1,0,0:0:0:0:
448,192,119409,1,0,0:0:0:0:
64,192,119409,1,0,0:0:0:0:
320,192,119572,1,0,0:0:0:0:
448,192,119735,1,0,0:0:0:0:
192,192,119735,1,0,0:0:0:0:
64,192,119735,1,0,0:0:0:0:
320,192,119898,128,0,120061:0:0:0:0:
64,192,119898,1,0,0:0:0:0:
192,192,120061,1,0,0:0:0:0:
64,192,120061,1,0,0:0:0:0:
448,192,120061,1,0,0:0:0:0:
192,192,120225,1,0,0:0:0:0:
448,192,120388,1,0,0:0:0:0:
320,192,120388,1,0,0:0:0:0:
64,192,120388,1,0,0:0:0:0:
64,192,120551,1,0,0:0:0:0:
192,192,120714,1,0,0:0:0:0:
320,192,120714,1,0,0:0:0:0:
64,192,120714,1,0,0:0:0:0:
320,192,120877,1,0,0:0:0:0:
192,192,121040,1,0,0:0:0:0:
64,192,121040,1,0,0:0:0:0:
448,192,121040,1,0,0:0:0:0:
448,192,121203,1,0,0:0:0:0:
320,192,121366,1,0,0:0:0:0:
448,192,121366,1,0,0:0:0:0:
64,192,121366,1,0,0:0:0:0:
192,192,121366,1,0,0:0:0:0:
192,192,121529,1,0,0:0:0:0:
320,192,121692,1,0,0:0:0:0:
448,192,121692,1,0,0:0:0:0:
64,192,121692,1,0,0:0:0:0:
320,192,121855,1,0,0:0:0:0:
448,192,122018,1,0,0:0:0:0:
192,192,122018,1,0,0:0:0:0:
64,192,122018,1,0,0:0:0:0:
64,192,122181,1,0,0:0:0:0:
192,192,122344,1,0,0:0:0:0:
320,192,122344,1,0,0:0:0:0:
448,192,122344,1,0,0:0:0:0:
64,192,122507,1,0,0:0:0:0:
448,192,122507,128,0,122670:0:0:0:0:
320,192,122670,1,0,0:0:0:0:
192,192,122670,1,0,0:0:0:0:
64,192,122670,1,0,0:0:0:0:
320,192,122833,1,0,0:0:0:0:
448,192,122996,1,0,0:0:0:0:
192,192,122996,1,0,0:0:0:0:
64,192,122996,1,0,0:0:0:0:
64,192,123159,1,0,0:0:0:0:
192,192,123322,1,0,0:0:0:0:
320,192,123322,1,0,0:0:0:0:
448,192,123322,1,0,0:0:0:0:
448,192,123485,1,0,0:0:0:0:
320,192,123648,1,0,0:0:0:0:
64,192,123648,1,0,0:0:0:0:
192,192,123648,1,0,0:0:0:0:
192,192,123811,1,0,0:0:0:0:
320,192,123975,1,0,0:0:0:0:
448,192,123975,1,0,0:0:0:0:
64,192,123975,1,0,0:0:0:0:
192,192,123975,1,0,0:0:0:0:
320,192,124138,1,0,0:0:0:0:
192,192,124301,1,0,0:0:0:0:
448,192,124301,1,0,0:0:0:0:
64,192,124301,1,0,0:0:0:0:
192,192,124464,1,0,0:0:0:0:
448,192,124627,1,0,0:0:0:0:
320,192,124627,1,0,0:0:0:0:
64,192,124627,1,0,0:0:0:0:
448,192,124790,1,0,0:0:0:0:
320,192,124790,1,0,0:0:0:0:
64,192,124790,1,0,0:0:0:0:
64,192,124953,1,0,0:0:0:0:
320,192,124953,1,0,0:0:0:0:
192,192,124953,1,0,0:0:0:0:
448,192,125116,128,0,125605:0:0:0:0:
320,192,125116,128,0,125605:0:0:0:0:
192,192,125116,128,0,125605:0:0:0:0:
64,192,125605,1,0,0:0:0:0:
320,192,125768,1,0,0:0:0:0:
448,192,125768,1,0,0:0:0:0:
192,192,125850,1,0,0:0:0:0:
64,192,125931,1,0,0:0:0:0:
320,192,125931,1,0,0:0:0:0:
448,192,125931,1,0,0:0:0:0:
192,192,126094,1,0,0:0:0:0:
320,192,126094,1,0,0:0:0:0:
448,192,126257,1,0,0:0:0:0:
320,192,126257,1,0,0:0:0:0:
64,192,126257,1,0,0:0:0:0:
192,192,126420,1,0,0:0:0:0:
320,192,126502,1,0,0:0:0:0:
64,192,126583,1,0,0:0:0:0:
192,192,126583,1,0,0:0:0:0:
448,192,126583,1,0,0:0:0:0:
320,192,126746,1,0,0:0:0:0:
448,192,126909,1,0,0:0:0:0:
64,192,126909,1,0,0:0:0:0:
192,192,126991,1,0,0:0:0:0:
320,192,127072,1,0,0:0:0:0:
448,192,127154,1,0,0:0:0:0:
64,192,127235,1,0,0:0:0:0:
192,192,127235,1,0,0:0:0:0:
448,192,127398,1,0,0:0:0:0:
192,192,127561,1,0,0:0:0:0:
320,192,127561,1,0,0:0:0:0:
64,192,127561,1,0,0:0:0:0:
448,192,127643,1,0,0:0:0:0:
192,192,127725,1,0,0:0:0:0:
320,192,127806,1,0,0:0:0:0:
64,192,127888,1,0,0:0:0:0:
192,192,127888,1,0,0:0:0:0:
448,192,127888,1,0,0:0:0:0:
320,192,128051,1,0,0:0:0:0:
448,192,128214,1,0,0:0:0:0:
64,192,128214,1,0,0:0:0:0:
320,192,128214,1,0,0:0:0:0:
192,192,128295,1,0,0:0:0:0:
448,192,128377,1,0,0:0:0:0:
64,192,128458,1,0,0:0:0:0:
320,192,128540,1,0,0:0:0:0:
192,192,128540,1,0,0:0:0:0:
448,192,128540,1,0,0:0:0:0:
64,192,128703,1,0,0:0:0:0:
448,192,128866,1,0,0:0:0:0:
64,192,128866,1,0,0:0:0:0:
192,192,128866,1,0,0:0:0:0:
320,192,128947,1,0,0:0:0:0:
192,192,129029,1,0,0:0:0:0:
448,192,129110,1,0,0:0:0:0:
192,192,129192,1,0,0:0:0:0:
320,192,129192,1,0,0:0:0:0:
64,192,129192,1,0,0:0:0:0:
448,192,129355,1,0,0:0:0:0:
320,192,129518,1,0,0:0:0:0:
192,192,129518,1,0,0:0:0:0:
448,192,129600,1,0,0:0:0:0:
64,192,129681,1,0,0:0:0:0:
192,192,129763,1,0,0:0:0:0:
320,192,129844,1,0,0:0:0:0:
448,192,129844,1,0,0:0:0:0:
64,192,130007,1,0,0:0:0:0:
192,192,130170,1,0,0:0:0:0:
320,192,130170,1,0,0:0:0:0:
448,192,130170,1,0,0:0:0:0:
64,192,130252,1,0,0:0:0:0:
448,192,130333,1,0,0:0:0:0:
320,192,130415,1,0,0:0:0:0:
192,192,130496,1,0,0:0:0:0:
64,192,130496,1,0,0:0:0:0:
448,192,130496,1,0,0:0:0:0:
448,192,130822,1,0,0:0:0:0:
320,192,130822,1,0,0:0:0:0:
192,192,130904,1,0,0:0:0:0:
64,192,130985,1,0,0:0:0:0:
448,192,131067,1,0,0:0:0:0:
320,192,131148,1,0,0:0:0:0:
192,192,131148,1,0,0:0:0:0:
64,192,131148,1,0,0:0:0:0:
448,192,131311,1,0,0:0:0:0:
320,192,131475,1,0,0:0:0:0:
64,192,131475,1,0,0:0:0:0:
192,192,131556,1,0,0:0:0:0:
448,192,131638,1,0,0:0:0:0:
64,192,131719,1,0,0:0:0:0:
320,192,131801,1,0,0:0:0:0:
192,192,131801,1,0,0:0:0:0:
448,192,131801,1,0,0:0:0:0:
64,192,131964,1,0,0:0:0:0:
448,192,132127,1,0,0:0:0:0:
192,192,132127,1,0,0:0:0:0:
320,192,132208,1,0,0:0:0:0:
64,192,132290,1,0,0:0:0:0:
448,192,132371,1,0,0:0:0:0:
320,192,132453,1,0,0:0:0:0:
192,192,132453,1,0,0:0:0:0:
64,192,132453,1,0,0:0:0:0:
448,192,132616,1,0,0:0:0:0:
64,192,132779,1,0,0:0:0:0:
192,192,132779,1,0,0:0:0:0:
320,192,132860,1,0,0:0:0:0:
448,192,132942,1,0,0:0:0:0:
64,192,133023,1,0,0:0:0:0:
192,192,133105,1,0,0:0:0:0:
320,192,133105,1,0,0:0:0:0:
448,192,133105,1,0,0:0:0:0:
64,192,133268,1,0,0:0:0:0:
448,192,133431,1,0,0:0:0:0:
320,192,133431,1,0,0:0:0:0:
192,192,133513,1,0,0:0:0:0:
64,192,133594,1,0,0:0:0:0:
320,192,133594,1,0,0:0:0:0:
448,192,133676,1,0,0:0:0:0:
320,192,133757,1,0,0:0:0:0:
192,192,133757,1,0,0:0:0:0:
64,192,133920,1,0,0:0:0:0:
448,192,134083,1,0,0:0:0:0:
192,192,134083,1,0,0:0:0:0:
320,192,134083,1,0,0:0:0:0:
64,192,134165,1,0,0:0:0:0:
320,192,134246,1,0,0:0:0:0:
192,192,134328,1,0,0:0:0:0:
320,192,134409,1,0,0:0:0:0:
448,192,134409,1,0,0:0:0:0:
64,192,134409,1,0,0:0:0:0:
192,192,134572,1,0,0:0:0:0:
448,192,134735,1,0,0:0:0:0:
320,192,134735,1,0,0:0:0:0:
64,192,134817,1,0,0:0:0:0:
448,192,134898,1,0,0:0:0:0:
192,192,134898,1,0,0:0:0:0:
320,192,134980,1,0,0:0:0:0:
192,192,135061,1,0,0:0:0:0:
64,192,135061,1,0,0:0:0:0:
448,192,135225,1,0,0:0:0:0:
64,192,135388,1,0,0:0:0:0:
192,192,135388,1,0,0:0:0:0:
320,192,135388,1,0,0:0:0:0:
448,192,135469,1,0,0:0:0:0:
320,192,135551,1,0,0:0:0:0:
64,192,135632,1,0,0:0:0:0:
192,192,135714,1,0,0:0:0:0:
320,192,135714,1,0,0:0:0:0:
448,192,135714,1,0,0:0:0:0:
64,192,135877,1,0,0:0:0:0:
192,192,135877,1,0,0:0:0:0:
320,192,135958,1,0,0:0:0:0:
448,192,136040,1,0,0:0:0:0:
192,192,136040,1,0,0:0:0:0:
64,192,136040,1,0,0:0:0:0:
320,192,136203,1,0,0:0:0:0:
192,192,136203,1,0,0:0:0:0:
64,192,136366,1,0,0:0:0:0:
320,192,136366,1,0,0:0:0:0:
448,192,136366,1,0,0:0:0:0:
320,192,136529,1,0,0:0:0:0:
192,192,136529,1,0,0:0:0:0:
64,192,136692,1,0,0:0:0:0:
192,192,136692,1,0,0:0:0:0:
448,192,136692,1,0,0:0:0:0:
320,192,136855,1,0,0:0:0:0:
192,192,136855,1,0,0:0:0:0:
64,192,137018,1,0,0:0:0:0:
320,192,137018,1,0,0:0:0:0:
448,192,137018,1,0,0:0:0:0:
192,192,137181,1,0,0:0:0:0:
192,192,137507,1,0,0:0:0:0:
320,192,137670,1,0,0:0:0:0:
448,192,137670,1,0,0:0:0:0:
64,192,137670,1,0,0:0:0:0:
192,192,137833,1,0,0:0:0:0:
192,192,138159,1,0,0:0:0:0:
320,192,138241,1,0,0:0:0:0:
448,192,138322,1,0,0:0:0:0:
64,192,138322,1,0,0:0:0:0:
320,192,138485,1,0,0:0:0:0:
192,192,138648,1,0,0:0:0:0:
320,192,138811,1,0,0:0:0:0:
192,192,138975,1,0,0:0:0:0:
64,192,138975,1,0,0:0:0:0:
448,192,138975,1,0,0:0:0:0:
320,192,139138,1,0,0:0:0:0:
64,192,139301,1,0,0:0:0:0:
320,192,139464,1,0,0:0:0:0:
448,192,139464,1,0,0:0:0:0:
448,192,139627,1,0,0:0:0:0:
320,192,139627,1,0,0:0:0:0:
192,192,139627,1,0,0:0:0:0:
64,192,139790,1,0,0:0:0:0:
64,192,140116,1,0,0:0:0:0:
320,192,140279,1,0,0:0:0:0:
448,192,140279,1,0,0:0:0:0:
192,192,140279,1,0,0:0:0:0:
64,192,140442,1,0,0:0:0:0:
64,192,140768,1,0,0:0:0:0:
448,192,140850,1,0,0:0:0:0:
320,192,140931,1,0,0:0:0:0:
192,192,140931,1,0,0:0:0:0:
448,192,141094,1,0,0:0:0:0:
64,192,141257,1,0,0:0:0:0:
448,192,141420,1,0,0:0:0:0:
320,192,141583,1,0,0:0:0:0:
192,192,141583,1,0,0:0:0:0:
64,192,141583,1,0,0:0:0:0:
448,192,141746,1,0,0:0:0:0:
192,192,141909,1,0,0:0:0:0:
448,192,142072,1,0,0:0:0:0:
320,192,142072,1,0,0:0:0:0:
448,192,142235,1,0,0:0:0:0:
320,192,142235,1,0,0:0:0:0:
64,192,142235,1,0,0:0:0:0:
192,192,142561,1,0,0:0:0:0:
64,192,142561,1,0,0:0:0:0:
448,192,142561,1,0,0:0:0:0:
64,192,142725,1,0,0:0:0:0:
320,192,142725,1,0,0:0:0:0:
448,192,142725,1,0,0:0:0:0:
320,192,143051,1,0,0:0:0:0:
192,192,143051,1,0,0:0:0:0:
64,192,143051,1,0,0:0:0:0:
64,192,143214,1,0,0:0:0:0:
448,192,143214,1,0,0:0:0:0:
192,192,143540,1,0,0:0:0:0:
64,192,143540,1,0,0:0:0:0:
448,192,143540,1,0,0:0:0:0:
320,192,143866,1,0,0:0:0:0:
448,192,143866,1,0,0:0:0:0:
64,192,143866,1,0,0:0:0:0:
448,192,144029,1,0,0:0:0:0:
192,192,144029,1,0,0:0:0:0:
64,192,144029,1,0,0:0:0:0:
320,192,144355,1,0,0:0:0:0:
192,192,144355,1,0,0:0:0:0:
192,192,144518,1,0,0:0:0:0:
320,192,144518,1,0,0:0:0:0:
64,192,144844,1,0,0:0:0:0:
320,192,144844,1,0,0:0:0:0:
448,192,144844,1,0,0:0:0:0:
64,192,145007,1,0,0:0:0:0:
320,192,145007,1,0,0:0:0:0:
448,192,145007,1,0,0:0:0:0:
64,192,145333,1,0,0:0:0:0:
192,192,145333,1,0,0:0:0:0:
448,192,145333,1,0,0:0:0:0:
192,192,145496,1,0,0:0:0:0:
64,192,145496,1,0,0:0:0:0:
448,192,145496,1,0,0:0:0:0:
320,192,145822,1,0,0:0:0:0:
448,192,145822,1,0,0:0:0:0:
192,192,145822,1,0,0:0:0:0:
448,192,145985,1,0,0:0:0:0:
320,192,145985,1,0,0:0:0:0:
192,192,145985,1,0,0:0:0:0:
64,192,146638,1,0,0:0:0:0:
192,192,146638,1,0,0:0:0:0:
320,192,146801,1,0,0:0:0:0:
64,192,146801,1,0,0:0:0:0:
320,192,146964,1,0,0:0:0:0:
192,192,146964,1,0,0:0:0:0:
64,192,147045,1,0,0:0:0:0:
192,192,147127,1,0,0:0:0:0:
448,192,147127,1,0,0:0:0:0:
64,192,147208,1,0,0:0:0:0:
320,192,147290,1,0,0:0:0:0:
192,192,147290,1,0,0:0:0:0:
448,192,147371,1,0,0:0:0:0:
64,192,147453,1,0,0:0:0:0:
320,192,147453,1,0,0:0:0:0:
192,192,147453,1,0,0:0:0:0:
320,192,147616,1,0,0:0:0:0:
192,192,147616,1,0,0:0:0:0:
448,192,147616,1,0,0:0:0:0:
192,192,147779,128,0,148431:0:0:0:0:
64,192,147779,128,0,148431:0:0:0:0:
448,192,147779,1,0,0:0:0:0:
320,192,148105,1,0,0:0:0:0:
448,192,148105,1,0,0:0:0:0:
320,192,148350,1,0,0:0:0:0:
192,192,148594,1,0,0:0:0:0:
320,192,148757,128,0,150061:0:0:0:0:
448,192,148757,128,0,150061:0:0:0:0:
64,192,148757,128,0,150061:0:0:0:0:
192,192,148757,128,0,150061:0:0:0:0:
448,192,150388,128,0,150714:0:0:0:0:
64,192,150714,128,0,151203:0:0:0:0:
192,192,151203,1,0,0:0:0:0:
320,192,151203,1,0,0:0:0:0:
448,192,151203,1,0,0:0:0:0:
448,192,151366,1,0,0:0:0:0:
192,192,151447,1,0,0:0:0:0:
320,192,151529,1,0,0:0:0:0:
64,192,151610,1,0,0:0:0:0:
448,192,151692,1,0,0:0:0:0:
320,192,151692,1,0,0:0:0:0:
192,192,151773,1,0,0:0:0:0:
64,192,151855,1,0,0:0:0:0:
320,192,151936,1,0,0:0:0:0:
192,192,152018,1,0,0:0:0:0:
448,192,152018,1,0,0:0:0:0:
320,192,152181,1,0,0:0:0:0:
192,192,152344,1,0,0:0:0:0:
64,192,152344,1,0,0:0:0:0:
448,192,152344,128,0,152426:0:0:0:0:
320,192,152426,128,0,152507:0:0:0:0:
192,192,152507,128,0,152589:0:0:0:0:
64,192,152589,128,0,152670:0:0:0:0:
320,192,152670,1,0,0:0:0:0:
192,192,152670,1,0,0:0:0:0:
448,192,152670,128,0,152996:0:0:0:0:
320,192,152833,1,0,0:0:0:0:
192,192,152996,1,0,0:0:0:0:
64,192,152996,1,0,0:0:0:0:
320,192,153078,1,0,0:0:0:0:
64,192,153159,1,0,0:0:0:0:
448,192,153241,1,0,0:0:0:0:
192,192,153322,1,0,0:0:0:0:
64,192,153322,1,0,0:0:0:0:
448,192,153485,1,0,0:0:0:0:
192,192,153648,1,0,0:0:0:0:
320,192,153648,1,0,0:0:0:0:
64,192,153730,1,0,0:0:0:0:
192,192,153811,1,0,0:0:0:0:
448,192,153893,1,0,0:0:0:0:
320,192,153975,1,0,0:0:0:0:
192,192,153975,1,0,0:0:0:0:
64,192,153975,1,0,0:0:0:0:
448,192,154138,1,0,0:0:0:0:
320,192,154301,1,0,0:0:0:0:
64,192,154301,1,0,0:0:0:0:
448,192,154382,1,0,0:0:0:0:
192,192,154464,1,0,0:0:0:0:
320,192,154545,1,0,0:0:0:0:
448,192,154627,1,0,0:0:0:0:
64,192,154627,1,0,0:0:0:0:
192,192,154790,1,0,0:0:0:0:
320,192,154953,1,0,0:0:0:0:
448,192,154953,1,0,0:0:0:0:
64,192,154953,128,0,155034:0:0:0:0:
192,192,155034,128,0,155116:0:0:0:0:
320,192,155116,128,0,155197:0:0:0:0:
448,192,155197,128,0,155279:0:0:0:0:
64,192,155279,128,0,155605:0:0:0:0:
320,192,155279,1,0,0:0:0:0:
192,192,155279,1,0,0:0:0:0:
192,192,155442,1,0,0:0:0:0:
320,192,155605,1,0,0:0:0:0:
448,192,155605,1,0,0:0:0:0:
192,192,155686,1,0,0:0:0:0:
448,192,155768,1,0,0:0:0:0:
320,192,155850,1,0,0:0:0:0:
192,192,155931,1,0,0:0:0:0:
64,192,155931,1,0,0:0:0:0:
320,192,156094,1,0,0:0:0:0:
448,192,156257,1,0,0:0:0:0:
64,192,156257,1,0,0:0:0:0:
192,192,156339,1,0,0:0:0:0:
320,192,156420,1,0,0:0:0:0:
64,192,156502,1,0,0:0:0:0:
192,192,156583,1,0,0:0:0:0:
448,192,156583,1,0,0:0:0:0:
320,192,156583,1,0,0:0:0:0:
64,192,156746,1,0,0:0:0:0:
448,192,156909,1,0,0:0:0:0:
320,192,156909,1,0,0:0:0:0:
192,192,156991,1,0,0:0:0:0:
64,192,157072,1,0,0:0:0:0:
448,192,157154,1,0,0:0:0:0:
320,192,157235,1,0,0:0:0:0:
192,192,157235,1,0,0:0:0:0:
64,192,157398,1,0,0:0:0:0:
448,192,157561,1,0,0:0:0:0:
192,192,157561,1,0,0:0:0:0:
320,192,157643,1,0,0:0:0:0:
64,192,157725,1,0,0:0:0:0:
192,192,157806,1,0,0:0:0:0:
448,192,157888,1,0,0:0:0:0:
64,192,157888,1,0,0:0:0:0:
320,192,157888,128,0,158214:0:0:0:0:
448,192,158051,1,0,0:0:0:0:
192,192,158214,1,0,0:0:0:0:
64,192,158214,1,0,0:0:0:0:
448,192,158295,1,0,0:0:0:0:
192,192,158377,1,0,0:0:0:0:
320,192,158458,1,0,0:0:0:0:
64,192,158540,1,0,0:0:0:0:
448,192,158540,1,0,0:0:0:0:
192,192,158703,1,0,0:0:0:0:
320,192,158866,1,0,0:0:0:0:
448,192,158866,1,0,0:0:0:0:
64,192,158947,1,0,0:0:0:0:
448,192,159029,1,0,0:0:0:0:
64,192,159110,1,0,0:0:0:0:
320,192,159192,1,0,0:0:0:0:
448,192,159192,1,0,0:0:0:0:
192,192,159192,1,0,0:0:0:0:
64,192,159355,1,0,0:0:0:0:
192,192,159355,1,0,0:0:0:0:
320,192,159355,1,0,0:0:0:0:
192,192,159518,1,0,0:0:0:0:
320,192,159518,1,0,0:0:0:0:
448,192,159681,1,0,0:0:0:0:
64,192,159681,1,0,0:0:0:0:
192,192,159681,1,0,0:0:0:0:
320,192,159681,1,0,0:0:0:0:
64,192,160007,1,0,0:0:0:0:
448,192,160007,1,0,0:0:0:0:
320,192,160007,1,0,0:0:0:0:
64,192,160333,1,0,0:0:0:0:
192,192,160333,1,0,0:0:0:0:
448,192,160333,1,0,0:0:0:0:
64,192,160659,1,0,0:0:0:0:
448,192,160659,1,0,0:0:0:0:
448,192,160822,1,0,0:0:0:0:
320,192,160822,1,0,0:0:0:0:
64,192,160985,1,0,0:0:0:0:
448,192,160985,1,0,0:0:0:0:
320,192,160985,1,0,0:0:0:0:
192,192,160985,1,0,0:0:0:0:
192,192,161148,1,0,0:0:0:0:
64,192,161148,1,0,0:0:0:0:
64,192,161311,1,0,0:0:0:0:
448,192,161311,1,0,0:0:0:0:
448,192,161475,1,0,0:0:0:0:
192,192,161475,1,0,0:0:0:0:
320,192,161475,1,0,0:0:0:0:
64,192,161638,1,0,0:0:0:0:
192,192,161638,1,0,0:0:0:0:
448,192,161638,1,0,0:0:0:0:
320,192,161801,1,0,0:0:0:0:
448,192,161882,1,0,0:0:0:0:
64,192,161964,1,0,0:0:0:0:
192,192,162045,1,0,0:0:0:0:
320,192,162127,1,0,0:0:0:0:
448,192,162127,1,0,0:0:0:0:
192,192,162208,1,0,0:0:0:0:
64,192,162290,1,0,0:0:0:0:
448,192,162371,1,0,0:0:0:0:
320,192,162453,1,0,0:0:0:0:
192,192,162453,1,0,0:0:0:0:
64,192,162453,1,0,0:0:0:0:
448,192,162616,1,0,0:0:0:0:
320,192,162779,1,0,0:0:0:0:
192,192,162779,1,0,0:0:0:0:
64,192,162860,1,0,0:0:0:0:
448,192,162942,1,0,0:0:0:0:
192,192,163023,1,0,0:0:0:0:
320,192,163105,1,0,0:0:0:0:
448,192,163105,1,0,0:0:0:0:
64,192,163105,1,0,0:0:0:0:
192,192,163268,1,0,0:0:0:0:
448,192,163431,1,0,0:0:0:0:
320,192,163431,1,0,0:0:0:0:
192,192,163513,1,0,0:0:0:0:
64,192,163594,1,0,0:0:0:0:
448,192,163676,1,0,0:0:0:0:
320,192,163757,1,0,0:0:0:0:
192,192,163757,1,0,0:0:0:0:
64,192,163757,1,0,0:0:0:0:
448,192,163920,1,0,0:0:0:0:
64,192,164083,1,0,0:0:0:0:
192,192,164083,1,0,0:0:0:0:
320,192,164165,1,0,0:0:0:0:
448,192,164246,1,0,0:0:0:0:
64,192,164328,1,0,0:0:0:0:
192,192,164409,1,0,0:0:0:0:
320,192,164409,1,0,0:0:0:0:
448,192,164409,1,0,0:0:0:0:
64,192,164572,1,0,0:0:0:0:
448,192,164735,1,0,0:0:0:0:
192,192,164735,1,0,0:0:0:0:
320,192,164817,1,0,0:0:0:0:
64,192,164898,1,0,0:0:0:0:
192,192,164980,1,0,0:0:0:0:
320,192,165061,1,0,0:0:0:0:
448,192,165061,1,0,0:0:0:0:
192,192,165225,1,0,0:0:0:0:
64,192,165388,1,0,0:0:0:0:
448,192,165388,1,0,0:0:0:0:
320,192,165469,1,0,0:0:0:0:
192,192,165551,1,0,0:0:0:0:
448,192,165632,1,0,0:0:0:0:
320,192,165714,1,0,0:0:0:0:
192,192,165714,1,0,0:0:0:0:
64,192,165714,1,0,0:0:0:0:
448,192,165877,1,0,0:0:0:0:
64,192,166040,1,0,0:0:0:0:
320,192,166040,1,0,0:0:0:0:
192,192,166121,1,0,0:0:0:0:
448,192,166203,1,0,0:0:0:0:
320,192,166284,1,0,0:0:0:0:
192,192,166366,1,0,0:0:0:0:
64,192,166366,1,0,0:0:0:0:
448,192,166529,1,0,0:0:0:0:
320,192,166692,1,0,0:0:0:0:
64,192,166692,1,0,0:0:0:0:
192,192,166773,1,0,0:0:0:0:
320,192,166855,1,0,0:0:0:0:
448,192,166936,1,0,0:0:0:0:
320,192,167018,1,0,0:0:0:0:
64,192,167018,1,0,0:0:0:0:
192,192,167018,1,0,0:0:0:0:
448,192,167181,1,0,0:0:0:0:
64,192,167344,1,0,0:0:0:0:
192,192,167344,1,0,0:0:0:0:
448,192,167507,1,0,0:0:0:0:
64,192,167670,1,0,0:0:0:0:
448,192,167833,1,0,0:0:0:0:
192,192,167996,1,0,0:0:0:0:
64,192,167996,1,0,0:0:0:0:
320,192,168159,1,0,0:0:0:0:
448,192,168159,1,0,0:0:0:0:
64,192,168159,1,0,0:0:0:0:
64,192,168485,1,0,0:0:0:0:
320,192,168648,1,0,0:0:0:0:
448,192,168648,1,0,0:0:0:0:
64,192,168811,1,0,0:0:0:0:
320,192,168975,1,0,0:0:0:0:
448,192,168975,1,0,0:0:0:0:
448,192,169138,1,0,0:0:0:0:
320,192,169138,1,0,0:0:0:0:
192,192,169301,1,0,0:0:0:0:
64,192,169301,1,0,0:0:0:0:
64,192,169464,1,0,0:0:0:0:
192,192,169464,1,0,0:0:0:0:
192,192,169627,1,0,0:0:0:0:
320,192,169627,1,0,0:0:0:0:
448,192,169627,1,0,0:0:0:0:
64,192,169790,1,0,0:0:0:0:
320,192,169953,1,0,0:0:0:0:
192,192,169953,1,0,0:0:0:0:
64,192,170116,1,0,0:0:0:0:
448,192,170279,1,0,0:0:0:0:
64,192,170442,1,0,0:0:0:0:
320,192,170605,1,0,0:0:0:0:
448,192,170605,1,0,0:0:0:0:
64,192,170768,1,0,0:0:0:0:
192,192,170768,1,0,0:0:0:0:
320,192,170768,1,0,0:0:0:0:
448,192,171094,1,0,0:0:0:0:
64,192,171257,1,0,0:0:0:0:
192,192,171257,1,0,0:0:0:0:
448,192,171420,1,0,0:0:0:0:
320,192,171420,1,0,0:0:0:0:
192,192,171502,1,0,0:0:0:0:
64,192,171502,1,0,0:0:0:0:
320,192,171583,1,0,0:0:0:0:
448,192,171583,1,0,0:0:0:0:
192,192,171665,1,0,0:0:0:0:
64,192,171665,1,0,0:0:0:0:
320,192,171746,1,0,0:0:0:0:
448,192,171746,1,0,0:0:0:0:
64,192,171909,1,0,0:0:0:0:
448,192,171909,1,0,0:0:0:0:
64,192,172072,1,0,0:0:0:0:
448,192,172072,1,0,0:0:0:0:
192,192,172235,1,0,0:0:0:0:
64,192,172235,1,0,0:0:0:0:
320,192,172235,128,0,172561:0:0:0:0:
192,192,172561,128,0,172725:0:0:0:0:
320,192,172725,1,0,0:0:0:0:
448,192,172725,128,0,173051:0:0:0:0:
64,192,172725,1,0,0:0:0:0:
320,192,173051,128,0,173377:0:0:0:0:
64,192,173377,1,0,0:0:0:0:
448,192,173377,1,0,0:0:0:0:
192,192,173377,128,0,174029:0:0:0:0:
64,192,174029,1,0,0:0:0:0:
448,192,174029,128,0,174518:0:0:0:0:
320,192,174029,1,0,0:0:0:0:
64,192,174518,1,0,0:0:0:0:
64,192,174681,1,0,0:0:0:0:
448,192,174681,1,0,0:0:0:0:
192,192,174681,128,0,176148:0:0:0:0:
320,192,174681,128,0,176148:0:0:0:0:
448,192,176475,1,0,0:0:0:0:
320,192,176475,1,0,0:0:0:0:
192,192,176556,1,0,0:0:0:0:
64,192,176638,1,0,0:0:0:0:
320,192,176638,1,0,0:0:0:0:
448,192,176638,1,0,0:0:0:0:
192,192,176719,1,0,0:0:0:0:
320,192,176801,1,0,0:0:0:0:
64,192,176801,1,0,0:0:0:0:
192,192,176882,1,0,0:0:0:0:
64,192,176964,1,0,0:0:0:0:
448,192,176964,1,0,0:0:0:0:
320,192,177045,1,0,0:0:0:0:
448,192,177127,1,0,0:0:0:0:
64,192,177127,1,0,0:0:0:0:
192,192,177208,1,0,0:0:0:0:
448,192,177290,128,0,178757:0:0:0:0:
320,192,177290,128,0,178757:0:0:0:0:
64,192,177290,128,0,178757:0:0:0:0:
448,192,179083,128,0,179409:0:0:0:0:
320,192,179083,1,0,0:0:0:0:
64,192,179083,1,0,0:0:0:0:
64,192,179409,128,0,179898:0:0:0:0:
192,192,179409,1,0,0:0:0:0:
320,192,179409,1,0,0:0:0:0:
192,192,179898,1,0,0:0:0:0:
320,192,179898,1,0,0:0:0:0:
448,192,179898,1,0,0:0:0:0:
64,192,180061,1,0,0:0:0:0:
192,192,180143,1,0,0:0:0:0:
448,192,180225,1,0,0:0:0:0:
320,192,180225,1,0,0:0:0:0:
192,192,180306,1,0,0:0:0:0:
64,192,180306,1,0,0:0:0:0:
320,192,180388,1,0,0:0:0:0:
448,192,180388,1,0,0:0:0:0:
64,192,180469,1,0,0:0:0:0:
192,192,180551,1,0,0:0:0:0:
320,192,180551,1,0,0:0:0:0:
448,192,180632,1,0,0:0:0:0:
320,192,180714,1,0,0:0:0:0:
64,192,180714,1,0,0:0:0:0:
192,192,180795,1,0,0:0:0:0:
320,192,180877,1,0,0:0:0:0:
448,192,180877,1,0,0:0:0:0:
192,192,180958,1,0,0:0:0:0:
64,192,180958,1,0,0:0:0:0:
320,192,181040,1,0,0:0:0:0:
448,192,181040,1,0,0:0:0:0:
192,192,181121,1,0,0:0:0:0:
64,192,181121,1,0,0:0:0:0:
448,192,181203,1,0,0:0:0:0:
320,192,181203,1,0,0:0:0:0:
192,192,181284,1,0,0:0:0:0:
64,192,181366,1,0,0:0:0:0:
448,192,181447,1,0,0:0:0:0:
320,192,181529,1,0,0:0:0:0:
192,192,181529,1,0,0:0:0:0:
64,192,181610,1,0,0:0:0:0:
448,192,181610,1,0,0:0:0:0:
320,192,181692,1,0,0:0:0:0:
192,192,181692,1,0,0:0:0:0:
64,192,181773,1,0,0:0:0:0:
448,192,181855,1,0,0:0:0:0:
320,192,181855,1,0,0:0:0:0:
192,192,181936,1,0,0:0:0:0:
64,192,182018,1,0,0:0:0:0:
448,192,182018,1,0,0:0:0:0:
320,192,182100,1,0,0:0:0:0:
192,192,182181,1,0,0:0:0:0:
64,192,182181,1,0,0:0:0:0:
448,192,182263,1,0,0:0:0:0:
320,192,182344,1,0,0:0:0:0:
192,192,182344,1,0,0:0:0:0:
64,192,182426,1,0,0:0:0:0:
320,192,182507,1,0,0:0:0:0:
448,192,182507,1,0,0:0:0:0:
192,192,182589,1,0,0:0:0:0:
64,192,182670,1,0,0:0:0:0:
448,192,182670,1,0,0:0:0:0:
320,192,182752,1,0,0:0:0:0:
192,192,182833,1,0,0:0:0:0:
448,192,182915,1,0,0:0:0:0:
64,192,182996,1,0,0:0:0:0:
320,192,182996,1,0,0:0:0:0:
192,192,183078,1,0,0:0:0:0:
448,192,183078,1,0,0:0:0:0:
64,192,183159,1,0,0:0:0:0:
320,192,183159,1,0,0:0:0:0:
192,192,183241,1,0,0:0:0:0:
448,192,183322,1,0,0:0:0:0:
320,192,183322,1,0,0:0:0:0:
64,192,183404,1,0,0:0:0:0:
192,192,183485,1,0,0:0:0:0:
320,192,183485,1,0,0:0:0:0:
448,192,183567,1,0,0:0:0:0:
64,192,183567,1,0,0:0:0:0:
192,192,183648,1,0,0:0:0:0:
320,192,183648,1,0,0:0:0:0:
64,192,183730,1,0,0:0:0:0:
448,192,183730,1,0,0:0:0:0:
320,192,183811,1,0,0:0:0:0:
192,192,183811,1,0,0:0:0:0:
448,192,183893,1,0,0:0:0:0:
64,192,183975,1,0,0:0:0:0:
192,192,184056,1,0,0:0:0:0:
320,192,184138,1,0,0:0:0:0:
448,192,184138,1,0,0:0:0:0:
64,192,184219,1,0,0:0:0:0:
192,192,184219,1,0,0:0:0:0:
320,192,184301,1,0,0:0:0:0:
448,192,184301,1,0,0:0:0:0:
192,192,184382,1,0,0:0:0:0:
64,192,184464,1,0,0:0:0:0:
448,192,184464,1,0,0:0:0:0:
320,192,184545,1,0,0:0:0:0:
192,192,184627,1,0,0:0:0:0:
64,192,184627,1,0,0:0:0:0:
448,192,184708,1,0,0:0:0:0:
320,192,184790,1,0,0:0:0:0:
64,192,184790,1,0,0:0:0:0:
192,192,184871,1,0,0:0:0:0:
320,192,184953,1,0,0:0:0:0:
448,192,184953,1,0,0:0:0:0:
64,192,185034,1,0,0:0:0:0:
192,192,185116,1,0,0:0:0:0:
320,192,185116,1,0,0:0:0:0:
448,192,185197,1,0,0:0:0:0:
320,192,185279,1,0,0:0:0:0:
64,192,185279,1,0,0:0:0:0:
192,192,185360,1,0,0:0:0:0:
448,192,185442,1,0,0:0:0:0:
320,192,185523,1,0,0:0:0:0:
192,192,185605,1,0,0:0:0:0:
64,192,185605,1,0,0:0:0:0:
320,192,185686,1,0,0:0:0:0:
448,192,185686,1,0,0:0:0:0:
192,192,185768,1,0,0:0:0:0:
64,192,185768,1,0,0:0:0:0:
448,192,185850,1,0,0:0:0:0:
320,192,185931,1,0,0:0:0:0:
64,192,185931,1,0,0:0:0:0:
192,192,186013,1,0,0:0:0:0:
320,192,186094,1,0,0:0:0:0:
448,192,186094,1,0,0:0:0:0:
192,192,186176,1,0,0:0:0:0:
64,192,186176,1,0,0:0:0:0:
320,192,186257,1,0,0:0:0:0:
448,192,186257,1,0,0:0:0:0:
192,192,186339,1,0,0:0:0:0:
64,192,186339,1,0,0:0:0:0:
320,192,186420,1,0,0:0:0:0:
448,192,186420,1,0,0:0:0:0:
192,192,186502,1,0,0:0:0:0:
64,192,186583,1,0,0:0:0:0:
320,192,186665,1,0,0:0:0:0:
448,192,186746,1,0,0:0:0:0:
64,192,186746,1,0,0:0:0:0:
192,192,186828,1,0,0:0:0:0:
320,192,186828,1,0,0:0:0:0:
448,192,186909,1,0,0:0:0:0:
64,192,186909,1,0,0:0:0:0:
192,192,186991,1,0,0:0:0:0:
64,192,187072,1,0,0:0:0:0:
320,192,187072,1,0,0:0:0:0:
448,192,187154,1,0,0:0:0:0:
64,192,187235,1,0,0:0:0:0:
192,192,187235,1,0,0:0:0:0:
320,192,187317,1,0,0:0:0:0:
448,192,187398,1,0,0:0:0:0:
64,192,187398,1,0,0:0:0:0:
192,192,187480,1,0,0:0:0:0:
320,192,187561,1,0,0:0:0:0:
448,192,187561,1,0,0:0:0:0:
192,192,187643,1,0,0:0:0:0:
64,192,187725,1,0,0:0:0:0:
320,192,187725,1,0,0:0:0:0:
448,192,187806,1,0,0:0:0:0:
192,192,187888,1,0,0:0:0:0:
64,192,187888,1,0,0:0:0:0:
320,192,187969,1,0,0:0:0:0:
448,192,188051,1,0,0:0:0:0:
192,192,188132,1,0,0:0:0:0:
320,192,188214,1,0,0:0:0:0:
64,192,188214,1,0,0:0:0:0:
448,192,188295,1,0,0:0:0:0:
192,192,188295,1,0,0:0:0:0:
320,192,188377,1,0,0:0:0:0:
64,192,188377,1,0,0:0:0:0:
192,192,188458,1,0,0:0:0:0:
64,192,188540,1,0,0:0:0:0:
448,192,188540,1,0,0:0:0:0:
320,192,188621,1,0,0:0:0:0:
64,192,188703,1,0,0:0:0:0:
192,192,188703,1,0,0:0:0:0:
320,192,188784,1,0,0:0:0:0:
64,192,188866,1,0,0:0:0:0:
448,192,188866,1,0,0:0:0:0:
320,192,188947,1,0,0:0:0:0:
64,192,189029,1,0,0:0:0:0:
192,192,189029,1,0,0:0:0:0:
448,192,189029,1,0,0:0:0:0:
320,192,189355,1,0,0:0:0:0:
64,192,189518,1,0,0:0:0:0:
448,192,189518,1,0,0:0:0:0:
192,192,189518,1,0,0:0:0:0:
64,192,189681,1,0,0:0:0:0:
448,192,189844,1,0,0:0:0:0:
192,192,189844,1,0,0:0:0:0:
320,192,189844,1,0,0:0:0:0:
448,192,190007,1,0,0:0:0:0:
192,192,190007,1,0,0:0:0:0:
64,192,190007,1,0,0:0:0:0:
320,192,190170,1,0,0:0:0:0:
192,192,190252,1,0,0:0:0:0:
320,192,190333,1,0,0:0:0:0:
448,192,190333,1,0,0:0:0:0:
64,192,190333,1,0,0:0:0:0:
192,192,190496,1,0,0:0:0:0:
320,192,190578,1,0,0:0:0:0:
448,192,190659,1,0,0:0:0:0:
64,192,190659,1,0,0:0:0:0:
192,192,190741,1,0,0:0:0:0:
320,192,190741,1,0,0:0:0:0:
448,192,190822,1,0,0:0:0:0:
64,192,190822,1,0,0:0:0:0:
192,192,190904,1,0,0:0:0:0:
320,192,190985,1,0,0:0:0:0:
448,192,190985,1,0,0:0:0:0:
192,192,191067,1,0,0:0:0:0:
64,192,191148,1,0,0:0:0:0:
320,192,191148,1,0,0:0:0:0:
448,192,191230,1,0,0:0:0:0:
192,192,191311,1,0,0:0:0:0:
64,192,191311,1,0,0:0:0:0:
448,192,191393,1,0,0:0:0:0:
320,192,191393,1,0,0:0:0:0:
192,192,191475,1,0,0:0:0:0:
64,192,191475,1,0,0:0:0:0:
448,192,191556,1,0,0:0:0:0:
320,192,191556,1,0,0:0:0:0:
64,192,191638,1,0,0:0:0:0:
192,192,191638,1,0,0:0:0:0:
448,192,191719,1,0,0:0:0:0:
320,192,191801,1,0,0:0:0:0:
192,192,191882,1,0,0:0:0:0:
64,192,191964,1,0,0:0:0:0:
320,192,191964,1,0,0:0:0:0:
448,192,192045,1,0,0:0:0:0:
192,192,192045,1,0,0:0:0:0:
320,192,192127,1,0,0:0:0:0:
64,192,192127,1,0,0:0:0:0:
448,192,192208,1,0,0:0:0:0:
320,192,192290,1,0,0:0:0:0:
192,192,192290,1,0,0:0:0:0:
64,192,192371,1,0,0:0:0:0:
320,192,192453,1,0,0:0:0:0:
448,192,192453,1,0,0:0:0:0:
64,192,192534,1,0,0:0:0:0:
192,192,192616,1,0,0:0:0:0:
320,192,192616,1,0,0:0:0:0:
448,192,192697,1,0,0:0:0:0:
192,192,192779,1,0,0:0:0:0:
64,192,192779,1,0,0:0:0:0:
448,192,192860,1,0,0:0:0:0:
320,192,192942,1,0,0:0:0:0:
192,192,192942,1,0,0:0:0:0:
64,192,193023,1,0,0:0:0:0:
192,192,193105,1,0,0:0:0:0:
448,192,193105,1,0,0:0:0:0:
320,192,193186,1,0,0:0:0:0:
192,192,193268,1,0,0:0:0:0:
64,192,193350,1,0,0:0:0:0:
448,192,193431,1,0,0:0:0:0:
320,192,193431,1,0,0:0:0:0:
192,192,193513,1,0,0:0:0:0:
64,192,193513,1,0,0:0:0:0:
320,192,193594,1,0,0:0:0:0:
448,192,193594,1,0,0:0:0:0:
192,192,193676,1,0,0:0:0:0:
64,192,193757,1,0,0:0:0:0:
448,192,193757,1,0,0:0:0:0:
192,192,193839,1,0,0:0:0:0:
320,192,193920,1,0,0:0:0:0:
64,192,193920,1,0,0:0:0:0:
192,192,194002,1,0,0:0:0:0:
448,192,194002,1,0,0:0:0:0:
320,192,194083,1,0,0:0:0:0:
64,192,194083,1,0,0:0:0:0:
192,192,194165,1,0,0:0:0:0:
448,192,194165,1,0,0:0:0:0:
320,192,194246,1,0,0:0:0:0:
64,192,194246,1,0,0:0:0:0:
448,192,194328,1,0,0:0:0:0:
192,192,194409,1,0,0:0:0:0:
64,192,194491,1,0,0:0:0:0:
448,192,194572,1,0,0:0:0:0:
320,192,194572,1,0,0:0:0:0:
192,192,194654,1,0,0:0:0:0:
64,192,194654,1,0,0:0:0:0:
448,192,194735,1,0,0:0:0:0:
320,192,194735,1,0,0:0:0:0:
192,192,194817,1,0,0:0:0:0:
64,192,194898,1,0,0:0:0:0:
320,192,194898,1,0,0:0:0:0:
448,192,194980,1,0,0:0:0:0:
192,192,195061,1,0,0:0:0:0:
64,192,195061,1,0,0:0:0:0:
320,192,195143,1,0,0:0:0:0:
448,192,195225,1,0,0:0:0:0:
192,192,195225,1,0,0:0:0:0:
64,192,195306,1,0,0:0:0:0:
192,192,195388,1,0,0:0:0:0:
320,192,195388,1,0,0:0:0:0:
448,192,195469,1,0,0:0:0:0:
192,192,195551,1,0,0:0:0:0:
64,192,195551,1,0,0:0:0:0:
320,192,195632,1,0,0:0:0:0:
448,192,195714,1,0,0:0:0:0:
64,192,195714,1,0,0:0:0:0:
192,192,195795,1,0,0:0:0:0:
448,192,195877,1,0,0:0:0:0:
64,192,195958,1,0,0:0:0:0:
320,192,196040,1,0,0:0:0:0:
192,192,196040,1,0,0:0:0:0:
64,192,196121,1,0,0:0:0:0:
448,192,196121,1,0,0:0:0:0:
320,192,196203,1,0,0:0:0:0:
192,192,196203,1,0,0:0:0:0:
448,192,196284,1,0,0:0:0:0:
192,192,196366,1,0,0:0:0:0:
64,192,196366,1,0,0:0:0:0:
320,192,196447,1,0,0:0:0:0:
448,192,196529,1,0,0:0:0:0:
64,192,196529,1,0,0:0:0:0:
192,192,196610,1,0,0:0:0:0:
320,192,196610,1,0,0:0:0:0:
64,192,196692,1,0,0:0:0:0:
448,192,196692,1,0,0:0:0:0:
320,192,196773,1,0,0:0:0:0:
192,192,196773,1,0,0:0:0:0:
64,192,196855,1,0,0:0:0:0:
448,192,196855,1,0,0:0:0:0:
192,192,196936,1,0,0:0:0:0:
448,192,197018,1,0,0:0:0:0:
320,192,197100,1,0,0:0:0:0:
192,192,197181,1,0,0:0:0:0:
64,192,197181,1,0,0:0:0:0:
320,192,197263,1,0,0:0:0:0:
448,192,197263,1,0,0:0:0:0:
192,192,197344,1,0,0:0:0:0:
64,192,197344,1,0,0:0:0:0:
448,192,197426,1,0,0:0:0:0:
320,192,197507,1,0,0:0:0:0:
192,192,197507,1,0,0:0:0:0:
64,192,197589,1,0,0:0:0:0:
448,192,197670,1,0,0:0:0:0:
320,192,197670,1,0,0:0:0:0:
192,192,197752,1,0,0:0:0:0:
64,192,197833,1,0,0:0:0:0:
448,192,197833,1,0,0:0:0:0:
192,192,197915,1,0,0:0:0:0:
320,192,197996,1,0,0:0:0:0:
448,192,197996,1,0,0:0:0:0:
64,192,198078,1,0,0:0:0:0:
192,192,198159,1,0,0:0:0:0:
448,192,198159,1,0,0:0:0:0:
320,192,198241,1,0,0:0:0:0:
192,192,198322,1,0,0:0:0:0:
64,192,198322,1,0,0:0:0:0:
448,192,198404,1,0,0:0:0:0:
320,192,198485,1,0,0:0:0:0:
64,192,198567,1,0,0:0:0:0:
192,192,198648,1,0,0:0:0:0:
448,192,198648,1,0,0:0:0:0:
320,192,198730,1,0,0:0:0:0:
64,192,198730,1,0,0:0:0:0:
192,192,198811,1,0,0:0:0:0:
448,192,198811,1,0,0:0:0:0:
320,192,198893,1,0,0:0:0:0:
192,192,198975,1,0,0:0:0:0:
64,192,198975,1,0,0:0:0:0:
448,192,199056,1,0,0:0:0:0:
320,192,199138,1,0,0:0:0:0:
192,192,199138,1,0,0:0:0:0:
64,192,199219,1,0,0:0:0:0:
192,192,199301,1,0,0:0:0:0:
448,192,199301,1,0,0:0:0:0:
320,192,199382,1,0,0:0:0:0:
64,192,199464,128,0,199871:0:0:0:0:
192,192,199464,128,0,200686:0:0:0:0:
448,192,199464,128,0,200197:0:0:0:0:
64,192,199953,128,0,200686:0:0:0:0:
448,192,200279,128,0,200686:0:0:0:0:
448,192,200768,1,0,0:0:0:0:
192,192,200768,1,0,0:0:0:0:
64,192,200768,1,0,0:0:0:0:
320,192,200931,1,0,0:0:0:0:
192,192,201013,1,0,0:0:0:0:
448,192,201094,1,0,0:0:0:0:
64,192,201176,1,0,0:0:0:0:
192,192,201257,1,0,0:0:0:0:
320,192,201257,1,0,0:0:0:0:
448,192,201339,1,0,0:0:0:0:
64,192,201420,1,0,0:0:0:0:
192,192,201502,1,0,0:0:0:0:
448,192,201583,1,0,0:0:0:0:
320,192,201583,1,0,0:0:0:0:
192,192,201746,1,0,0:0:0:0:
64,192,201909,128,0,201991:0:0:0:0:
448,192,201909,1,0,0:0:0:0:
320,192,201909,1,0,0:0:0:0:
192,192,201991,128,0,202072:0:0:0:0:
320,192,202072,128,0,202154:0:0:0:0:
448,192,202154,128,0,202235:0:0:0:0:
64,192,202235,128,0,202561:0:0:0:0:
192,192,202235,1,0,0:0:0:0:
320,192,202235,1,0,0:0:0:0:
320,192,202398,1,0,0:0:0:0:
448,192,202561,1,0,0:0:0:0:
192,192,202561,1,0,0:0:0:0:
320,192,202643,1,0,0:0:0:0:
64,192,202725,1,0,0:0:0:0:
192,192,202806,1,0,0:0:0:0:
320,192,202888,1,0,0:0:0:0:
448,192,202888,1,0,0:0:0:0:
192,192,203051,1,0,0:0:0:0:
64,192,203214,1,0,0:0:0:0:
448,192,203214,1,0,0:0:0:0:
320,192,203295,1,0,0:0:0:0:
192,192,203377,1,0,0:0:0:0:
320,192,203458,1,0,0:0:0:0:
448,192,203540,1,0,0:0:0:0:
64,192,203540,1,0,0:0:0:0:
192,192,203540,1,0,0:0:0:0:
320,192,203703,1,0,0:0:0:0:
64,192,203866,1,0,0:0:0:0:
448,192,203866,1,0,0:0:0:0:
192,192,203947,1,0,0:0:0:0:
448,192,204029,1,0,0:0:0:0:
320,192,204110,1,0,0:0:0:0:
192,192,204192,1,0,0:0:0:0:
64,192,204192,1,0,0:0:0:0:
320,192,204355,1,0,0:0:0:0:
448,192,204518,128,0,204600:0:0:0:0:
192,192,204518,1,0,0:0:0:0:
64,192,204518,1,0,0:0:0:0:
320,192,204600,128,0,204681:0:0:0:0:
192,192,204681,128,0,204763:0:0:0:0:
64,192,204763,128,0,204844:0:0:0:0:
448,192,204844,128,0,205170:0:0:0:0:
320,192,204844,1,0,0:0:0:0:
192,192,204844,1,0,0:0:0:0:
192,192,205007,1,0,0:0:0:0:
64,192,205170,1,0,0:0:0:0:
320,192,205170,1,0,0:0:0:0:
192,192,205252,1,0,0:0:0:0:
448,192,205333,1,0,0:0:0:0:
320,192,205415,1,0,0:0:0:0:
64,192,205496,1,0,0:0:0:0:
192,192,205496,1,0,0:0:0:0:
448,192,205659,1,0,0:0:0:0:
64,192,205822,1,0,0:0:0:0:
320,192,205822,1,0,0:0:0:0:
192,192,205904,1,0,0:0:0:0:
448,192,205985,1,0,0:0:0:0:
320,192,206067,1,0,0:0:0:0:
64,192,206148,1,0,0:0:0:0:
192,192,206148,1,0,0:0:0:0:
448,192,206148,1,0,0:0:0:0:
320,192,206311,1,0,0:0:0:0:
192,192,206475,1,0,0:0:0:0:
448,192,206475,1,0,0:0:0:0:
64,192,206556,1,0,0:0:0:0:
320,192,206638,1,0,0:0:0:0:
448,192,206719,1,0,0:0:0:0:
64,192,206801,1,0,0:0:0:0:
192,192,206801,1,0,0:0:0:0:
320,192,206964,1,0,0:0:0:0:
448,192,207127,1,0,0:0:0:0:
192,192,207127,1,0,0:0:0:0:
320,192,207208,1,0,0:0:0:0:
64,192,207290,1,0,0:0:0:0:
320,192,207371,1,0,0:0:0:0:
192,192,207453,128,0,207779:0:0:0:0:
448,192,207453,1,0,0:0:0:0:
64,192,207453,1,0,0:0:0:0:
448,192,207616,1,0,0:0:0:0:
64,192,207779,1,0,0:0:0:0:
320,192,207779,1,0,0:0:0:0:
448,192,207860,1,0,0:0:0:0:
192,192,207942,1,0,0:0:0:0:
320,192,208023,1,0,0:0:0:0:
64,192,208105,1,0,0:0:0:0:
448,192,208105,1,0,0:0:0:0:
192,192,208268,1,0,0:0:0:0:
448,192,208431,1,0,0:0:0:0:
320,192,208431,1,0,0:0:0:0:
192,192,208513,1,0,0:0:0:0:
320,192,208594,1,0,0:0:0:0:
192,192,208676,1,0,0:0:0:0:
320,192,208757,1,0,0:0:0:0:
64,192,208757,1,0,0:0:0:0:
448,192,208757,1,0,0:0:0:0:
64,192,208920,1,0,0:0:0:0:
448,192,208920,1,0,0:0:0:0:
192,192,208920,1,0,0:0:0:0:
448,192,209083,1,0,0:0:0:0:
64,192,209083,1,0,0:0:0:0:
320,192,209246,1,0,0:0:0:0:
448,192,209246,1,0,0:0:0:0:
64,192,209246,1,0,0:0:0:0:
192,192,209246,1,0,0:0:0:0:
192,192,209572,1,0,0:0:0:0:
64,192,209572,1,0,0:0:0:0:
448,192,209572,1,0,0:0:0:0:
64,192,209898,1,0,0:0:0:0:
320,192,209898,1,0,0:0:0:0:
448,192,209898,1,0,0:0:0:0:
192,192,210225,1,0,0:0:0:0:
320,192,210225,1,0,0:0:0:0:
192,192,210388,1,0,0:0:0:0:
64,192,210388,1,0,0:0:0:0:
192,192,210551,1,0,0:0:0:0:
320,192,210551,1,0,0:0:0:0:
448,192,210551,1,0,0:0:0:0:
64,192,210551,1,0,0:0:0:0:
448,192,210714,1,0,0:0:0:0:
320,192,210714,1,0,0:0:0:0:
192,192,210877,1,0,0:0:0:0:
320,192,210877,1,0,0:0:0:0:
192,192,211040,1,0,0:0:0:0:
448,192,211040,1,0,0:0:0:0:
64,192,211040,1,0,0:0:0:0:
64,192,211203,1,0,0:0:0:0:
320,192,211203,1,0,0:0:0:0:
448,192,211203,1,0,0:0:0:0:
192,192,211366,1,0,0:0:0:0:
448,192,211447,1,0,0:0:0:0:
64,192,211529,1,0,0:0:0:0:
320,192,211610,1,0,0:0:0:0:
192,192,211692,1,0,0:0:0:0:
448,192,211692,1,0,0:0:0:0:
64,192,211773,1,0,0:0:0:0:
192,192,211855,1,0,0:0:0:0:
320,192,211936,1,0,0:0:0:0:
64,192,212018,1,0,0:0:0:0:
448,192,212018,1,0,0:0:0:0:
192,192,212018,1,0,0:0:0:0:
320,192,212181,1,0,0:0:0:0:
64,192,212344,1,0,0:0:0:0:
192,192,212344,1,0,0:0:0:0:
320,192,212426,1,0,0:0:0:0:
448,192,212507,1,0,0:0:0:0:
64,192,212589,1,0,0:0:0:0:
320,192,212670,1,0,0:0:0:0:
448,192,212670,1,0,0:0:0:0:
192,192,212670,1,0,0:0:0:0:
64,192,212833,1,0,0:0:0:0:
192,192,212996,1,0,0:0:0:0:
448,192,212996,1,0,0:0:0:0:
320,192,213078,1,0,0:0:0:0:
448,192,213159,1,0,0:0:0:0:
192,192,213241,1,0,0:0:0:0:
64,192,213322,1,0,0:0:0:0:
448,192,213322,1,0,0:0:0:0:
320,192,213322,1,0,0:0:0:0:
192,192,213485,1,0,0:0:0:0:
448,192,213648,1,0,0:0:0:0:
64,192,213648,1,0,0:0:0:0:
320,192,213730,1,0,0:0:0:0:
192,192,213811,1,0,0:0:0:0:
320,192,213893,1,0,0:0:0:0:
192,192,213975,1,0,0:0:0:0:
448,192,213975,1,0,0:0:0:0:
64,192,213975,1,0,0:0:0:0:
320,192,214138,1,0,0:0:0:0:
64,192,214301,1,0,0:0:0:0:
192,192,214301,1,0,0:0:0:0:
448,192,214382,1,0,0:0:0:0:
320,192,214464,1,0,0:0:0:0:
192,192,214545,1,0,0:0:0:0:
448,192,214627,1,0,0:0:0:0:
64,192,214627,1,0,0:0:0:0:
320,192,214790,1,0,0:0:0:0:
448,192,214953,1,0,0:0:0:0:
64,192,214953,1,0,0:0:0:0:
192,192,215034,1,0,0:0:0:0:
320,192,215116,1,0,0:0:0:0:
64,192,215197,1,0,0:0:0:0:
448,192,215279,1,0,0:0:0:0:
192,192,215279,1,0,0:0:0:0:
320,192,215279,1,0,0:0:0:0:
64,192,215442,1,0,0:0:0:0:
320,192,215605,1,0,0:0:0:0:
448,192,215605,1,0,0:0:0:0:
192,192,215686,1,0,0:0:0:0:
448,192,215768,1,0,0:0:0:0:
64,192,215850,1,0,0:0:0:0:
320,192,215931,1,0,0:0:0:0:
192,192,215931,1,0,0:0:0:0:
64,192,216094,1,0,0:0:0:0:
448,192,216257,1,0,0:0:0:0:
192,192,216257,1,0,0:0:0:0:
320,192,216339,1,0,0:0:0:0:
448,192,216420,1,0,0:0:0:0:
192,192,216502,1,0,0:0:0:0:
320,192,216583,1,0,0:0:0:0:
448,192,216583,1,0,0:0:0:0:
64,192,216583,1,0,0:0:0:0:
192,192,216746,1,0,0:0:0:0:
320,192,216909,1,0,0:0:0:0:
448,192,216909,1,0,0:0:0:0:
192,192,217072,1,0,0:0:0:0:
448,192,217235,1,0,0:0:0:0:
192,192,217398,1,0,0:0:0:0:
448,192,217561,1,0,0:0:0:0:
320,192,217561,1,0,0:0:0:0:
448,192,217725,1,0,0:0:0:0:
64,192,217725,1,0,0:0:0:0:
192,192,217725,1,0,0:0:0:0:
320,192,218051,1,0,0:0:0:0:
64,192,218214,1,0,0:0:0:0:
192,192,218214,1,0,0:0:0:0:
320,192,218377,1,0,0:0:0:0:
64,192,218540,1,0,0:0:0:0:
192,192,218540,1,0,0:0:0:0:
192,192,218703,1,0,0:0:0:0:
64,192,218703,1,0,0:0:0:0:
448,192,218866,1,0,0:0:0:0:
320,192,218866,1,0,0:0:0:0:
320,192,219029,1,0,0:0:0:0:
448,192,219029,1,0,0:0:0:0:
64,192,219192,1,0,0:0:0:0:
192,192,219192,1,0,0:0:0:0:
448,192,219192,1,0,0:0:0:0:
320,192,219355,1,0,0:0:0:0:
448,192,219518,1,0,0:0:0:0:
64,192,219518,1,0,0:0:0:0:
320,192,219681,1,0,0:0:0:0:
192,192,219844,1,0,0:0:0:0:
320,192,220007,1,0,0:0:0:0:
64,192,220170,1,0,0:0:0:0:
192,192,220170,1,0,0:0:0:0:
64,192,220333,1,0,0:0:0:0:
320,192,220333,1,0,0:0:0:0:
448,192,220333,1,0,0:0:0:0:
192,192,220659,1,0,0:0:0:0:
320,192,220822,1,0,0:0:0:0:
448,192,220822,1,0,0:0:0:0:
192,192,220985,1,0,0:0:0:0:
64,192,220985,1,0,0:0:0:0:
448,192,221067,1,0,0:0:0:0:
320,192,221067,1,0,0:0:0:0:
64,192,221148,1,0,0:0:0:0:
192,192,221148,1,0,0:0:0:0:
448,192,221230,1,0,0:0:0:0:
320,192,221230,1,0,0:0:0:0:
64,192,221311,1,0,0:0:0:0:
192,192,221311,1,0,0:0:0:0:
64,192,221475,1,0,0:0:0:0:
448,192,221475,1,0,0:0:0:0:
64,192,221638,1,0,0:0:0:0:
448,192,221638,1,0,0:0:0:0:
448,192,221801,128,0,222127:0:0:0:0:
320,192,221801,1,0,0:0:0:0:
192,192,221801,1,0,0:0:0:0:
64,192,222127,128,0,222290:0:0:0:0:
192,192,222290,128,0,222616:0:0:0:0:
448,192,222290,1,0,0:0:0:0:
320,192,222290,1,0,0:0:0:0:
448,192,222616,128,0,222942:0:0:0:0:
320,192,222942,128,0,223594:0:0:0:0:
64,192,222942,1,0,0:0:0:0:
192,192,222942,1,0,0:0:0:0:
64,192,223594,1,0,0:0:0:0:
448,192,223594,128,0,224083:0:0:0:0:
192,192,223594,1,0,0:0:0:0:
64,192,224083,1,0,0:0:0:0:
192,192,224246,128,0,225714:0:0:0:0:
320,192,224246,128,0,225714:0:0:0:0:
64,192,224246,1,0,0:0:0:0:
448,192,224246,1,0,0:0:0:0:
64,192,226040,1,0,0:0:0:0:
448,192,226040,1,0,0:0:0:0:
192,192,226121,1,0,0:0:0:0:
448,192,226203,1,0,0:0:0:0:
320,192,226203,1,0,0:0:0:0:
64,192,226203,1,0,0:0:0:0:
192,192,226284,1,0,0:0:0:0:
320,192,226366,1,0,0:0:0:0:
448,192,226366,1,0,0:0:0:0:
64,192,226447,1,0,0:0:0:0:
192,192,226529,1,0,0:0:0:0:
320,192,226529,1,0,0:0:0:0:
448,192,226610,1,0,0:0:0:0:
192,192,226692,1,0,0:0:0:0:
64,192,226692,1,0,0:0:0:0:
320,192,226773,1,0,0:0:0:0:
448,192,226855,128,0,228322:0:0:0:0:
192,192,226855,128,0,228322:0:0:0:0:
64,192,226855,128,0,228322:0:0:0:0:
64,192,228648,128,0,228975:0:0:0:0:
192,192,228648,1,0,0:0:0:0:
320,192,228648,1,0,0:0:0:0:
448,192,228975,128,0,229464:0:0:0:0:
320,192,228975,1,0,0:0:0:0:
192,192,228975,1,0,0:0:0:0:
320,192,229464,1,0,0:0:0:0:
192,192,229464,1,0,0:0:0:0:
64,192,229464,1,0,0:0:0:0:
448,192,229627,1,0,0:0:0:0:
192,192,229708,1,0,0:0:0:0:
320,192,229790,1,0,0:0:0:0:
64,192,229790,1,0,0:0:0:0:
448,192,229871,1,0,0:0:0:0:
192,192,229871,1,0,0:0:0:0:
64,192,229953,1,0,0:0:0:0:
320,192,229953,1,0,0:0:0:0:
448,192,230034,1,0,0:0:0:0:
192,192,230116,1,0,0:0:0:0:
64,192,230116,1,0,0:0:0:0:
320,192,230197,1,0,0:0:0:0:
448,192,230279,1,0,0:0:0:0:
64,192,230279,1,0,0:0:0:0:
192,192,230360,1,0,0:0:0:0:
320,192,230442,1,0,0:0:0:0:
448,192,230442,1,0,0:0:0:0:
192,192,230523,1,0,0:0:0:0:
64,192,230523,1,0,0:0:0:0:
320,192,230605,1,0,0:0:0:0:
448,192,230605,1,0,0:0:0:0:
192,192,230686,1,0,0:0:0:0:
64,192,230686,1,0,0:0:0:0:
448,192,230768,1,0,0:0:0:0:
320,192,230768,1,0,0:0:0:0:
192,192,230850,1,0,0:0:0:0:
64,192,230931,1,0,0:0:0:0:
320,192,231013,1,0,0:0:0:0:
192,192,231094,1,0,0:0:0:0:
64,192,231094,1,0,0:0:0:0:
448,192,231176,1,0,0:0:0:0:
320,192,231176,1,0,0:0:0:0:
64,192,231257,1,0,0:0:0:0:
192,192,231257,1,0,0:0:0:0:
448,192,231339,1,0,0:0:0:0:
64,192,231420,1,0,0:0:0:0:
320,192,231420,1,0,0:0:0:0:
192,192,231502,1,0,0:0:0:0:
64,192,231583,1,0,0:0:0:0:
448,192,231583,1,0,0:0:0:0:
320,192,231665,1,0,0:0:0:0:
192,192,231746,1,0,0:0:0:0:
64,192,231746,1,0,0:0:0:0:
320,192,231828,1,0,0:0:0:0:
448,192,231909,1,0,0:0:0:0:
192,192,231909,1,0,0:0:0:0:
64,192,231991,1,0,0:0:0:0:
192,192,232072,1,0,0:0:0:0:
320,192,232072,1,0,0:0:0:0:
448,192,232154,1,0,0:0:0:0:
64,192,232235,1,0,0:0:0:0:
320,192,232235,1,0,0:0:0:0:
192,192,232317,1,0,0:0:0:0:
64,192,232398,1,0,0:0:0:0:
320,192,232480,1,0,0:0:0:0:
64,192,232561,1,0,0:0:0:0:
448,192,232561,1,0,0:0:0:0:
192,192,232643,1,0,0:0:0:0:
320,192,232643,1,0,0:0:0:0:
64,192,232725,1,0,0:0:0:0:
448,192,232725,1,0,0:0:0:0:
192,192,232806,1,0,0:0:0:0:
448,192,232888,1,0,0:0:0:0:
320,192,232888,1,0,0:0:0:0:
64,192,232969,1,0,0:0:0:0:
192,192,233051,1,0,0:0:0:0:
448,192,233051,1,0,0:0:0:0:
320,192,233132,1,0,0:0:0:0:
64,192,233132,1,0,0:0:0:0:
192,192,233214,1,0,0:0:0:0:
448,192,233214,1,0,0:0:0:0:
64,192,233295,1,0,0:0:0:0:
320,192,233295,1,0,0:0:0:0:
448,192,233377,1,0,0:0:0:0:
192,192,233377,1,0,0:0:0:0:
320,192,233458,1,0,0:0:0:0:
192,192,233540,1,0,0:0:0:0:
64,192,233621,1,0,0:0:0:0:
320,192,233703,1,0,0:0:0:0:
448,192,233703,1,0,0:0:0:0:
64,192,233784,1,0,0:0:0:0:
192,192,233784,1,0,0:0:0:0:
320,192,233866,1,0,0:0:0:0:
448,192,233866,1,0,0:0:0:0:
192,192,233947,1,0,0:0:0:0:
64,192,234029,1,0,0:0:0:0:
448,192,234029,1,0,0:0:0:0:
320,192,234110,1,0,0:0:0:0:
192,192,234192,1,0,0:0:0:0:
64,192,234192,1,0,0:0:0:0:
320,192,234273,1,0,0:0:0:0:
448,192,234355,1,0,0:0:0:0:
64,192,234355,1,0,0:0:0:0:
320,192,234436,1,0,0:0:0:0:
192,192,234518,1,0,0:0:0:0:
64,192,234518,1,0,0:0:0:0:
448,192,234600,1,0,0:0:0:0:
320,192,234600,1,0,0:0:0:0:
64,192,234681,1,0,0:0:0:0:
192,192,234681,1,0,0:0:0:0:
320,192,234763,1,0,0:0:0:0:
448,192,234763,1,0,0:0:0:0:
64,192,234844,1,0,0:0:0:0:
192,192,234844,1,0,0:0:0:0:
320,192,234926,1,0,0:0:0:0:
448,192,235007,1,0,0:0:0:0:
192,192,235089,1,0,0:0:0:0:
64,192,235170,1,0,0:0:0:0:
320,192,235170,1,0,0:0:0:0:
448,192,235252,1,0,0:0:0:0:
192,192,235252,1,0,0:0:0:0:
64,192,235333,1,0,0:0:0:0:
320,192,235333,1,0,0:0:0:0:
192,192,235415,1,0,0:0:0:0:
64,192,235496,1,0,0:0:0:0:
448,192,235496,1,0,0:0:0:0:
320,192,235578,1,0,0:0:0:0:
192,192,235659,1,0,0:0:0:0:
64,192,235659,1,0,0:0:0:0:
320,192,235741,1,0,0:0:0:0:
448,192,235741,1,0,0:0:0:0:
192,192,235822,1,0,0:0:0:0:
64,192,235822,1,0,0:0:0:0:
320,192,235904,1,0,0:0:0:0:
448,192,235904,1,0,0:0:0:0:
192,192,235985,1,0,0:0:0:0:
64,192,235985,1,0,0:0:0:0:
448,192,236067,1,0,0:0:0:0:
320,192,236148,1,0,0:0:0:0:
192,192,236230,1,0,0:0:0:0:
448,192,236311,1,0,0:0:0:0:
64,192,236311,1,0,0:0:0:0:
192,192,236393,1,0,0:0:0:0:
320,192,236393,1,0,0:0:0:0:
448,192,236475,1,0,0:0:0:0:
64,192,236475,1,0,0:0:0:0:
320,192,236556,1,0,0:0:0:0:
64,192,236638,1,0,0:0:0:0:
192,192,236638,1,0,0:0:0:0:
448,192,236719,1,0,0:0:0:0:
64,192,236801,1,0,0:0:0:0:
320,192,236801,1,0,0:0:0:0:
192,192,236882,1,0,0:0:0:0:
448,192,236964,1,0,0:0:0:0:
320,192,236964,1,0,0:0:0:0:
64,192,237045,1,0,0:0:0:0:
448,192,237127,1,0,0:0:0:0:
192,192,237127,1,0,0:0:0:0:
320,192,237208,1,0,0:0:0:0:
64,192,237290,1,0,0:0:0:0:
448,192,237290,1,0,0:0:0:0:
192,192,237371,1,0,0:0:0:0:
320,192,237453,1,0,0:0:0:0:
448,192,237453,1,0,0:0:0:0:
64,192,237534,1,0,0:0:0:0:
192,192,237616,1,0,0:0:0:0:
320,192,237697,1,0,0:0:0:0:
64,192,237779,1,0,0:0:0:0:
448,192,237779,1,0,0:0:0:0:
192,192,237860,1,0,0:0:0:0:
320,192,237860,1,0,0:0:0:0:
64,192,237942,1,0,0:0:0:0:
448,192,237942,1,0,0:0:0:0:
192,192,238023,1,0,0:0:0:0:
448,192,238105,1,0,0:0:0:0:
320,192,238105,1,0,0:0:0:0:
192,192,238186,1,0,0:0:0:0:
64,192,238268,1,0,0:0:0:0:
448,192,238268,1,0,0:0:0:0:
320,192,238350,1,0,0:0:0:0:
64,192,238431,1,0,0:0:0:0:
192,192,238431,1,0,0:0:0:0:
320,192,238513,1,0,0:0:0:0:
64,192,238594,1,0,0:0:0:0:
192,192,238594,1,0,0:0:0:0:
448,192,238594,1,0,0:0:0:0:
448,192,238920,1,0,0:0:0:0:
64,192,239083,1,0,0:0:0:0:
192,192,239083,1,0,0:0:0:0:
320,192,239083,1,0,0:0:0:0:
64,192,239246,1,0,0:0:0:0:
448,192,239409,1,0,0:0:0:0:
320,192,239409,1,0,0:0:0:0:
192,192,239409,1,0,0:0:0:0:
192,192,239572,1,0,0:0:0:0:
64,192,239572,1,0,0:0:0:0:
320,192,239572,1,0,0:0:0:0:
448,192,239735,1,0,0:0:0:0:
64,192,239817,1,0,0:0:0:0:
320,192,239898,1,0,0:0:0:0:
448,192,239898,1,0,0:0:0:0:
192,192,239898,1,0,0:0:0:0:
448,192,240061,1,0,0:0:0:0:
64,192,240143,1,0,0:0:0:0:
192,192,240225,1,0,0:0:0:0:
320,192,240225,1,0,0:0:0:0:
64,192,240306,1,0,0:0:0:0:
448,192,240306,1,0,0:0:0:0:
320,192,240388,1,0,0:0:0:0:
192,192,240388,1,0,0:0:0:0:
64,192,240469,1,0,0:0:0:0:
320,192,240551,1,0,0:0:0:0:
448,192,240551,1,0,0:0:0:0:
192,192,240632,1,0,0:0:0:0:
64,192,240714,1,0,0:0:0:0:
320,192,240714,1,0,0:0:0:0:
448,192,240795,1,0,0:0:0:0:
192,192,240877,1,0,0:0:0:0:
64,192,240877,1,0,0:0:0:0:
448,192,240958,1,0,0:0:0:0:
320,192,240958,1,0,0:0:0:0:
192,192,241040,1,0,0:0:0:0:
64,192,241040,1,0,0:0:0:0:
448,192,241121,1,0,0:0:0:0:
320,192,241121,1,0,0:0:0:0:
64,192,241203,1,0,0:0:0:0:
192,192,241203,1,0,0:0:0:0:
320,192,241284,1,0,0:0:0:0:
448,192,241366,1,0,0:0:0:0:
64,192,241447,1,0,0:0:0:0:
192,192,241529,1,0,0:0:0:0:
448,192,241529,1,0,0:0:0:0:
320,192,241610,1,0,0:0:0:0:
64,192,241610,1,0,0:0:0:0:
192,192,241692,1,0,0:0:0:0:
448,192,241692,1,0,0:0:0:0:
320,192,241773,1,0,0:0:0:0:
192,192,241855,1,0,0:0:0:0:
448,192,241855,1,0,0:0:0:0:
64,192,241936,1,0,0:0:0:0:
192,192,242018,1,0,0:0:0:0:
320,192,242018,1,0,0:0:0:0:
448,192,242100,1,0,0:0:0:0:
320,192,242181,1,0,0:0:0:0:
64,192,242181,1,0,0:0:0:0:
192,192,242263,1,0,0:0:0:0:
64,192,242344,1,0,0:0:0:0:
448,192,242344,1,0,0:0:0:0:
320,192,242426,1,0,0:0:0:0:
192,192,242507,1,0,0:0:0:0:
64,192,242507,1,0,0:0:0:0:
320,192,242589,1,0,0:0:0:0:
192,192,242670,1,0,0:0:0:0:
448,192,242670,1,0,0:0:0:0:
64,192,242752,1,0,0:0:0:0:
320,192,242833,1,0,0:0:0:0:
192,192,242915,1,0,0:0:0:0:
448,192,242996,1,0,0:0:0:0:
320,192,242996,1,0,0:0:0:0:
192,192,243078,1,0,0:0:0:0:
64,192,243078,1,0,0:0:0:0:
320,192,243159,1,0,0:0:0:0:
448,192,243159,1,0,0:0:0:0:
192,192,243241,1,0,0:0:0:0:
64,192,243322,1,0,0:0:0:0:
448,192,243322,1,0,0:0:0:0:
192,192,243404,1,0,0:0:0:0:
320,192,243485,1,0,0:0:0:0:
64,192,243485,1,0,0:0:0:0:
192,192,243567,1,0,0:0:0:0:
448,192,243567,1,0,0:0:0:0:
320,192,243648,1,0,0:0:0:0:
64,192,243648,1,0,0:0:0:0:
192,192,243730,1,0,0:0:0:0:
448,192,243730,1,0,0:0:0:0:
320,192,243811,1,0,0:0:0:0:
64,192,243811,1,0,0:0:0:0:
448,192,243893,1,0,0:0:0:0:
64,192,243975,1,0,0:0:0:0:
192,192,244056,1,0,0:0:0:0:
448,192,244138,1,0,0:0:0:0:
320,192,244138,1,0,0:0:0:0:
192,192,244219,1,0,0:0:0:0:
64,192,244219,1,0,0:0:0:0:
448,192,244301,1,0,0:0:0:0:
320,192,244301,1,0,0:0:0:0:
64,192,244382,1,0,0:0:0:0:
320,192,244464,1,0,0:0:0:0:
192,192,244464,1,0,0:0:0:0:
448,192,244545,1,0,0:0:0:0:
192,192,244627,1,0,0:0:0:0:
64,192,244627,1,0,0:0:0:0:
320,192,244708,1,0,0:0:0:0:
448,192,244790,1,0,0:0:0:0:
192,192,244790,1,0,0:0:0:0:
64,192,244871,1,0,0:0:0:0:
192,192,244953,1,0,0:0:0:0:
320,192,244953,1,0,0:0:0:0:
448,192,245034,1,0,0:0:0:0:
64,192,245034,1,0,0:0:0:0:
192,192,245116,1,0,0:0:0:0:
320,192,245116,1,0,0:0:0:0:
64,192,245197,1,0,0:0:0:0:
448,192,245197,1,0,0:0:0:0:
320,192,245279,1,0,0:0:0:0:
192,192,245279,1,0,0:0:0:0:
64,192,245360,1,0,0:0:0:0:
448,192,245442,1,0,0:0:0:0:
192,192,245523,1,0,0:0:0:0:
320,192,245605,1,0,0:0:0:0:
64,192,245605,1,0,0:0:0:0:
448,192,245686,1,0,0:0:0:0:
192,192,245686,1,0,0:0:0:0:
320,192,245768,1,0,0:0:0:0:
64,192,245768,1,0,0:0:0:0:
448,192,245850,1,0,0:0:0:0:
64,192,245931,1,0,0:0:0:0:
320,192,245931,1,0,0:0:0:0:
192,192,246013,1,0,0:0:0:0:
448,192,246094,1,0,0:0:0:0:
320,192,246094,1,0,0:0:0:0:
192,192,246176,1,0,0:0:0:0:
64,192,246176,1,0,0:0:0:0:
448,192,246257,1,0,0:0:0:0:
320,192,246257,1,0,0:0:0:0:
192,192,246339,1,0,0:0:0:0:
64,192,246339,1,0,0:0:0:0:
448,192,246420,1,0,0:0:0:0:
320,192,246420,1,0,0:0:0:0:
192,192,246502,1,0,0:0:0:0:
64,192,246583,1,0,0:0:0:0:
448,192,246665,1,0,0:0:0:0:
64,192,246746,1,0,0:0:0:0:
320,192,246746,1,0,0:0:0:0:
448,192,246828,1,0,0:0:0:0:
192,192,246828,1,0,0:0:0:0:
64,192,246909,1,0,0:0:0:0:
320,192,246909,1,0,0:0:0:0:
192,192,246991,1,0,0:0:0:0:
320,192,247072,1,0,0:0:0:0:
448,192,247072,1,0,0:0:0:0:
64,192,247154,1,0,0:0:0:0:
448,192,247235,1,0,0:0:0:0:
192,192,247235,1,0,0:0:0:0:
320,192,247317,1,0,0:0:0:0:
64,192,247398,1,0,0:0:0:0:
448,192,247398,1,0,0:0:0:0:
192,192,247480,1,0,0:0:0:0:
64,192,247561,1,0,0:0:0:0:
320,192,247561,1,0,0:0:0:0:
448,192,247643,1,0,0:0:0:0:
192,192,247725,1,0,0:0:0:0:
64,192,247725,1,0,0:0:0:0:
320,192,247806,1,0,0:0:0:0:
64,192,247888,1,0,0:0:0:0:
448,192,247888,1,0,0:0:0:0:
192,192,247969,1,0,0:0:0:0:
320,192,248051,1,0,0:0:0:0:
64,192,248132,1,0,0:0:0:0:
448,192,248214,1,0,0:0:0:0:
320,192,248214,1,0,0:0:0:0:
192,192,248295,1,0,0:0:0:0:
64,192,248295,1,0,0:0:0:0:
448,192,248377,1,0,0:0:0:0:
320,192,248377,1,0,0:0:0:0:
192,192,248458,1,0,0:0:0:0:
64,192,248540,1,0,0:0:0:0:
320,192,248540,1,0,0:0:0:0:
448,192,248621,1,0,0:0:0:0:
320,192,248703,1,0,0:0:0:0:
192,192,248703,1,0,0:0:0:0:
64,192,248784,1,0,0:0:0:0:
192,192,248866,1,0,0:0:0:0:
448,192,248866,1,0,0:0:0:0:
320,192,248947,1,0,0:0:0:0:
64,192,249029,128,0,250415:0:0:0:0:
192,192,249029,128,0,250415:0:0:0:0:
448,192,249029,128,0,250415:0:0:0:0:
320,192,250496,128,0,251801:0:0:0:0:
448,192,250496,128,0,251801:0:0:0:0:
64,192,250496,128,0,251801:0:0:0:0:
192,192,251801,1,0,0:0:0:0:
