osu file format v14

[General]
AudioFilename: audio.mp3
AudioLeadIn: 0
PreviewTime: -1
Countdown: 0
SampleSet: None
StackLeniency: 0.8
Mode: 0
LetterboxInBreaks: 1
EpilepsyWarning: 1
WidescreenStoryboard: 1

[Editor]
Bookmarks: 10760
DistanceSpacing: 0.7
BeatDivisor: 4
GridSize: 4
TimelineZoom: 1

[Metadata]
Title:Fighting Gold [TV size]
TitleUnicode:Fighting Gold [TV size]
Artist:Coda
ArtistUnicode:Coda
Creator:ILAY1M_IG
Version:Easy
Source:
Tags:
BeatmapID:1804376
BeatmapSetID:862570

[Difficulty]
HPDrainRate:3
CircleSize:2.9
OverallDifficulty:2
ApproachRate:3.7
SliderMultiplier:1.7
SliderTickRate:1

[Events]
//Background and Video events
Video,0,"JoJos Bizarre Adventure Opening 8.mp4"
0,0,"bg.jpg",0,0
//Break Periods
//Storyboard Layer 0 (Background)
//Storyboard Layer 1 (Fail)
//Storyboard Layer 2 (Pass)
//Storyboard Layer 3 (Foreground)
//Storyboard Sound Samples

[TimingPoints]
0,652.173913043478,4,1,0,100,1,0
0,-100,4,1,2,100,0,1
2282,-100,4,1,0,100,0,0
2934,-100,4,1,0,100,0,1
4402,-100,4,1,0,100,0,0
4728,-100,4,1,0,100,0,1
10760,-100,4,1,0,100,0,0
21195,-100,4,1,0,100,0,1
30815,-100,4,1,0,100,0,0
44673,-50,4,1,0,100,0,0
44999,-100,4,1,0,100,0,0
55271,-76.9230769230769,4,1,0,100,0,1
57717,-50,4,1,0,100,0,1
58043,-76.9230769230769,4,1,0,100,0,1
67663,-50,4,1,0,100,0,1
67989,-76.9230769230769,4,1,0,100,0,1

[Colours]
Combo1 : 242,162,11
Combo2 : 250,226,61
Combo3 : 244,145,45
Combo4 : 243,155,67

[HitObjects]
97,160,652,6,4,P|208:113|270:128,1,170,2|2,0:0|0:0,0:0:0:0:
351,186,1630,2,4,P|269:269|222:274,1,170,2|2,0:0|0:0,0:0:0:0:
108,163,3097,6,4,P|221:100|250:99,1,127.5,2|2,0:0|0:0,0:0:0:0:
353,177,3913,2,4,P|296:233|243:258,1,127.5,2|2,0:0|0:0,0:0:0:0:
103,155,4891,6,4,P|274:123|285:127,1,170,2|2,0:0|0:0,0:0:0:0:
367,199,5869,2,4,P|313:250|169:270,1,212.5,2|2,0:0|0:0,0:0:0:0:
76,117,7173,6,4,P|278:80|316:84,1,212.5,2|2,0:0|0:0,0:0:0:0:
365,157,8315,1,6,0:0:0:0:
362,268,8641,2,4,P|239:289|175:280,1,170,2|2,0:0|0:0,0:0:0:0:
127,212,9619,2,4,P|296:166|335:165,1,212.5,2|2,0:0|0:0,0:0:0:0:
119,132,11086,6,4,P|301:83|309:83,1,170,2|2,0:0|0:0,0:0:0:0:
396,135,12065,1,6,0:0:0:0:
344,216,12391,1,6,0:0:0:0:
265,272,12717,2,4,P|195:237|141:199,1,127.5,2|2,0:0|0:0,0:0:0:0:
96,139,13532,6,4,P|249:87|282:88,1,170,2|2,0:0|0:0,0:0:0:0:
369,99,14510,1,6,0:0:0:0:
386,225,14836,2,4,P|292:283|237:286,1,127.5,2|2,0:0|0:0,0:0:0:0:
173,257,15652,2,4,P|105:195|99:151,1,127.5,2|2,0:0|0:0,0:0:0:0:
210,137,16467,6,4,P|379:85|403:91,1,170,2|2,0:0|0:0,0:0:0:0:
428,203,17445,1,6,0:0:0:0:
291,279,17771,1,6,0:0:0:0:
131,211,18097,2,4,P|169:95|200:69,1,127.5,2|2,0:0|0:0,0:0:0:0:
266,80,18913,6,4,P|403:144|410:157,1,170,2|2,0:0|0:0,0:0:0:0:
381,252,19891,2,4,L|286:300,1,85,2|2,0:0|0:0,0:0:0:0:
215,296,20543,2,4,P|117:248|105:227,1,127.5,2|2,0:0|0:0,0:0:0:0:
363,183,21684,6,4,P|265:101|243:92,1,127.5,2|2,0:0|0:0,0:0:0:0:
152,86,22499,1,6,0:0:0:0:
84,171,22826,1,6,0:0:0:0:
143,277,23152,2,4,P|235:307|269:302,1,127.5,2|2,0:0|0:0,0:0:0:0:
346,260,23967,6,4,P|295:168|269:140,1,127.5,2|2,0:0|0:0,0:0:0:0:
175,200,24782,1,6,0:0:0:0:
66,128,25108,2,0,P|201:82|238:80,1,170,2|2,0:0|0:0,0:0:0:0:
323,93,26086,2,4,P|394:178|396:195,1,127.5,2|2,0:0|0:0,0:0:0:0:
364,291,26902,6,4,P|170:296|137:269,1,212.5,2|2,0:0|0:0,0:0:0:0:
132,193,28043,2,4,P|268:106|279:104,1,170,2|2,0:0|0:0,0:0:0:0:
392,108,29021,1,0,0:0:0:0:
373,219,29347,2,4,P|265:267|212:268,1,170,2|2,0:0|0:0,0:0:0:0:
98,188,30815,6,4,P|195:134|219:128,1,127.5,2|2,0:0|0:0,0:0:0:0:
311,121,31630,1,6,0:0:0:0:
399,195,31956,2,4,P|371:295|311:323,1,170,2|2,0:0|0:0,0:0:0:0:
231,281,32934,2,4,P|176:165|160:152,1,127.5,2|2,0:0|0:0,0:0:0:0:
101,191,33749,6,4,P|143:324|163:338,1,170,2|2,0:0|0:0,0:0:0:0:
254,225,34728,1,6,0:0:0:0:
373,300,35054,2,4,P|424:200|424:177,1,127.5,2|2,0:0|0:0,0:0:0:0:
351,104,35869,2,4,P|215:78|183:85,1,170,2|2,0:0|0:0,0:0:0:0:
119,249,36847,6,0,P|228:275|262:273,1,127.5,2|2,0:0|0:0,0:0:0:0:
302,182,37663,1,6,0:0:0:0:
415,196,37989,2,4,P|353:99|336:80,1,127.5,2|2,0:0|0:0,0:0:0:0:
241,84,38804,6,4,P|152:182|139:222,1,170,2|2,0:0|0:0,0:0:0:0:
205,296,39782,2,4,P|330:309|382:289,1,170,2|2,0:0|0:0,0:0:0:0:
446,238,40760,2,4,P|389:142|350:105,1,127.5,2|2,0:0|0:0,0:0:0:0:
292,93,41576,2,4,P|219:157|184:205,1,127.5,2|2,0:0|0:0,0:0:0:0:
190,272,42391,1,6,0:0:0:0:
368,222,42717,6,4,P|271:75|251:64,1,170,2|2,0:0|0:0,0:0:0:0:
203,106,43695,2,4,P|110:211|100:231,1,127.5,2|2,0:0|0:0,0:0:0:0:
196,271,44510,1,6,0:0:0:0:
355,269,44836,1,6,0:0:0:0:
426,182,45163,6,4,P|313:111|274:102,1,170,2|2,0:0|0:0,0:0:0:0:
154,137,46141,1,6,0:0:0:0:
116,234,46467,1,6,0:0:0:0:
209,304,46793,2,4,P|380:284|405:266,1,170,2|2,0:0|0:0,0:0:0:0:
441,212,47771,6,4,P|311:155|275:144,1,170,2|2,0:0|0:0,0:0:0:0:
150,151,48749,1,6,0:0:0:0:
126,268,49076,6,4,P|250:309|283:309,1,127.5,2|2,0:0|0:0,0:0:0:0:
345,243,49891,1,6,0:0:0:0:
440,201,50217,2,4,P|386:95|357:82,1,127.5,2|2,0:0|0:0,0:0:0:0:
311,80,51195,6,4,P|210:133|197:148,1,127.5,2|2,0:0|0:0,0:0:0:0:
165,224,51847,2,4,P|230:304|264:317,1,127.5,2|2,0:0|0:0,0:0:0:0:
380,250,52663,2,4,P|324:148|280:103,1,170,2|2,0:0|0:0,0:0:0:0:
256,192,53641,12,6,55271,0:0:0:0:
117,158,55597,6,4,P|263:84|310:86,1,165.749992412568,2|2,0:0|0:0,0:0:0:0:
373,103,56413,2,4,P|298:240|272:257,1,165.749992412568,2|2,0:0|0:0,0:0:0:0:
190,246,57228,2,4,P|78:159|68:124,1,165.749992412568,2|2,0:0|0:0,0:0:0:0:
223,95,58206,6,4,P|340:161|357:190,1,165.749992412568,2|2,0:0|0:0,0:0:0:0:
358,284,59021,2,4,P|211:237|186:202,1,165.749992412568,2|2,0:0|0:0,0:0:0:0:
185,145,59836,2,0,P|334:129|385:152,1,165.749992412568,2|2,0:0|0:0,0:0:0:0:
421,215,60652,1,6,0:0:0:0:
335,248,60978,2,4,P|148:248|110:228,1,220.999989883423,2|2,0:0|0:0,0:0:0:0:
136,142,61956,6,4,P|271:89|291:93,1,165.749992412568,2|2,0:0|0:0,0:0:0:0:
375,152,62771,2,4,P|407:260|403:284,1,110.499994941712,2|2,0:0|0:0,0:0:0:0:
318,308,63423,2,4,P|186:287|136:251,1,165.749992412568,2|2,0:0|0:0,0:0:0:0:
142,185,64239,6,4,P|270:93|315:85,1,165.749992412568,2|2,0:0|0:0,0:0:0:0:
364,128,65054,2,4,P|399:249|397:272,1,110.499994941712,2|2,0:0|0:0,0:0:0:0:
304,313,65706,1,6,0:0:0:0:
203,288,66032,2,4,P|95:215|85:184,1,165.749992412568,2|2,0:0|0:0,0:0:0:0:
164,108,66847,6,4,P|340:107|375:127,1,220.999989883423,2|2,0:0|0:0,0:0:0:0:
390,244,67826,1,6,0:0:0:0:
245,291,68152,2,4,P|104:205|88:178,1,165.749992412568,2|2,0:0|0:0,0:0:0:0:
190,104,68967,6,4,P|338:109|380:131,1,165.749992412568,2|2,0:0|0:0,0:0:0:0:
423,195,69782,2,4,P|339:275|299:284,1,110.499994941712,2|2,0:0|0:0,0:0:0:0:
234,266,70434,2,4,P|134:198|123:173,1,110.499994941712,2|2,0:0|0:0,0:0:0:0:
171,131,71249,2,4,P|322:129|361:142,1,165.749992412568,2|2,0:0|0:0,0:0:0:0:
424,192,72065,6,4,P|313:270|273:273,1,165.749992412568,2|2,0:0|0:0,0:0:0:0:
179,268,72880,2,4,P|67:192|56:173,1,110.499994941712,2|2,0:0|0:0,0:0:0:0:
141,129,73532,2,2,P|227:87|276:86,1,110.499994941712,6|4,0:0|0:0,0:0:0:0:
382,128,74184,6,4,P|435:188|441:227,1,110.499994941712,2|2,0:0|0:0,0:0:0:0:
375,277,74836,2,4,P|261:308|212:308,1,165.749992412568,2|2,0:0|0:0,0:0:0:0:
144,257,75652,2,4,P|245:124|277:115,1,165.749992412568,2|2,0:0|0:0,0:0:0:0:
370,105,76467,1,6,0:0:0:0:
392,228,76793,2,4,P|356:302|318:323,1,110.499994941712,2|2,0:0|0:0,0:0:0:0:
195,295,77445,6,4,P|151:168|155:148,1,110.499994941712,2|2,0:0|0:0,0:0:0:0:
195,107,78097,2,4,P|298:76|350:87,1,110.499994941712,6|6,0:0|0:0,0:0:0:0:
388,137,78749,2,4,P|414:228|411:260,1,110.499994941712,2|2,0:0|0:0,0:0:0:0:
318,295,79402,2,4,P|133:286|112:261,1,220.999989883423,2|2,0:0|0:0,0:0:0:0:
140,197,80380,2,4,P|284:100|325:99,1,220.999989883423
400,175,81521,6,4,P|251:299|222:314,1,220.999989883423
147,260,82499,2,8,P|96:140|99:114,1,110.499994941712
155,95,83152,2,8,P|274:75|299:78,1,110.499994941712
256,192,84130,12,0,89995,0:0:0:0:
