osu file format v14

[General]
AudioFilename: audio.mp3
AudioLeadIn: 0
PreviewTime: 67323
Countdown: 0
SampleSet: Normal
StackLeniency: 0.6
Mode: 3
LetterboxInBreaks: 0
SpecialStyle: 0
WidescreenStoryboard: 1
SamplesMatchPlaybackRate: 1

[Editor]
Bookmarks: 63232
DistanceSpacing: 1.25
BeatDivisor: 4
GridSize: 8
TimelineZoom: 1.9

[Metadata]
Title:Bloody Stream
TitleUnicode:Bloody Stream
Artist:Coda
ArtistUnicode:Coda
Creator:Acelight
Version:Hard
Source:Jojo's Bizarre Adventures Battle Tendency
Tags:Jojo opening Bloody Stream coda
BeatmapID:1615890
BeatmapSetID:768327

[Difficulty]
HPDrainRate:9
CircleSize:7
OverallDifficulty:7
ApproachRate:5
SliderMultiplier:1.4
SliderTickRate:1

[Events]
//Background and Video events
0,0,"maxresdefault (1).jpg",0,0
//Break Periods
//Storyboard Layer 0 (Background)
//Storyboard Layer 1 (Fail)
//Storyboard Layer 2 (Pass)
//Storyboard Layer 3 (Foreground)
//Storyboard Sound Samples

[TimingPoints]
51,454.545454545455,4,1,1,100,1,0
52778,-100,4,1,1,100,0,1
67323,-100,4,1,1,100,0,0

[HitObjects]
329,192,51,5,8,1:0:0:40:normal-hitclap.wav
109,192,51,1,8,1:0:0:40:normal-hitclap.wav
36,192,51,1,8,1:0:0:40:normal-hitclap.wav
402,192,51,1,8,1:0:0:40:normal-hitclap.wav
475,192,164,1,8,1:0:0:40:normal-hitclap.wav
329,192,278,1,8,1:0:0:40:normal-hitclap.wav
182,192,278,1,8,1:0:0:40:normal-hitclap.wav
329,192,505,1,8,1:0:0:40:normal-hitclap.wav
402,192,505,1,8,1:0:0:40:normal-hitclap.wav
36,192,505,1,8,1:0:0:40:normal-hitclap.wav
329,192,732,1,8,1:0:0:40:normal-hitclap.wav
109,192,732,1,8,1:0:0:40:normal-hitclap.wav
182,192,846,1,8,1:0:0:40:normal-hitclap.wav
402,192,846,1,8,1:0:0:40:normal-hitclap.wav
475,192,1073,1,8,1:0:0:40:normal-hitclap.wav
256,192,1073,1,8,1:0:0:40:normal-hitclap.wav
402,192,1073,1,8,1:0:0:40:normal-hitclap.wav
182,192,1301,1,8,1:0:0:40:normal-hitclap.wav
109,192,1301,1,8,1:0:0:40:normal-hitclap.wav
329,192,1414,1,8,1:0:0:40:normal-hitclap.wav
475,192,1414,1,8,1:0:0:40:normal-hitclap.wav
402,192,1641,128,8,1869:1:0:0:40:normal-hitclap.wav
109,192,1641,128,8,1869:1:0:0:40:normal-hitclap.wav
36,192,1869,1,8,1:0:0:40:normal-hitclap.wav
182,192,1869,1,8,1:0:0:40:normal-hitclap.wav
256,192,1869,1,8,1:0:0:40:normal-hitclap.wav
329,192,1982,1,8,1:0:0:40:normal-hitclap.wav
402,192,2096,1,8,1:0:0:40:normal-hitclap.wav
475,192,2096,1,8,1:0:0:40:normal-hitclap.wav
475,192,2323,1,8,1:0:0:40:normal-hitclap.wav
256,192,2323,1,8,1:0:0:40:normal-hitclap.wav
182,192,2323,1,8,1:0:0:40:normal-hitclap.wav
329,192,2551,1,8,1:0:0:40:normal-hitclap.wav
402,192,2551,1,8,1:0:0:40:normal-hitclap.wav
182,192,2664,1,8,1:0:0:40:normal-hitclap.wav
109,192,2664,1,8,1:0:0:40:normal-hitclap.wav
329,192,2891,1,8,1:0:0:40:normal-hitclap.wav
182,192,2891,1,8,1:0:0:40:normal-hitclap.wav
256,192,2891,1,8,1:0:0:40:normal-hitclap.wav
329,192,3119,1,8,1:0:0:40:normal-hitclap.wav
182,192,3232,1,8,1:0:0:40:normal-hitclap.wav
109,192,3232,1,8,1:0:0:40:normal-hitclap.wav
182,192,3460,128,8,3687:1:0:0:40:normal-hitclap.wav
402,192,3460,128,8,3687:1:0:0:40:normal-hitclap.wav
475,192,3460,128,8,3687:1:0:0:40:normal-hitclap.wav
36,192,3687,1,8,1:0:0:40:normal-hitclap.wav
256,192,3687,1,8,1:0:0:40:normal-hitclap.wav
109,192,3801,1,8,1:0:0:40:normal-hitclap.wav
329,192,3914,1,8,1:0:0:40:normal-hitclap.wav
182,192,3914,1,8,1:0:0:40:normal-hitclap.wav
475,192,4141,1,8,1:0:0:40:normal-hitclap.wav
402,192,4141,1,8,1:0:0:40:normal-hitclap.wav
256,192,4141,1,8,1:0:0:40:normal-hitclap.wav
36,192,4369,1,8,1:0:0:40:normal-hitclap.wav
182,192,4369,1,8,1:0:0:40:normal-hitclap.wav
256,192,4369,1,8,1:0:0:40:normal-hitclap.wav
402,192,4482,1,8,1:0:0:40:normal-hitclap.wav
475,192,4710,1,8,1:0:0:40:normal-hitclap.wav
329,192,4710,1,8,1:0:0:40:normal-hitclap.wav
36,192,4937,1,8,1:0:0:40:normal-hitclap.wav
182,192,5051,1,8,1:0:0:40:normal-hitclap.wav
329,192,5051,1,8,1:0:0:40:normal-hitclap.wav
109,192,5278,128,8,7210:1:0:0:40:normal-hitclap.wav
402,192,5278,128,8,7210:1:0:0:40:normal-hitclap.wav
329,192,5278,128,8,7210:1:0:0:40:normal-hitclap.wav
182,192,5619,1,8,1:0:0:40:normal-hitclap.wav
36,192,5732,1,8,1:0:0:40:normal-hitclap.wav
182,192,5846,1,8,1:0:0:40:normal-hitclap.wav
475,192,5960,1,8,1:0:0:40:normal-hitclap.wav
256,192,6073,1,8,1:0:0:40:normal-hitclap.wav
36,192,6187,1,8,1:0:0:40:normal-hitclap.wav
182,192,6301,1,8,1:0:0:40:normal-hitclap.wav
475,192,6414,1,8,1:0:0:40:normal-hitclap.wav
256,192,6528,1,8,1:0:0:40:normal-hitclap.wav
475,192,6641,1,8,1:0:0:40:normal-hitclap.wav
182,192,6755,1,8,1:0:0:40:normal-hitclap.wav
36,192,6869,1,8,1:0:0:40:normal-hitclap.wav
256,192,6982,1,8,1:0:0:40:normal-hitclap.wav
475,192,7096,1,8,1:0:0:40:normal-hitclap.wav
256,192,7210,1,8,1:0:0:40:normal-hitclap.wav
36,192,7323,1,8,1:0:0:40:normal-hitclap.wav
182,192,7323,1,8,1:0:0:40:normal-hitclap.wav
329,192,7323,1,8,1:0:0:40:normal-hitclap.wav
256,192,7551,1,8,1:0:0:40:normal-hitclap.wav
402,192,7551,1,8,1:0:0:40:normal-hitclap.wav
329,192,7778,128,8,8119:1:0:0:40:normal-hitclap.wav
182,192,7778,128,8,8119:1:0:0:40:normal-hitclap.wav
402,192,8005,1,8,1:0:0:40:normal-hitclap.wav
256,192,8005,1,8,1:0:0:40:normal-hitclap.wav
109,192,8119,1,8,1:0:0:40:normal-hitclap.wav
36,192,8119,1,8,1:0:0:40:normal-hitclap.wav
109,192,8346,1,8,1:0:0:40:normal-hitclap.wav
256,192,8346,1,8,1:0:0:40:normal-hitclap.wav
329,192,8346,1,8,1:0:0:40:normal-hitclap.wav
402,192,8460,1,8,1:0:0:40:normal-hitclap.wav
475,192,8460,1,8,1:0:0:40:normal-hitclap.wav
36,192,8687,128,8,9028:1:0:0:40:normal-hitclap.wav
182,192,8687,128,8,9028:1:0:0:40:normal-hitclap.wav
402,192,8914,1,8,1:0:0:40:normal-hitclap.wav
256,192,9028,1,8,1:0:0:40:normal-hitclap.wav
329,192,9141,1,8,1:0:0:40:normal-hitclap.wav
402,192,9141,1,8,1:0:0:40:normal-hitclap.wav
475,192,9141,1,8,1:0:0:40:normal-hitclap.wav
109,192,9141,1,8,1:0:0:40:normal-hitclap.wav
36,192,9369,1,8,1:0:0:40:normal-hitclap.wav
182,192,9369,1,8,1:0:0:40:normal-hitclap.wav
329,192,9596,128,8,9937:1:0:0:40:normal-hitclap.wav
402,192,9596,128,8,9937:1:0:0:40:normal-hitclap.wav
475,192,9596,128,8,9937:1:0:0:40:normal-hitclap.wav
256,192,9823,1,8,1:0:0:40:normal-hitclap.wav
36,192,9823,1,8,1:0:0:40:normal-hitclap.wav
109,192,9937,1,8,1:0:0:40:normal-hitclap.wav
182,192,9937,1,8,1:0:0:40:normal-hitclap.wav
182,192,10164,1,8,1:0:0:40:normal-hitclap.wav
329,192,10164,1,8,1:0:0:40:normal-hitclap.wav
109,192,10278,1,8,1:0:0:40:normal-hitclap.wav
402,192,10278,1,8,1:0:0:40:normal-hitclap.wav
256,192,10505,128,8,10846:1:0:0:40:normal-hitclap.wav
475,192,10505,128,8,10846:1:0:0:40:normal-hitclap.wav
402,192,10505,128,8,10846:1:0:0:40:normal-hitclap.wav
36,192,10732,1,8,1:0:0:40:normal-hitclap.wav
402,192,10960,1,8,1:0:0:40:normal-hitclap.wav
182,192,10960,1,8,1:0:0:40:normal-hitclap.wav
256,192,11187,1,8,1:0:0:40:normal-hitclap.wav
109,192,11187,1,8,1:0:0:40:normal-hitclap.wav
182,192,11414,128,8,11755:1:0:0:40:normal-hitclap.wav
329,192,11414,128,8,11755:1:0:0:40:normal-hitclap.wav
475,192,11641,1,8,1:0:0:40:normal-hitclap.wav
402,192,11755,1,8,1:0:0:40:normal-hitclap.wav
256,192,11755,1,8,1:0:0:40:normal-hitclap.wav
36,192,11982,1,8,1:0:0:40:normal-hitclap.wav
109,192,12096,1,8,1:0:0:40:normal-hitclap.wav
256,192,12096,1,8,1:0:0:40:normal-hitclap.wav
36,192,12323,128,8,14141:1:0:0:40:normal-hitclap.wav
182,192,12323,128,8,12778:1:0:0:40:normal-hitclap.wav
329,192,12323,128,8,12778:1:0:0:40:normal-hitclap.wav
402,192,12551,1,8,1:0:0:40:normal-hitclap.wav
256,192,12778,128,8,14141:1:0:0:40:normal-hitclap.wav
109,192,13005,1,8,1:0:0:40:normal-hitclap.wav
329,192,13232,1,8,1:0:0:40:normal-hitclap.wav
475,192,13232,1,8,1:0:0:40:normal-hitclap.wav
402,192,13232,1,8,1:0:0:40:normal-hitclap.wav
475,192,13460,1,8,1:0:0:40:normal-hitclap.wav
329,192,13460,1,8,1:0:0:40:normal-hitclap.wav
182,192,13573,1,8,1:0:0:40:normal-hitclap.wav
109,192,13573,1,8,1:0:0:40:normal-hitclap.wav
182,192,13801,1,8,1:0:0:40:normal-hitclap.wav
329,192,13801,1,8,1:0:0:40:normal-hitclap.wav
402,192,13914,1,8,1:0:0:40:normal-hitclap.wav
109,192,13914,1,8,1:0:0:40:normal-hitclap.wav
402,192,14141,128,8,14596:1:0:0:40:normal-hitclap.wav
182,192,14141,128,8,14596:1:0:0:40:normal-hitclap.wav
109,192,14141,128,8,14596:1:0:0:40:normal-hitclap.wav
36,192,14369,1,8,1:0:0:40:normal-hitclap.wav
329,192,14596,128,8,16414:1:0:0:40:normal-hitclap.wav
475,192,14823,1,8,1:0:0:40:normal-hitclap.wav
182,192,15051,128,8,15278:1:0:0:40:normal-hitclap.wav
109,192,15051,128,8,15278:1:0:0:40:normal-hitclap.wav
36,192,15051,128,8,15278:1:0:0:40:normal-hitclap.wav
256,192,15278,1,8,1:0:0:40:normal-hitclap.wav
402,192,15278,1,8,1:0:0:40:normal-hitclap.wav
475,192,15391,1,8,1:0:0:40:normal-hitclap.wav
256,192,15619,1,8,1:0:0:40:normal-hitclap.wav
109,192,15619,1,8,1:0:0:40:normal-hitclap.wav
36,192,15732,1,8,1:0:0:40:normal-hitclap.wav
182,192,15960,128,8,16187:1:0:0:40:normal-hitclap.wav
475,192,15960,128,8,16187:1:0:0:40:normal-hitclap.wav
109,192,15960,128,8,16187:1:0:0:40:normal-hitclap.wav
402,192,16187,1,8,1:0:0:40:normal-hitclap.wav
256,192,16187,1,8,1:0:0:40:normal-hitclap.wav
36,192,16414,128,8,18232:1:0:0:40:normal-hitclap.wav
256,192,16414,128,8,18232:1:0:0:40:normal-hitclap.wav
182,192,16641,1,8,1:0:0:40:normal-hitclap.wav
402,192,16869,128,8,17096:1:0:0:40:normal-hitclap.wav
475,192,16869,128,8,17096:1:0:0:40:normal-hitclap.wav
329,192,17096,1,8,1:0:0:40:normal-hitclap.wav
182,192,17210,1,8,1:0:0:40:normal-hitclap.wav
109,192,17437,1,8,1:0:0:40:normal-hitclap.wav
329,192,17437,1,8,1:0:0:40:normal-hitclap.wav
402,192,17551,1,8,1:0:0:40:normal-hitclap.wav
402,192,17778,128,8,18005:1:0:0:40:normal-hitclap.wav
475,192,17778,128,8,18005:1:0:0:40:normal-hitclap.wav
109,192,17778,128,8,18005:1:0:0:40:normal-hitclap.wav
329,192,18005,1,8,1:0:0:40:normal-hitclap.wav
182,192,18005,1,8,1:0:0:40:normal-hitclap.wav
109,192,18232,1,8,1:0:0:40:normal-hitclap.wav
402,192,18232,1,8,1:0:0:40:normal-hitclap.wav
475,192,18232,1,8,1:0:0:40:normal-hitclap.wav
329,192,18460,1,8,1:0:0:40:normal-hitclap.wav
475,192,18460,1,8,1:0:0:40:normal-hitclap.wav
329,192,18687,128,8,18914:1:0:0:40:normal-hitclap.wav
109,192,18687,128,8,18914:1:0:0:40:normal-hitclap.wav
256,192,18914,1,8,1:0:0:40:normal-hitclap.wav
475,192,18914,1,8,1:0:0:40:normal-hitclap.wav
402,192,18914,1,8,1:0:0:40:normal-hitclap.wav
182,192,19028,1,8,1:0:0:40:normal-hitclap.wav
109,192,19028,1,8,1:0:0:40:normal-hitclap.wav
36,192,19255,1,8,1:0:0:40:normal-hitclap.wav
109,192,19255,1,8,1:0:0:40:normal-hitclap.wav
329,192,19255,1,8,1:0:0:40:normal-hitclap.wav
402,192,19369,1,8,1:0:0:40:normal-hitclap.wav
475,192,19369,1,8,1:0:0:40:normal-hitclap.wav
329,192,19596,128,8,19823:1:0:0:40:normal-hitclap.wav
402,192,19596,128,8,19823:1:0:0:40:normal-hitclap.wav
109,192,19596,128,8,19823:1:0:0:40:normal-hitclap.wav
182,192,19823,1,8,1:0:0:40:normal-hitclap.wav
475,192,19823,1,8,1:0:0:40:normal-hitclap.wav
36,192,20051,128,8,20164:1:0:0:40:normal-hitclap.wav
109,192,20051,128,8,20164:1:0:0:40:normal-hitclap.wav
329,192,20164,128,8,20278:1:0:0:40:normal-hitclap.wav
402,192,20391,128,8,20505:1:0:0:40:normal-hitclap.wav
475,192,20391,128,8,20505:1:0:0:40:normal-hitclap.wav
182,192,20505,128,8,20619:1:0:0:40:normal-hitclap.wav
256,192,20732,128,8,20846:1:0:0:40:normal-hitclap.wav
329,192,20732,128,8,20846:1:0:0:40:normal-hitclap.wav
402,192,20846,128,8,20960:1:0:0:40:normal-hitclap.wav
182,192,21073,1,8,1:0:0:40:normal-hitclap.wav
329,192,21187,1,8,1:0:0:40:normal-hitclap.wav
475,192,21187,1,8,1:0:0:40:normal-hitclap.wav
182,192,21301,1,8,1:0:0:40:normal-hitclap.wav
109,192,21414,1,8,1:0:0:40:normal-hitclap.wav
402,192,21414,1,8,1:0:0:40:normal-hitclap.wav
329,192,21414,1,8,1:0:0:40:normal-hitclap.wav
36,192,21528,1,8,1:0:0:40:normal-hitclap.wav
402,192,21641,1,8,1:0:0:40:normal-hitclap.wav
475,192,21641,1,8,1:0:0:40:normal-hitclap.wav
329,192,21755,1,8,1:0:0:40:normal-hitclap.wav
36,192,21869,128,8,22323:1:0:0:40:normal-hitclap.wav
109,192,21869,128,8,22323:1:0:0:40:normal-hitclap.wav
182,192,21869,128,8,22323:1:0:0:40:normal-hitclap.wav
329,192,22096,1,8,1:0:0:40:normal-hitclap.wav
402,192,22323,128,8,22551:1:0:0:40:normal-hitclap.wav
475,192,22323,128,8,22551:1:0:0:40:normal-hitclap.wav
256,192,22323,128,8,22551:1:0:0:40:normal-hitclap.wav
329,192,22551,1,8,1:0:0:40:normal-hitclap.wav
182,192,22664,1,8,1:0:0:40:normal-hitclap.wav
109,192,22664,1,8,1:0:0:40:normal-hitclap.wav
36,192,22891,1,8,1:0:0:40:normal-hitclap.wav
329,192,23005,1,8,1:0:0:40:normal-hitclap.wav
402,192,23005,1,8,1:0:0:40:normal-hitclap.wav
402,192,23232,1,8,1:0:0:40:normal-hitclap.wav
256,192,23232,128,8,23460:1:0:0:40:normal-hitclap.wav
475,192,23232,128,8,23460:1:0:0:40:normal-hitclap.wav
329,192,23460,1,8,1:0:0:40:normal-hitclap.wav
402,192,23460,1,8,1:0:0:40:normal-hitclap.wav
182,192,23573,1,8,1:0:0:40:normal-hitclap.wav
256,192,23687,1,8,1:0:0:40:normal-hitclap.wav
36,192,23687,1,8,1:0:0:40:normal-hitclap.wav
109,192,23687,1,8,1:0:0:40:normal-hitclap.wav
182,192,23914,1,8,1:0:0:40:normal-hitclap.wav
256,192,23914,1,8,1:0:0:40:normal-hitclap.wav
329,192,23914,1,8,1:0:0:40:normal-hitclap.wav
182,192,24141,1,8,1:0:0:40:normal-hitclap.wav
109,192,24141,1,8,1:0:0:40:normal-hitclap.wav
329,192,24141,1,8,1:0:0:40:normal-hitclap.wav
402,192,24141,128,8,24369:1:0:0:40:normal-hitclap.wav
475,192,24141,128,8,24369:1:0:0:40:normal-hitclap.wav
182,192,24369,1,8,1:0:0:40:normal-hitclap.wav
329,192,24369,1,8,1:0:0:40:normal-hitclap.wav
109,192,24482,1,8,1:0:0:40:normal-hitclap.wav
36,192,24482,1,8,1:0:0:40:normal-hitclap.wav
36,192,24710,1,8,1:0:0:40:normal-hitclap.wav
182,192,24710,1,8,1:0:0:40:normal-hitclap.wav
329,192,24823,1,8,1:0:0:40:normal-hitclap.wav
402,192,24823,1,8,1:0:0:40:normal-hitclap.wav
475,192,25051,1,8,1:0:0:40:normal-hitclap.wav
329,192,25051,1,8,1:0:0:40:normal-hitclap.wav
182,192,25051,128,8,25278:1:0:0:40:normal-hitclap.wav
402,192,25051,128,8,25278:1:0:0:40:normal-hitclap.wav
329,192,25278,1,8,1:0:0:40:normal-hitclap.wav
256,192,25278,1,8,1:0:0:40:normal-hitclap.wav
182,192,25391,1,8,1:0:0:40:normal-hitclap.wav
109,192,25391,1,8,1:0:0:40:normal-hitclap.wav
36,192,25505,1,8,1:0:0:40:normal-hitclap.wav
402,192,25505,1,8,1:0:0:40:normal-hitclap.wav
329,192,25505,1,8,1:0:0:40:normal-hitclap.wav
182,192,25732,1,8,1:0:0:40:normal-hitclap.wav
109,192,25732,1,8,1:0:0:40:normal-hitclap.wav
402,192,25960,1,8,1:0:0:40:normal-hitclap.wav
475,192,25960,1,8,1:0:0:40:normal-hitclap.wav
329,192,25960,128,8,26187:1:0:0:40:normal-hitclap.wav
36,192,25960,128,8,26187:1:0:0:40:normal-hitclap.wav
402,192,26187,1,8,1:0:0:40:normal-hitclap.wav
109,192,26301,1,8,1:0:0:40:normal-hitclap.wav
36,192,26301,1,8,1:0:0:40:normal-hitclap.wav
182,192,26528,1,8,1:0:0:40:normal-hitclap.wav
475,192,26641,1,8,1:0:0:40:normal-hitclap.wav
402,192,26641,1,8,1:0:0:40:normal-hitclap.wav
182,192,26869,128,8,27323:1:0:0:40:normal-hitclap.wav
109,192,26869,128,8,27323:1:0:0:40:normal-hitclap.wav
36,192,26869,128,8,27323:1:0:0:40:normal-hitclap.wav
329,192,27323,128,8,27778:1:0:0:40:normal-hitclap.wav
402,192,27323,128,8,27778:1:0:0:40:normal-hitclap.wav
109,192,27778,128,8,28232:1:0:0:40:normal-hitclap.wav
36,192,28232,128,8,28687:1:0:0:40:normal-hitclap.wav
329,192,28232,128,8,28687:1:0:0:40:normal-hitclap.wav
402,192,28232,128,8,28687:1:0:0:40:normal-hitclap.wav
256,192,28687,128,8,29141:1:0:0:40:normal-hitclap.wav
109,192,28687,128,8,29141:1:0:0:40:normal-hitclap.wav
329,192,29141,128,8,30846:1:0:0:40:normal-hitclap.wav
402,192,29141,128,8,30846:1:0:0:40:normal-hitclap.wav
475,192,29141,128,8,30846:1:0:0:40:normal-hitclap.wav
182,192,29369,1,8,1:0:0:40:normal-hitclap.wav
36,192,29596,1,8,1:0:0:40:normal-hitclap.wav
256,192,29596,1,8,1:0:0:40:normal-hitclap.wav
109,192,29596,128,8,29823:1:0:0:40:normal-hitclap.wav
36,192,29823,1,8,1:0:0:40:normal-hitclap.wav
182,192,29937,1,8,1:0:0:40:normal-hitclap.wav
182,192,30164,1,8,1:0:0:40:normal-hitclap.wav
36,192,30278,1,8,1:0:0:40:normal-hitclap.wav
109,192,30505,1,8,1:0:0:40:normal-hitclap.wav
256,192,30505,1,8,1:0:0:40:normal-hitclap.wav
182,192,30505,128,8,30732:1:0:0:40:normal-hitclap.wav
36,192,30732,1,8,1:0:0:40:normal-hitclap.wav
36,192,30960,128,8,32778:1:0:0:40:normal-hitclap.wav
402,192,30960,128,8,32778:1:0:0:40:normal-hitclap.wav
109,192,31187,1,8,1:0:0:40:normal-hitclap.wav
475,192,31414,1,8,1:0:0:40:normal-hitclap.wav
329,192,31414,128,8,31641:1:0:0:40:normal-hitclap.wav
256,192,31641,1,8,1:0:0:40:normal-hitclap.wav
109,192,31755,1,8,1:0:0:40:normal-hitclap.wav
182,192,31982,1,8,1:0:0:40:normal-hitclap.wav
475,192,32096,1,8,1:0:0:40:normal-hitclap.wav
329,192,32323,1,8,1:0:0:40:normal-hitclap.wav
109,192,32323,128,8,32551:1:0:0:40:normal-hitclap.wav
182,192,32551,1,8,1:0:0:40:normal-hitclap.wav
256,192,32551,1,8,1:0:0:40:normal-hitclap.wav
256,192,32778,1,8,1:0:0:40:normal-hitclap.wav
329,192,32778,1,8,1:0:0:40:normal-hitclap.wav
475,192,32778,1,8,1:0:0:40:normal-hitclap.wav
109,192,33005,1,8,1:0:0:40:normal-hitclap.wav
182,192,33005,1,8,1:0:0:40:normal-hitclap.wav
329,192,33232,1,8,1:0:0:40:normal-hitclap.wav
402,192,33232,128,8,33460:1:0:0:40:normal-hitclap.wav
475,192,33232,128,8,33460:1:0:0:40:normal-hitclap.wav
329,192,33460,1,8,1:0:0:40:normal-hitclap.wav
182,192,33460,1,8,1:0:0:40:normal-hitclap.wav
109,192,33460,1,8,1:0:0:40:normal-hitclap.wav
36,192,33573,1,8,1:0:0:40:normal-hitclap.wav
182,192,33573,1,8,1:0:0:40:normal-hitclap.wav
182,192,33801,1,8,1:0:0:40:normal-hitclap.wav
329,192,33801,1,8,1:0:0:40:normal-hitclap.wav
402,192,33801,1,8,1:0:0:40:normal-hitclap.wav
256,192,33914,1,8,1:0:0:40:normal-hitclap.wav
402,192,33914,1,8,1:0:0:40:normal-hitclap.wav
329,192,34141,1,8,1:0:0:40:normal-hitclap.wav
402,192,34141,1,8,1:0:0:40:normal-hitclap.wav
182,192,34141,128,8,34369:1:0:0:40:normal-hitclap.wav
36,192,34141,128,8,34369:1:0:0:40:normal-hitclap.wav
109,192,34369,1,8,1:0:0:40:normal-hitclap.wav
475,192,34369,1,8,1:0:0:40:normal-hitclap.wav
109,192,34596,1,8,1:0:0:40:normal-hitclap.wav
182,192,34596,1,8,1:0:0:40:normal-hitclap.wav
329,192,34596,1,8,1:0:0:40:normal-hitclap.wav
402,192,34710,1,8,1:0:0:40:normal-hitclap.wav
109,192,34823,1,8,1:0:0:40:normal-hitclap.wav
36,192,34823,1,8,1:0:0:40:normal-hitclap.wav
182,192,34937,1,8,1:0:0:40:normal-hitclap.wav
329,192,35051,1,8,1:0:0:40:normal-hitclap.wav
475,192,35051,1,8,1:0:0:40:normal-hitclap.wav
402,192,35051,1,8,1:0:0:40:normal-hitclap.wav
256,192,35164,1,8,1:0:0:40:normal-hitclap.wav
182,192,35278,1,8,1:0:0:40:normal-hitclap.wav
36,192,35278,1,8,1:0:0:40:normal-hitclap.wav
402,192,35391,1,8,1:0:0:40:normal-hitclap.wav
329,192,35505,1,8,1:0:0:40:normal-hitclap.wav
182,192,35505,1,8,1:0:0:40:normal-hitclap.wav
109,192,35505,1,8,1:0:0:40:normal-hitclap.wav
36,192,35619,1,8,1:0:0:40:normal-hitclap.wav
182,192,35732,1,8,1:0:0:40:normal-hitclap.wav
402,192,35732,1,8,1:0:0:40:normal-hitclap.wav
329,192,35846,1,8,1:0:0:40:normal-hitclap.wav
475,192,35960,1,8,1:0:0:40:normal-hitclap.wav
402,192,35960,1,8,1:0:0:40:normal-hitclap.wav
329,192,36073,1,8,1:0:0:40:normal-hitclap.wav
256,192,36187,1,8,1:0:0:40:normal-hitclap.wav
109,192,36187,1,8,1:0:0:40:normal-hitclap.wav
36,192,36187,1,8,1:0:0:40:normal-hitclap.wav
475,192,36301,1,8,1:0:0:40:normal-hitclap.wav
182,192,36414,128,8,38232:1:0:0:40:normal-hitclap.wav
329,192,36414,128,8,38232:1:0:0:40:normal-hitclap.wav
402,192,36869,1,8,1:0:0:40:normal-hitclap.wav
475,192,36869,1,8,1:0:0:40:normal-hitclap.wav
36,192,37096,1,8,1:0:0:40:normal-hitclap.wav
256,192,37210,1,8,1:0:0:40:normal-hitclap.wav
475,192,37323,1,8,1:0:0:40:normal-hitclap.wav
402,192,37551,1,8,1:0:0:40:normal-hitclap.wav
36,192,37664,1,8,1:0:0:40:normal-hitclap.wav
109,192,37778,1,8,1:0:0:40:normal-hitclap.wav
256,192,38005,1,8,1:0:0:40:normal-hitclap.wav
109,192,38119,1,8,1:0:0:40:normal-hitclap.wav
36,192,38232,1,8,1:0:0:40:normal-hitclap.wav
475,192,38232,128,8,40051:1:0:0:40:normal-hitclap.wav
256,192,38232,128,8,40051:1:0:0:40:normal-hitclap.wav
182,192,38460,1,8,1:0:0:40:normal-hitclap.wav
36,192,38573,1,8,1:0:0:40:normal-hitclap.wav
402,192,38687,1,8,1:0:0:40:normal-hitclap.wav
329,192,38687,1,8,1:0:0:40:normal-hitclap.wav
329,192,38914,1,8,1:0:0:40:normal-hitclap.wav
109,192,39028,1,8,1:0:0:40:normal-hitclap.wav
182,192,39141,1,8,1:0:0:40:normal-hitclap.wav
329,192,39141,1,8,1:0:0:40:normal-hitclap.wav
402,192,39141,1,8,1:0:0:40:normal-hitclap.wav
329,192,39369,1,8,1:0:0:40:normal-hitclap.wav
182,192,39482,1,8,1:0:0:40:normal-hitclap.wav
36,192,39596,1,8,1:0:0:40:normal-hitclap.wav
109,192,39823,1,8,1:0:0:40:normal-hitclap.wav
402,192,39937,1,8,1:0:0:40:normal-hitclap.wav
36,192,40051,128,8,41869:1:0:0:40:normal-hitclap.wav
182,192,40051,128,8,41869:1:0:0:40:normal-hitclap.wav
329,192,40051,128,8,41869:1:0:0:40:normal-hitclap.wav
402,192,40278,1,8,1:0:0:40:normal-hitclap.wav
475,192,40391,1,8,1:0:0:40:normal-hitclap.wav
256,192,40505,1,8,1:0:0:40:normal-hitclap.wav
402,192,40732,1,8,1:0:0:40:normal-hitclap.wav
109,192,40846,1,8,1:0:0:40:normal-hitclap.wav
256,192,40960,1,8,1:0:0:40:normal-hitclap.wav
402,192,41187,1,8,1:0:0:40:normal-hitclap.wav
256,192,41301,1,8,1:0:0:40:normal-hitclap.wav
109,192,41414,1,8,1:0:0:40:normal-hitclap.wav
475,192,41528,1,8,1:0:0:40:normal-hitclap.wav
402,192,41641,1,8,1:0:0:40:normal-hitclap.wav
256,192,41755,1,8,1:0:0:40:normal-hitclap.wav
402,192,41869,128,8,42778:1:0:0:40:normal-hitclap.wav
475,192,42096,1,8,1:0:0:40:normal-hitclap.wav
329,192,42210,1,8,1:0:0:40:normal-hitclap.wav
182,192,42323,1,8,1:0:0:40:normal-hitclap.wav
109,192,42323,1,8,1:0:0:40:normal-hitclap.wav
36,192,42551,1,8,1:0:0:40:normal-hitclap.wav
182,192,42664,1,8,1:0:0:40:normal-hitclap.wav
475,192,42778,1,8,1:0:0:40:normal-hitclap.wav
329,192,42778,128,8,43687:1:0:0:40:normal-hitclap.wav
109,192,43005,1,8,1:0:0:40:normal-hitclap.wav
256,192,43119,1,8,1:0:0:40:normal-hitclap.wav
402,192,43232,1,8,1:0:0:40:normal-hitclap.wav
182,192,43346,1,8,1:0:0:40:normal-hitclap.wav
36,192,43460,1,8,1:0:0:40:normal-hitclap.wav
256,192,43573,1,8,1:0:0:40:normal-hitclap.wav
109,192,43687,128,8,45505:1:0:0:40:normal-hitclap.wav
182,192,43687,1,8,1:0:0:40:normal-hitclap.wav
182,192,43914,1,8,1:0:0:40:normal-hitclap.wav
329,192,44028,1,8,1:0:0:40:normal-hitclap.wav
402,192,44141,1,8,1:0:0:40:normal-hitclap.wav
475,192,44141,1,8,1:0:0:40:normal-hitclap.wav
402,192,44369,1,8,1:0:0:40:normal-hitclap.wav
329,192,44482,1,8,1:0:0:40:normal-hitclap.wav
182,192,44596,1,8,1:0:0:40:normal-hitclap.wav
256,192,44596,1,8,1:0:0:40:normal-hitclap.wav
182,192,44823,1,8,1:0:0:40:normal-hitclap.wav
402,192,44823,1,8,1:0:0:40:normal-hitclap.wav
475,192,44937,1,8,1:0:0:40:normal-hitclap.wav
256,192,45051,1,8,1:0:0:40:normal-hitclap.wav
329,192,45051,1,8,1:0:0:40:normal-hitclap.wav
36,192,45164,1,8,1:0:0:40:normal-hitclap.wav
402,192,45278,1,8,1:0:0:40:normal-hitclap.wav
475,192,45278,1,8,1:0:0:40:normal-hitclap.wav
182,192,45391,1,8,1:0:0:40:normal-hitclap.wav
36,192,45505,128,8,47323:1:0:0:40:normal-hitclap.wav
329,192,45505,1,8,1:0:0:40:normal-hitclap.wav
402,192,45505,1,8,1:0:0:40:normal-hitclap.wav
475,192,45732,1,8,1:0:0:40:normal-hitclap.wav
109,192,45846,1,8,1:0:0:40:normal-hitclap.wav
256,192,45960,1,8,1:0:0:40:normal-hitclap.wav
329,192,45960,1,8,1:0:0:40:normal-hitclap.wav
402,192,45960,1,8,1:0:0:40:normal-hitclap.wav
109,192,46187,1,8,1:0:0:40:normal-hitclap.wav
402,192,46301,1,8,1:0:0:40:normal-hitclap.wav
182,192,46414,1,8,1:0:0:40:normal-hitclap.wav
256,192,46414,1,8,1:0:0:40:normal-hitclap.wav
402,192,46641,1,8,1:0:0:40:normal-hitclap.wav
182,192,46755,1,8,1:0:0:40:normal-hitclap.wav
109,192,46869,1,8,1:0:0:40:normal-hitclap.wav
182,192,47096,1,8,1:0:0:40:normal-hitclap.wav
329,192,47096,1,8,1:0:0:40:normal-hitclap.wav
182,192,47323,128,8,47778:1:0:0:40:normal-hitclap.wav
402,192,47323,128,8,47778:1:0:0:40:normal-hitclap.wav
109,192,47778,128,8,48232:1:0:0:40:normal-hitclap.wav
36,192,47778,128,8,48232:1:0:0:40:normal-hitclap.wav
256,192,47778,128,8,48232:1:0:0:40:normal-hitclap.wav
329,192,48232,128,8,48687:1:0:0:40:normal-hitclap.wav
402,192,48232,128,8,48687:1:0:0:40:normal-hitclap.wav
109,192,48687,128,8,49141:1:0:0:40:normal-hitclap.wav
182,192,48687,128,8,49141:1:0:0:40:normal-hitclap.wav
475,192,48687,128,8,49141:1:0:0:40:normal-hitclap.wav
256,192,49141,128,8,49255:1:0:0:40:normal-hitclap.wav
329,192,49141,128,8,49255:1:0:0:40:normal-hitclap.wav
402,192,49255,128,8,49369:1:0:0:40:normal-hitclap.wav
475,192,49255,128,8,49369:1:0:0:40:normal-hitclap.wav
182,192,49482,128,8,49710:1:0:0:40:normal-hitclap.wav
256,192,49482,128,8,49710:1:0:0:40:normal-hitclap.wav
402,192,49482,128,8,49710:1:0:0:40:normal-hitclap.wav
329,192,49710,128,8,49937:1:0:0:40:normal-hitclap.wav
109,192,49710,128,8,49937:1:0:0:40:normal-hitclap.wav
36,192,49937,128,8,50164:1:0:0:40:normal-hitclap.wav
402,192,49937,128,8,50164:1:0:0:40:normal-hitclap.wav
475,192,49937,128,8,50164:1:0:0:40:normal-hitclap.wav
182,192,50164,128,8,50391:1:0:0:40:normal-hitclap.wav
109,192,50164,128,8,50391:1:0:0:40:normal-hitclap.wav
36,192,50391,128,8,50619:1:0:0:40:normal-hitclap.wav
402,192,50391,128,8,50619:1:0:0:40:normal-hitclap.wav
256,192,50619,128,8,51414:1:0:0:40:normal-hitclap.wav
475,192,50619,128,8,51414:1:0:0:40:normal-hitclap.wav
329,192,50619,128,8,51414:1:0:0:40:normal-hitclap.wav
36,192,51982,1,8,1:0:0:40:normal-hitclap.wav
182,192,51982,1,8,1:0:0:40:normal-hitclap.wav
256,192,51982,1,8,1:0:0:40:normal-hitclap.wav
402,192,52096,1,8,1:0:0:40:normal-hitclap.wav
475,192,52096,1,8,1:0:0:40:normal-hitclap.wav
256,192,52323,1,8,1:0:0:40:normal-hitclap.wav
329,192,52323,1,8,1:0:0:40:normal-hitclap.wav
402,192,52323,1,8,1:0:0:40:normal-hitclap.wav
182,192,52437,1,8,1:0:0:40:normal-hitclap.wav
109,192,52437,1,8,1:0:0:40:normal-hitclap.wav
475,192,52551,1,8,1:0:0:40:normal-hitclap.wav
329,192,52551,1,8,1:0:0:40:normal-hitclap.wav
402,192,52551,1,8,1:0:0:40:normal-hitclap.wav
36,192,52664,1,8,1:0:0:40:normal-hitclap.wav
182,192,52664,1,8,1:0:0:40:normal-hitclap.wav
109,192,52778,1,8,1:0:0:40:normal-hitclap.wav
475,192,52778,1,8,1:0:0:40:normal-hitclap.wav
402,192,52778,1,8,1:0:0:40:normal-hitclap.wav
182,192,53005,1,8,1:0:0:40:normal-hitclap.wav
256,192,53005,1,8,1:0:0:40:normal-hitclap.wav
329,192,53005,1,8,1:0:0:40:normal-hitclap.wav
475,192,53232,128,8,53346:1:0:0:40:normal-hitclap.wav
402,192,53232,128,8,53346:1:0:0:40:normal-hitclap.wav
182,192,53346,128,8,53460:1:0:0:40:normal-hitclap.wav
109,192,53346,128,8,53460:1:0:0:40:normal-hitclap.wav
256,192,53346,128,8,53460:1:0:0:40:normal-hitclap.wav
329,192,53573,128,8,53801:1:0:0:40:normal-hitclap.wav
402,192,53573,128,8,53801:1:0:0:40:normal-hitclap.wav
36,192,53573,128,8,53801:1:0:0:40:normal-hitclap.wav
182,192,53801,1,8,1:0:0:40:normal-hitclap.wav
36,192,53914,1,8,1:0:0:40:normal-hitclap.wav
182,192,54141,128,8,54369:1:0:0:40:normal-hitclap.wav
402,192,54141,128,8,54369:1:0:0:40:normal-hitclap.wav
329,192,54141,128,8,54369:1:0:0:40:normal-hitclap.wav
36,192,54369,1,8,1:0:0:40:normal-hitclap.wav
109,192,54369,1,8,1:0:0:40:normal-hitclap.wav
182,192,54596,1,8,1:0:0:40:normal-hitclap.wav
402,192,54596,1,8,1:0:0:40:normal-hitclap.wav
475,192,54596,1,8,1:0:0:40:normal-hitclap.wav
256,192,54823,1,8,1:0:0:40:normal-hitclap.wav
329,192,54823,1,8,1:0:0:40:normal-hitclap.wav
256,192,55051,128,8,55164:1:0:0:40:normal-hitclap.wav
182,192,55051,128,8,55164:1:0:0:40:normal-hitclap.wav
36,192,55051,128,8,55164:1:0:0:40:normal-hitclap.wav
329,192,55164,128,8,55278:1:0:0:40:normal-hitclap.wav
402,192,55164,128,8,55278:1:0:0:40:normal-hitclap.wav
475,192,55164,128,8,55278:1:0:0:40:normal-hitclap.wav
36,192,55391,128,8,55619:1:0:0:40:normal-hitclap.wav
329,192,55391,128,8,55619:1:0:0:40:normal-hitclap.wav
475,192,55391,128,8,55619:1:0:0:40:normal-hitclap.wav
256,192,55619,1,8,1:0:0:40:normal-hitclap.wav
36,192,55732,1,8,1:0:0:40:normal-hitclap.wav
475,192,55960,128,8,56187:1:0:0:40:normal-hitclap.wav
402,192,55960,128,8,56187:1:0:0:40:normal-hitclap.wav
329,192,55960,128,8,56187:1:0:0:40:normal-hitclap.wav
36,192,56187,1,8,1:0:0:40:normal-hitclap.wav
109,192,56187,1,8,1:0:0:40:normal-hitclap.wav
475,192,56414,1,8,1:0:0:40:normal-hitclap.wav
329,192,56414,1,8,1:0:0:40:normal-hitclap.wav
182,192,56641,1,8,1:0:0:40:normal-hitclap.wav
36,192,56869,128,8,57096:1:0:0:40:normal-hitclap.wav
256,192,56869,128,8,57096:1:0:0:40:normal-hitclap.wav
402,192,56869,128,8,57096:1:0:0:40:normal-hitclap.wav
329,192,56869,128,8,57096:1:0:0:40:normal-hitclap.wav
109,192,57096,1,8,1:0:0:40:normal-hitclap.wav
256,192,57210,1,8,1:0:0:40:normal-hitclap.wav
402,192,57210,1,8,1:0:0:40:normal-hitclap.wav
36,192,57437,1,8,1:0:0:40:normal-hitclap.wav
109,192,57437,1,8,1:0:0:40:normal-hitclap.wav
182,192,57437,1,8,1:0:0:40:normal-hitclap.wav
475,192,57664,1,8,1:0:0:40:normal-hitclap.wav
182,192,57778,128,8,58005:1:0:0:40:normal-hitclap.wav
329,192,57778,128,8,58005:1:0:0:40:normal-hitclap.wav
36,192,58005,1,8,1:0:0:40:normal-hitclap.wav
109,192,58005,1,8,1:0:0:40:normal-hitclap.wav
256,192,58232,1,8,1:0:0:40:normal-hitclap.wav
329,192,58232,1,8,1:0:0:40:normal-hitclap.wav
475,192,58460,1,8,1:0:0:40:normal-hitclap.wav
402,192,58460,1,8,1:0:0:40:normal-hitclap.wav
329,192,58460,1,8,1:0:0:40:normal-hitclap.wav
36,192,58687,1,8,1:0:0:40:normal-hitclap.wav
109,192,58687,1,8,1:0:0:40:normal-hitclap.wav
182,192,58687,1,8,1:0:0:40:normal-hitclap.wav
329,192,58801,1,8,1:0:0:40:normal-hitclap.wav
402,192,58801,1,8,1:0:0:40:normal-hitclap.wav
36,192,59028,128,8,59255:1:0:0:40:normal-hitclap.wav
475,192,59028,128,8,59255:1:0:0:40:normal-hitclap.wav
329,192,59255,1,8,1:0:0:40:normal-hitclap.wav
109,192,59369,1,8,1:0:0:40:normal-hitclap.wav
402,192,59369,1,8,1:0:0:40:normal-hitclap.wav
182,192,59482,1,8,1:0:0:40:normal-hitclap.wav
475,192,59596,1,8,1:0:0:40:normal-hitclap.wav
402,192,59596,1,8,1:0:0:40:normal-hitclap.wav
182,192,59710,1,8,1:0:0:40:normal-hitclap.wav
109,192,59823,1,8,1:0:0:40:normal-hitclap.wav
36,192,59823,1,8,1:0:0:40:normal-hitclap.wav
402,192,59937,1,8,1:0:0:40:normal-hitclap.wav
182,192,60051,1,8,1:0:0:40:normal-hitclap.wav
256,192,60051,1,8,1:0:0:40:normal-hitclap.wav
475,192,60051,1,8,1:0:0:40:normal-hitclap.wav
109,192,60278,1,8,1:0:0:40:normal-hitclap.wav
329,192,60278,1,8,1:0:0:40:normal-hitclap.wav
402,192,60278,1,8,1:0:0:40:normal-hitclap.wav
36,192,60505,128,8,60619:1:0:0:40:normal-hitclap.wav
109,192,60505,128,8,60619:1:0:0:40:normal-hitclap.wav
256,192,60505,128,8,60619:1:0:0:40:normal-hitclap.wav
182,192,60619,128,8,60732:1:0:0:40:normal-hitclap.wav
329,192,60619,128,8,60732:1:0:0:40:normal-hitclap.wav
402,192,60619,128,8,60732:1:0:0:40:normal-hitclap.wav
475,192,60846,128,8,61073:1:0:0:40:normal-hitclap.wav
402,192,60846,128,8,61073:1:0:0:40:normal-hitclap.wav
109,192,60846,128,8,61073:1:0:0:40:normal-hitclap.wav
329,192,61073,1,8,1:0:0:40:normal-hitclap.wav
109,192,61187,1,8,1:0:0:40:normal-hitclap.wav
36,192,61187,1,8,1:0:0:40:normal-hitclap.wav
256,192,61414,128,8,61641:1:0:0:40:normal-hitclap.wav
402,192,61414,128,8,61641:1:0:0:40:normal-hitclap.wav
329,192,61414,128,8,61641:1:0:0:40:normal-hitclap.wav
109,192,61641,1,8,1:0:0:40:normal-hitclap.wav
182,192,61641,1,8,1:0:0:40:normal-hitclap.wav
182,192,61869,1,8,1:0:0:40:normal-hitclap.wav
402,192,61869,1,8,1:0:0:40:normal-hitclap.wav
475,192,61869,1,8,1:0:0:40:normal-hitclap.wav
329,192,62096,1,8,1:0:0:40:normal-hitclap.wav
402,192,62096,1,8,1:0:0:40:normal-hitclap.wav
329,192,62323,128,8,62437:1:0:0:40:normal-hitclap.wav
475,192,62323,128,8,62437:1:0:0:40:normal-hitclap.wav
256,192,62323,128,8,62437:1:0:0:40:normal-hitclap.wav
109,192,62437,128,8,62551:1:0:0:40:normal-hitclap.wav
182,192,62437,128,8,62551:1:0:0:40:normal-hitclap.wav
109,192,62664,128,8,62891:1:0:0:40:normal-hitclap.wav
329,192,62664,128,8,62891:1:0:0:40:normal-hitclap.wav
256,192,62664,128,8,62891:1:0:0:40:normal-hitclap.wav
36,192,62891,1,8,1:0:0:40:normal-hitclap.wav
182,192,62891,1,8,1:0:0:40:normal-hitclap.wav
329,192,63005,1,8,1:0:0:40:normal-hitclap.wav
402,192,63005,1,8,1:0:0:40:normal-hitclap.wav
475,192,63005,1,8,1:0:0:40:normal-hitclap.wav
36,192,63232,128,8,63460:1:0:0:40:normal-hitclap.wav
109,192,63232,128,8,63460:1:0:0:40:normal-hitclap.wav
329,192,63232,128,8,63460:1:0:0:40:normal-hitclap.wav
182,192,63460,1,8,1:0:0:40:normal-hitclap.wav
256,192,63460,1,8,1:0:0:40:normal-hitclap.wav
182,192,63687,1,8,1:0:0:40:normal-hitclap.wav
109,192,63687,1,8,1:0:0:40:normal-hitclap.wav
329,192,63687,1,8,1:0:0:40:normal-hitclap.wav
36,192,63914,1,8,1:0:0:40:normal-hitclap.wav
109,192,63914,1,8,1:0:0:40:normal-hitclap.wav
402,192,64141,128,8,64369:1:0:0:40:normal-hitclap.wav
475,192,64141,128,8,64369:1:0:0:40:normal-hitclap.wav
256,192,64141,128,8,64369:1:0:0:40:normal-hitclap.wav
109,192,64369,1,8,1:0:0:40:normal-hitclap.wav
329,192,64482,1,8,1:0:0:40:normal-hitclap.wav
402,192,64482,1,8,1:0:0:40:normal-hitclap.wav
182,192,64482,1,8,1:0:0:40:normal-hitclap.wav
402,192,64710,1,8,1:0:0:40:normal-hitclap.wav
109,192,64823,1,8,1:0:0:40:normal-hitclap.wav
329,192,64823,1,8,1:0:0:40:normal-hitclap.wav
182,192,64823,1,8,1:0:0:40:normal-hitclap.wav
36,192,65051,128,8,65278:1:0:0:40:normal-hitclap.wav
475,192,65051,128,8,65278:1:0:0:40:normal-hitclap.wav
402,192,65051,128,8,65278:1:0:0:40:normal-hitclap.wav
109,192,65278,1,8,1:0:0:40:normal-hitclap.wav
329,192,65278,1,8,1:0:0:40:normal-hitclap.wav
36,192,65505,1,8,1:0:0:40:normal-hitclap.wav
109,192,65505,1,8,1:0:0:40:normal-hitclap.wav
182,192,65505,1,8,1:0:0:40:normal-hitclap.wav
402,192,65619,1,8,1:0:0:40:normal-hitclap.wav
329,192,65732,1,8,1:0:0:40:normal-hitclap.wav
109,192,65732,1,8,1:0:0:40:normal-hitclap.wav
182,192,65846,1,8,1:0:0:40:normal-hitclap.wav
402,192,65960,1,8,1:0:0:40:normal-hitclap.wav
475,192,65960,1,8,1:0:0:40:normal-hitclap.wav
109,192,65960,1,8,1:0:0:40:normal-hitclap.wav
329,192,66073,1,8,1:0:0:40:normal-hitclap.wav
36,192,66187,1,8,1:0:0:40:normal-hitclap.wav
182,192,66187,1,8,1:0:0:40:normal-hitclap.wav
475,192,66301,1,8,1:0:0:40:normal-hitclap.wav
109,192,66414,128,8,66641:1:0:0:40:normal-hitclap.wav
329,192,66414,128,8,66641:1:0:0:40:normal-hitclap.wav
256,192,66414,128,8,66641:1:0:0:40:normal-hitclap.wav
475,192,66641,128,8,67323:1:0:0:40:normal-hitclap.wav
182,192,66641,128,8,67323:1:0:0:40:normal-hitclap.wav
402,192,66641,128,8,67323:1:0:0:40:normal-hitclap.wav
36,192,67323,1,8,1:0:0:40:normal-hitclap.wav
109,192,67323,1,8,1:0:0:40:normal-hitclap.wav
256,192,67551,1,8,1:0:0:40:normal-hitclap.wav
329,192,67551,1,8,1:0:0:40:normal-hitclap.wav
329,192,67778,128,8,67891:1:0:0:40:normal-hitclap.wav
475,192,67778,128,8,67891:1:0:0:40:normal-hitclap.wav
402,192,67778,128,8,67891:1:0:0:40:normal-hitclap.wav
36,192,67891,128,8,68005:1:0:0:40:normal-hitclap.wav
109,192,67891,128,8,68005:1:0:0:40:normal-hitclap.wav
402,192,68119,128,8,68346:1:0:0:40:normal-hitclap.wav
475,192,68119,128,8,68346:1:0:0:40:normal-hitclap.wav
109,192,68119,128,8,68346:1:0:0:40:normal-hitclap.wav
182,192,68346,1,8,1:0:0:40:normal-hitclap.wav
329,192,68346,1,8,1:0:0:40:normal-hitclap.wav
475,192,68460,1,8,1:0:0:40:normal-hitclap.wav
256,192,68687,128,8,68914:1:0:0:40:normal-hitclap.wav
36,192,68687,128,8,68914:1:0:0:40:normal-hitclap.wav
109,192,68687,128,8,68914:1:0:0:40:normal-hitclap.wav
182,192,68914,1,8,1:0:0:40:normal-hitclap.wav
329,192,68914,1,8,1:0:0:40:normal-hitclap.wav
402,192,68914,1,8,1:0:0:40:normal-hitclap.wav
109,192,69141,1,8,1:0:0:40:normal-hitclap.wav
402,192,69141,1,8,1:0:0:40:normal-hitclap.wav
475,192,69141,1,8,1:0:0:40:normal-hitclap.wav
329,192,69369,1,8,1:0:0:40:normal-hitclap.wav
402,192,69369,1,8,1:0:0:40:normal-hitclap.wav
256,192,69596,128,8,69710:1:0:0:40:normal-hitclap.wav
182,192,69596,128,8,69710:1:0:0:40:normal-hitclap.wav
36,192,69596,128,8,69710:1:0:0:40:normal-hitclap.wav
402,192,69710,128,8,69823:1:0:0:40:normal-hitclap.wav
329,192,69710,128,8,69823:1:0:0:40:normal-hitclap.wav
402,192,69937,128,8,70164:1:0:0:40:normal-hitclap.wav
256,192,69937,128,8,70164:1:0:0:40:normal-hitclap.wav
109,192,69937,128,8,70164:1:0:0:40:normal-hitclap.wav
475,192,70164,1,8,1:0:0:40:normal-hitclap.wav
36,192,70164,1,8,1:0:0:40:normal-hitclap.wav
402,192,70278,1,8,1:0:0:40:normal-hitclap.wav
109,192,70278,1,8,1:0:0:40:normal-hitclap.wav
402,192,70505,128,8,70732:1:0:0:40:normal-hitclap.wav
475,192,70505,128,8,70732:1:0:0:40:normal-hitclap.wav
109,192,70505,128,8,70732:1:0:0:40:normal-hitclap.wav
36,192,70505,128,8,70732:1:0:0:40:normal-hitclap.wav
182,192,70732,1,8,1:0:0:40:normal-hitclap.wav
329,192,70732,1,8,1:0:0:40:normal-hitclap.wav
475,192,70960,1,8,1:0:0:40:normal-hitclap.wav
402,192,70960,1,8,1:0:0:40:normal-hitclap.wav
256,192,70960,1,8,1:0:0:40:normal-hitclap.wav
36,192,71187,1,8,1:0:0:40:normal-hitclap.wav
109,192,71187,1,8,1:0:0:40:normal-hitclap.wav
182,192,71187,1,8,1:0:0:40:normal-hitclap.wav
475,192,71414,128,8,71641:1:0:0:40:normal-hitclap.wav
329,192,71414,128,8,71641:1:0:0:40:normal-hitclap.wav
36,192,71641,1,8,1:0:0:40:normal-hitclap.wav
402,192,71641,1,8,1:0:0:40:normal-hitclap.wav
109,192,71755,1,8,1:0:0:40:normal-hitclap.wav
402,192,71982,1,8,1:0:0:40:normal-hitclap.wav
329,192,71982,1,8,1:0:0:40:normal-hitclap.wav
182,192,71982,1,8,1:0:0:40:normal-hitclap.wav
182,192,72210,1,8,1:0:0:40:normal-hitclap.wav
402,192,72210,1,8,1:0:0:40:normal-hitclap.wav
256,192,72323,128,8,72551:1:0:0:40:normal-hitclap.wav
36,192,72323,128,8,72551:1:0:0:40:normal-hitclap.wav
109,192,72551,1,8,1:0:0:40:normal-hitclap.wav
329,192,72551,1,8,1:0:0:40:normal-hitclap.wav
402,192,72551,1,8,1:0:0:40:normal-hitclap.wav
475,192,72778,1,8,1:0:0:40:normal-hitclap.wav
402,192,72778,1,8,1:0:0:40:normal-hitclap.wav
329,192,72778,1,8,1:0:0:40:normal-hitclap.wav
182,192,73005,1,8,1:0:0:40:normal-hitclap.wav
109,192,73005,1,8,1:0:0:40:normal-hitclap.wav
475,192,73232,1,8,1:0:0:40:normal-hitclap.wav
182,192,73232,1,8,1:0:0:40:normal-hitclap.wav
402,192,73232,1,8,1:0:0:40:normal-hitclap.wav
109,192,73346,1,8,1:0:0:40:normal-hitclap.wav
329,192,73573,1,8,1:0:0:40:normal-hitclap.wav
402,192,73573,1,8,1:0:0:40:normal-hitclap.wav
36,192,73573,1,8,1:0:0:40:normal-hitclap.wav
182,192,73801,1,8,1:0:0:40:normal-hitclap.wav
329,192,73914,1,8,1:0:0:40:normal-hitclap.wav
402,192,73914,1,8,1:0:0:40:normal-hitclap.wav
475,192,73914,1,8,1:0:0:40:normal-hitclap.wav
256,192,74028,1,8,1:0:0:40:normal-hitclap.wav
36,192,74141,1,8,1:0:0:40:normal-hitclap.wav
182,192,74141,1,8,1:0:0:40:normal-hitclap.wav
109,192,74255,1,8,1:0:0:40:normal-hitclap.wav
329,192,74369,1,8,1:0:0:40:normal-hitclap.wav
475,192,74369,1,8,1:0:0:40:normal-hitclap.wav
402,192,74369,1,8,1:0:0:40:normal-hitclap.wav
182,192,74482,1,8,1:0:0:40:normal-hitclap.wav
36,192,74596,1,8,1:0:0:40:normal-hitclap.wav
329,192,74596,128,8,75505:1:0:0:40:normal-hitclap.wav
182,192,74823,1,8,1:0:0:40:normal-hitclap.wav
475,192,74823,1,8,1:0:0:40:normal-hitclap.wav
402,192,75051,1,8,1:0:0:40:normal-hitclap.wav
475,192,75051,1,8,1:0:0:40:normal-hitclap.wav
256,192,75164,1,8,1:0:0:40:normal-hitclap.wav
182,192,75164,1,8,1:0:0:40:normal-hitclap.wav
36,192,75391,1,8,1:0:0:40:normal-hitclap.wav
182,192,75505,128,8,76414:1:0:0:40:normal-hitclap.wav
109,192,75505,1,8,1:0:0:40:normal-hitclap.wav
256,192,75732,1,8,1:0:0:40:normal-hitclap.wav
402,192,75960,1,8,1:0:0:40:normal-hitclap.wav
475,192,75960,1,8,1:0:0:40:normal-hitclap.wav
329,192,76187,1,8,1:0:0:40:normal-hitclap.wav
256,192,76187,1,8,1:0:0:40:normal-hitclap.wav
402,192,76414,128,8,78232:1:0:0:40:normal-hitclap.wav
475,192,76414,1,8,1:0:0:40:normal-hitclap.wav
109,192,76414,1,8,1:0:0:40:normal-hitclap.wav
182,192,76641,1,8,1:0:0:40:normal-hitclap.wav
329,192,76869,1,8,1:0:0:40:normal-hitclap.wav
109,192,76869,1,8,1:0:0:40:normal-hitclap.wav
256,192,76869,1,8,1:0:0:40:normal-hitclap.wav
256,192,77096,1,8,1:0:0:40:normal-hitclap.wav
182,192,77096,1,8,1:0:0:40:normal-hitclap.wav
36,192,77210,1,8,1:0:0:40:normal-hitclap.wav
109,192,77437,1,8,1:0:0:40:normal-hitclap.wav
182,192,77437,1,8,1:0:0:40:normal-hitclap.wav
329,192,77551,1,8,1:0:0:40:normal-hitclap.wav
475,192,77778,1,8,1:0:0:40:normal-hitclap.wav
329,192,77778,1,8,1:0:0:40:normal-hitclap.wav
256,192,77778,1,8,1:0:0:40:normal-hitclap.wav
109,192,78005,1,8,1:0:0:40:normal-hitclap.wav
36,192,78005,1,8,1:0:0:40:normal-hitclap.wav
36,192,78232,128,8,80051:1:0:0:40:normal-hitclap.wav
475,192,78232,128,8,80051:1:0:0:40:normal-hitclap.wav
109,192,78687,1,8,1:0:0:40:normal-hitclap.wav
256,192,78687,1,8,1:0:0:40:normal-hitclap.wav
329,192,78801,1,8,1:0:0:40:normal-hitclap.wav
402,192,78801,1,8,1:0:0:40:normal-hitclap.wav
402,192,79028,1,8,1:0:0:40:normal-hitclap.wav
329,192,79028,1,8,1:0:0:40:normal-hitclap.wav
182,192,79028,1,8,1:0:0:40:normal-hitclap.wav
109,192,79255,1,8,1:0:0:40:normal-hitclap.wav
329,192,79255,1,8,1:0:0:40:normal-hitclap.wav
109,192,79482,1,8,1:0:0:40:normal-hitclap.wav
182,192,79482,1,8,1:0:0:40:normal-hitclap.wav
402,192,79482,1,8,1:0:0:40:normal-hitclap.wav
109,192,79710,1,8,1:0:0:40:normal-hitclap.wav
256,192,79710,1,8,1:0:0:40:normal-hitclap.wav
402,192,79710,1,8,1:0:0:40:normal-hitclap.wav
256,192,79937,1,8,1:0:0:40:normal-hitclap.wav
182,192,79937,1,8,1:0:0:40:normal-hitclap.wav
109,192,80051,128,8,80391:1:0:0:40:normal-hitclap.wav
329,192,80051,128,8,80391:1:0:0:40:normal-hitclap.wav
402,192,80051,128,8,80391:1:0:0:40:normal-hitclap.wav
475,192,80505,128,8,81755:1:0:0:40:normal-hitclap.wav
402,192,80505,128,8,81755:1:0:0:40:normal-hitclap.wav
36,192,80505,128,8,81755:1:0:0:40:normal-hitclap.wav
36,192,81869,128,8,82096:1:0:0:40:normal-hitclap.wav
329,192,81869,128,8,82096:1:0:0:40:normal-hitclap.wav
402,192,81869,128,8,82096:1:0:0:40:normal-hitclap.wav
109,192,82096,1,8,1:0:0:40:normal-hitclap.wav
182,192,82323,1,8,1:0:0:40:normal-hitclap.wav
402,192,82323,1,8,1:0:0:40:normal-hitclap.wav
475,192,82323,1,8,1:0:0:40:normal-hitclap.wav
329,192,82551,1,8,1:0:0:40:normal-hitclap.wav
182,192,82664,1,8,1:0:0:40:normal-hitclap.wav
109,192,82664,1,8,1:0:0:40:normal-hitclap.wav
256,192,82891,1,8,1:0:0:40:normal-hitclap.wav
402,192,83005,1,8,1:0:0:40:normal-hitclap.wav
475,192,83005,1,8,1:0:0:40:normal-hitclap.wav
36,192,83232,1,8,1:0:0:40:normal-hitclap.wav
402,192,83232,1,8,1:0:0:40:normal-hitclap.wav
182,192,83232,1,8,1:0:0:40:normal-hitclap.wav
329,192,83232,1,8,1:0:0:40:normal-hitclap.wav
109,192,83460,1,8,1:0:0:40:normal-hitclap.wav
256,192,83460,1,8,1:0:0:40:normal-hitclap.wav
402,192,83687,128,8,83914:1:0:0:40:normal-hitclap.wav
475,192,83687,128,8,83914:1:0:0:40:normal-hitclap.wav
182,192,83687,128,8,83914:1:0:0:40:normal-hitclap.wav
329,192,83687,128,8,83914:1:0:0:40:normal-hitclap.wav
109,192,83914,1,8,1:0:0:40:normal-hitclap.wav
402,192,84141,1,8,1:0:0:40:normal-hitclap.wav
182,192,84141,1,8,1:0:0:40:normal-hitclap.wav
475,192,84141,1,8,1:0:0:40:normal-hitclap.wav
329,192,84369,1,8,1:0:0:40:normal-hitclap.wav
182,192,84369,1,8,1:0:0:40:normal-hitclap.wav
109,192,84482,1,8,1:0:0:40:normal-hitclap.wav
36,192,84482,1,8,1:0:0:40:normal-hitclap.wav
182,192,84710,1,8,1:0:0:40:normal-hitclap.wav
329,192,84710,1,8,1:0:0:40:normal-hitclap.wav
402,192,84823,1,8,1:0:0:40:normal-hitclap.wav
475,192,84823,1,8,1:0:0:40:normal-hitclap.wav
36,192,85051,1,8,1:0:0:40:normal-hitclap.wav
402,192,85051,1,8,1:0:0:40:normal-hitclap.wav
109,192,85051,1,8,1:0:0:40:normal-hitclap.wav
182,192,85278,1,8,1:0:0:40:normal-hitclap.wav
256,192,85278,1,8,1:0:0:40:normal-hitclap.wav
329,192,85278,1,8,1:0:0:40:normal-hitclap.wav
402,192,85505,128,8,89141:1:0:0:40:normal-hitclap.wav
109,192,85505,128,8,89141:1:0:0:40:normal-hitclap.wav
475,192,85505,128,8,89141:1:0:0:40:normal-hitclap.wav
36,192,85505,128,8,89141:1:0:0:40:normal-hitclap.wav
