osu file format v14

[General]
AudioFilename: audio.mp3
AudioLeadIn: 0
PreviewTime: 51371
Countdown: 0
SampleSet: Normal
StackLeniency: 0.7
Mode: 1
LetterboxInBreaks: 0
WidescreenStoryboard: 1

[Editor]
Bookmarks: 7393,36484
DistanceSpacing: 0.6
BeatDivisor: 4
GridSize: 32
TimelineZoom: 1.2

[Metadata]
Title:BLOODY STREAM (TV Size)
TitleUnicode:BLOODY STREAM (TV Size)
Artist:Coda
ArtistUnicode:Coda
Creator:tadahitotsu
Version:MUZUKASHII
Source:ジョジョの奇妙な冒険
Tags:JoJo's Bizarre Adventure JoJo no Kimyou na Bouken anime japanese opening jazz battle tendency op 戦闘潮流 sentou chouryuu joestar joseph caesar zeppeli ryxliee
BeatmapID:3529562
BeatmapSetID:1727093

[Difficulty]
HPDrainRate:6.5
CircleSize:7
OverallDifficulty:4
ApproachRate:10
SliderMultiplier:1.4
SliderTickRate:1

[Events]
//Background and Video events
0,0,"caesar.jpg",0,50
//Break Periods
2,36684,43307
//Storyboard Layer 0 (Background)
//Storyboard Layer 1 (Fail)
//Storyboard Layer 2 (Pass)
//Storyboard Layer 3 (Foreground)
//Storyboard Layer 4 (Overlay)
//Storyboard Sound Samples

[TimingPoints]
121,454.545454545455,4,1,0,80,1,0
121,-100,4,1,0,80,0,0
5348,-90.9090909090909,4,1,0,80,0,0
6484,-100,4,1,0,80,0,0
7393,-100,4,1,0,70,0,0
49552,-98.0392156862745,4,1,0,70,0,0
49780,-96.1538461538461,4,1,0,70,0,0
50007,-94.3396226415094,4,1,0,70,0,0
50234,-92.5925925925926,4,1,0,70,0,0
50461,-90.9090909090909,4,1,0,70,0,0
50689,-89.2857142857143,4,1,0,70,0,0
51939,-100,4,1,0,70,0,0
52848,-100,4,1,0,80,0,1
66711,-90.9090909090909,4,1,0,80,0,1
67393,-100,4,1,0,80,0,1
80575,-100,4,1,0,80,0,0
81257,-100,4,1,0,80,0,0
81939,-100,4,1,0,80,0,1
85575,-100,4,1,0,65,0,0
89211,-100,4,1,0,50,0,0

[HitObjects]
152,176,121,5,8,0:0:0:0:
152,176,234,1,8,0:0:0:0:
152,176,348,1,8,0:0:0:0:
257,215,575,1,8,0:0:0:0:
257,215,916,1,8,0:0:0:0:
265,195,1143,1,8,0:0:0:0:
359,184,1371,1,0,0:0:0:0:
228,78,1484,1,0,0:0:0:0:
194,128,1711,1,0,0:0:0:0:
194,128,1939,1,8,0:0:0:0:
194,128,2052,1,8,0:0:0:0:
194,128,2166,1,8,0:0:0:0:
203,121,2393,1,8,0:0:0:0:
203,121,2734,1,8,0:0:0:0:
203,121,2961,1,8,0:0:0:0:
203,121,3189,1,0,0:0:0:0:
203,121,3302,1,0,0:0:0:0:
203,121,3530,1,8,0:0:0:0:
203,121,3757,1,8,0:0:0:0:
250,215,3871,1,8,0:0:0:0:
250,215,3984,1,8,0:0:0:0:
250,215,4211,1,8,0:0:0:0:
158,118,4552,1,8,0:0:0:0:
158,118,4780,1,8,0:0:0:0:
158,118,5007,1,0,0:0:0:0:
163,109,5121,1,0,0:0:0:0:
163,128,5348,1,12,0:0:0:0:
150,172,6484,1,0,0:0:0:0:
150,172,6711,1,0,0:0:0:0:
150,172,6939,1,8,0:0:0:0:
150,172,7052,1,8,0:0:0:0:
150,172,7166,1,8,0:0:0:0:
150,172,7393,1,4,0:0:0:0:
239,168,7848,1,8,0:0:0:0:
296,201,8189,1,8,0:0:0:0:
200,71,8416,1,8,0:0:0:0:
332,123,8757,1,8,0:0:0:0:
233,75,8984,1,0,0:0:0:0:
233,75,9098,1,0,0:0:0:0:
303,97,9211,1,0,0:0:0:0:
299,69,9666,1,8,0:0:0:0:
200,71,10007,1,8,0:0:0:0:
200,71,10234,1,8,0:0:0:0:
187,70,10575,1,0,0:0:0:0:
187,70,10689,1,0,0:0:0:0:
187,70,10802,1,0,0:0:0:0:
192,72,11030,1,0,0:0:0:0:
192,72,11484,1,8,0:0:0:0:
263,75,11825,1,8,0:0:0:0:
196,60,12052,1,8,0:0:0:0:
161,57,12166,1,8,0:0:0:0:
196,60,12393,1,8,0:0:0:0:
181,128,12621,1,0,0:0:0:0:
181,128,12734,1,0,0:0:0:0:
224,160,12848,1,0,0:0:0:0:
224,160,13302,1,8,0:0:0:0:
224,128,14211,1,8,0:0:0:0:
224,96,14666,1,4,0:0:0:0:
288,160,14893,1,8,0:0:0:0:
288,160,15007,1,8,0:0:0:0:
288,160,15121,1,8,0:0:0:0:
195,31,15348,1,0,0:0:0:0:
288,160,15461,1,0,0:0:0:0:
72,133,15689,1,8,0:0:0:0:
224,96,15916,1,8,0:0:0:0:
72,133,16030,1,8,0:0:0:0:
210,104,16257,1,8,0:0:0:0:
210,104,16484,1,0,0:0:0:0:
201,75,16939,1,8,0:0:0:0:
234,70,17280,1,8,0:0:0:0:
234,70,17507,1,8,0:0:0:0:
194,28,17621,1,8,0:0:0:0:
234,70,17848,1,8,0:0:0:0:
234,70,18075,1,0,0:0:0:0:
241,69,18189,1,0,0:0:0:0:
234,70,18302,1,0,0:0:0:0:
241,68,18757,1,8,0:0:0:0:
241,68,19098,1,8,0:0:0:0:
241,68,19325,1,8,0:0:0:0:
137,69,19439,1,8,0:0:0:0:
193,120,19666,1,0,0:0:0:0:
193,120,19780,1,0,0:0:0:0:
195,109,19893,1,0,0:0:0:0:
241,68,20121,1,8,0:0:0:0:
234,42,20461,1,8,0:0:0:0:
239,144,20802,1,0,0:0:0:0:
227,122,21484,1,8,0:0:0:0:
227,122,21598,1,8,0:0:0:0:
227,122,21711,1,8,0:0:0:0:
150,172,21939,1,4,0:0:0:0:
239,168,22394,1,8,0:0:0:0:
296,201,22735,1,8,0:0:0:0:
200,71,22962,1,8,0:0:0:0:
332,123,23303,1,8,0:0:0:0:
233,75,23530,1,0,0:0:0:0:
233,75,23644,1,0,0:0:0:0:
303,97,23757,1,0,0:0:0:0:
299,69,24212,1,8,0:0:0:0:
200,71,24553,1,8,0:0:0:0:
200,71,24780,1,8,0:0:0:0:
187,70,25121,1,0,0:0:0:0:
187,70,25235,1,0,0:0:0:0:
187,70,25348,1,0,0:0:0:0:
192,72,25576,1,0,0:0:0:0:
192,72,26030,1,8,0:0:0:0:
263,75,26371,1,8,0:0:0:0:
196,60,26598,1,8,0:0:0:0:
161,57,26712,1,8,0:0:0:0:
196,60,26939,1,8,0:0:0:0:
181,128,27167,1,0,0:0:0:0:
181,128,27280,1,0,0:0:0:0:
224,160,27394,1,0,0:0:0:0:
224,160,27848,1,8,0:0:0:0:
224,128,28302,1,8,0:0:0:0:
224,128,28757,1,8,0:0:0:0:
224,96,29212,1,4,0:0:0:0:
288,160,29667,1,8,0:0:0:0:
148,82,29780,1,8,0:0:0:0:
288,160,30007,1,8,0:0:0:0:
210,9,30348,1,8,0:0:0:0:
72,133,30576,1,0,0:0:0:0:
210,104,30689,1,0,0:0:0:0:
226,113,30802,1,0,0:0:0:0:
210,104,31030,1,0,0:0:0:0:
201,75,31485,1,8,0:0:0:0:
234,70,31826,1,8,0:0:0:0:
234,70,32053,1,8,0:0:0:0:
194,28,32167,1,8,0:0:0:0:
234,70,32394,1,8,0:0:0:0:
234,70,32621,1,0,0:0:0:0:
241,69,32735,1,0,0:0:0:0:
234,70,32848,1,0,0:0:0:0:
241,68,33303,1,8,0:0:0:0:
241,68,33644,1,8,0:0:0:0:
241,68,33871,1,8,0:0:0:0:
137,69,33985,1,8,0:0:0:0:
241,68,34212,1,8,0:0:0:0:
241,68,34667,1,8,0:0:0:0:
234,42,35007,1,8,0:0:0:0:
239,144,35348,1,0,0:0:0:0:
227,122,36030,1,8,0:0:0:0:
227,122,36144,1,8,0:0:0:0:
227,122,36257,1,8,0:0:0:0:
261,96,36484,1,4,0:0:0:0:
256,192,43757,12,0,46939,0:0:0:0:
256,155,47393,5,0,0:0:0:0:
256,155,47621,1,0,0:0:0:0:
256,155,47848,1,8,0:0:0:0:
229,78,47961,1,8,0:0:0:0:
231,141,48075,1,8,0:0:0:0:
231,141,48302,1,0,0:0:0:0:
231,141,48530,1,0,0:0:0:0:
231,141,48757,1,8,0:0:0:0:
238,67,48871,1,8,0:0:0:0:
231,141,48984,1,8,0:0:0:0:
231,141,49211,1,8,0:0:0:0:
142,102,49325,1,8,0:0:0:0:
263,105,49552,1,12,0:0:0:0:
228,68,49780,1,12,0:0:0:0:
263,105,50007,1,4,0:0:0:0:
228,68,50235,1,4,0:0:0:0:
263,105,50461,1,12,0:0:0:0:
228,68,50689,1,12,0:0:0:0:
185,117,51939,1,0,0:0:0:0:
185,117,52052,1,0,0:0:0:0:
185,117,52166,1,0,0:0:0:0:
194,60,52393,1,8,0:0:0:0:
194,60,52507,1,8,0:0:0:0:
194,60,52621,1,8,0:0:0:0:
237,178,52848,1,4,0:0:0:0:
237,178,53075,1,0,0:0:0:0:
241,161,53302,1,8,0:0:0:0:
241,161,53416,1,8,0:0:0:0:
241,161,53643,1,8,0:0:0:0:
244,159,53984,1,0,0:0:0:0:
241,161,54211,1,8,0:0:0:0:
241,161,54439,1,8,0:0:0:0:
241,161,54666,1,0,0:0:0:0:
198,136,54893,1,0,0:0:0:0:
198,136,55121,1,8,0:0:0:0:
198,136,55234,1,8,0:0:0:0:
198,136,55461,1,8,0:0:0:0:
150,100,55802,1,0,0:0:0:0:
150,100,55916,1,0,0:0:0:0:
150,100,56030,1,0,0:0:0:0:
245,83,56257,1,8,0:0:0:0:
245,83,56484,1,4,0:0:0:0:
174,37,56711,1,8,0:0:0:0:
192,153,56825,1,8,0:0:0:0:
168,153,56939,1,8,0:0:0:0:
224,144,57280,1,8,0:0:0:0:
245,83,57507,1,8,0:0:0:0:
245,83,57734,1,0,0:0:0:0:
245,83,57848,1,0,0:0:0:0:
253,82,58075,1,0,0:0:0:0:
253,82,58302,1,8,0:0:0:0:
261,71,58530,1,8,0:0:0:0:
261,71,58757,1,0,0:0:0:0:
261,71,58871,1,0,0:0:0:0:
261,71,59098,1,8,0:0:0:0:
321,182,60121,1,4,0:0:0:0:
283,156,60348,1,0,0:0:0:0:
285,148,60575,1,8,0:0:0:0:
285,148,60689,1,8,0:0:0:0:
130,160,60916,1,8,0:0:0:0:
220,137,61257,1,0,0:0:0:0:
220,137,61484,1,8,0:0:0:0:
22,115,61711,1,0,0:0:0:0:
220,137,61939,1,8,0:0:0:0:
223,126,62393,1,8,0:0:0:0:
223,126,62507,1,8,0:0:0:0:
223,126,62734,1,8,0:0:0:0:
241,79,63075,1,0,0:0:0:0:
241,79,63302,1,8,0:0:0:0:
241,79,63530,1,8,0:0:0:0:
169,54,63643,1,8,0:0:0:0:
241,79,63757,1,8,0:0:0:0:
256,104,64439,1,8,0:0:0:0:
221,69,64666,1,0,0:0:0:0:
256,104,64893,1,0,0:0:0:0:
256,104,65121,1,8,0:0:0:0:
256,104,65234,1,8,0:0:0:0:
256,104,65348,1,8,0:0:0:0:
256,104,65575,1,8,0:0:0:0:
284,148,65916,1,0,0:0:0:0:
284,148,66257,1,8,0:0:0:0:
217,83,66711,1,12,0:0:0:0:
237,178,67393,1,4,0:0:0:0:
237,178,67620,1,0,0:0:0:0:
241,161,67847,1,8,0:0:0:0:
241,161,67961,1,8,0:0:0:0:
241,161,68188,1,8,0:0:0:0:
244,159,68529,1,0,0:0:0:0:
241,161,68756,1,8,0:0:0:0:
241,161,68984,1,8,0:0:0:0:
241,161,69211,1,0,0:0:0:0:
198,136,69438,1,0,0:0:0:0:
198,136,69666,1,8,0:0:0:0:
198,136,69779,1,8,0:0:0:0:
198,136,70006,1,8,0:0:0:0:
150,100,70347,1,0,0:0:0:0:
150,100,70461,1,0,0:0:0:0:
150,100,70575,1,0,0:0:0:0:
245,83,70802,1,8,0:0:0:0:
245,83,71029,1,4,0:0:0:0:
174,37,71256,1,8,0:0:0:0:
192,153,71370,1,8,0:0:0:0:
168,153,71484,1,8,0:0:0:0:
224,144,71825,1,8,0:0:0:0:
245,83,72052,1,8,0:0:0:0:
245,83,72279,1,0,0:0:0:0:
245,83,72393,1,0,0:0:0:0:
253,82,72620,1,0,0:0:0:0:
253,82,72847,1,8,0:0:0:0:
261,71,73075,1,8,0:0:0:0:
261,71,73302,1,0,0:0:0:0:
261,71,73416,1,0,0:0:0:0:
261,71,73643,1,8,0:0:0:0:
314,164,74211,1,8,0:0:0:0:
321,182,74666,1,4,0:0:0:0:
283,156,74893,1,0,0:0:0:0:
285,148,75120,1,8,0:0:0:0:
285,148,75234,1,8,0:0:0:0:
130,160,75461,1,8,0:0:0:0:
220,137,75802,1,0,0:0:0:0:
220,137,76029,1,8,0:0:0:0:
22,115,76256,1,8,0:0:0:0:
220,137,76484,1,0,0:0:0:0:
81,79,76711,1,8,0:0:0:0:
223,126,76938,1,8,0:0:0:0:
223,126,77052,1,8,0:0:0:0:
223,126,77279,1,8,0:0:0:0:
241,79,77620,1,0,0:0:0:0:
241,79,77847,1,8,0:0:0:0:
241,79,78075,1,8,0:0:0:0:
169,54,78188,1,8,0:0:0:0:
241,79,78302,1,8,0:0:0:0:
172,85,78757,1,8,0:0:0:0:
172,85,78871,1,8,0:0:0:0:
221,69,79098,1,8,0:0:0:0:
256,104,79325,1,0,0:0:0:0:
256,104,79553,1,0,0:0:0:0:
256,104,79780,1,8,0:0:0:0:
256,104,80007,1,8,0:0:0:0:
224,77,80121,1,8,0:0:0:0:
284,148,80575,1,4,0:0:0:0:
276,111,81257,5,0,0:0:0:0:
282,109,81711,1,0,0:0:0:0:
276,111,81939,1,12,0:0:0:0:
221,131,82393,1,8,0:0:0:0:
223,120,82621,1,8,0:0:0:0:
149,50,82734,1,8,0:0:0:0:
223,120,82848,1,8,0:0:0:0:
223,120,83075,1,0,0:0:0:0:
163,82,83302,1,8,0:0:0:0:
219,58,83530,1,0,0:0:0:0:
219,58,83643,1,0,0:0:0:0:
163,82,83757,1,0,0:0:0:0:
187,11,83984,1,0,0:0:0:0:
181,76,84211,1,8,0:0:0:0:
182,75,84439,1,8,0:0:0:0:
152,71,84552,1,8,0:0:0:0:
182,75,84666,1,8,0:0:0:0:
181,76,84893,1,0,0:0:0:0:
181,76,85121,1,8,0:0:0:0:
182,75,85348,1,0,0:0:0:0:
256,192,85575,12,0,89211,0:0:0:0:
