osu file format v14

[General]
AudioFilename: audio.mp3
AudioLeadIn: 0
PreviewTime: 51371
Countdown: 0
SampleSet: Normal
StackLeniency: 0.7
Mode: 1
LetterboxInBreaks: 0
WidescreenStoryboard: 1

[Editor]
Bookmarks: 7393,36484
DistanceSpacing: 0.6
BeatDivisor: 4
GridSize: 32
TimelineZoom: 1.2

[Metadata]
Title:BLOODY STREAM (TV Size)
TitleUnicode:BLOODY STREAM (TV Size)
Artist:Coda
ArtistUnicode:Coda
Creator:tadahitotsu
Version:FUTSUU
Source:ジョジョの奇妙な冒険
Tags:JoJo's Bizarre Adventure JoJo no Kimyou na Bouken anime japanese opening jazz battle tendency op 戦闘潮流 sentou chouryuu joestar joseph caesar zeppeli ryxliee
BeatmapID:3529561
BeatmapSetID:1727093

[Difficulty]
HPDrainRate:7.5
CircleSize:7
OverallDifficulty:3
ApproachRate:10
SliderMultiplier:1.4
SliderTickRate:1

[Events]
//Background and Video events
0,0,"caesar.jpg",0,50
//Break Periods
2,36684,43307
//Storyboard Layer 0 (Background)
//Storyboard Layer 1 (Fail)
//Storyboard Layer 2 (Pass)
//Storyboard Layer 3 (Foreground)
//Storyboard Layer 4 (Overlay)
//Storyboard Sound Samples

[TimingPoints]
121,454.545454545455,4,1,0,80,1,0
121,-100,4,1,0,80,0,0
5348,-90.9090909090909,4,1,0,80,0,0
6484,-100,4,1,0,80,0,0
7393,-100,4,1,0,70,0,0
52848,-100,4,1,0,80,0,1
66711,-90.9090909090909,4,1,0,80,0,1
67393,-100,4,1,0,80,0,1
80575,-100,4,1,0,80,0,0
81257,-100,4,1,0,80,0,0
81939,-100,4,1,0,80,0,1
85575,-100,4,1,0,65,0,0
89211,-100,4,1,0,50,0,0

[HitObjects]
152,176,121,5,8,0:0:0:0:
152,176,348,1,8,0:0:0:0:
257,215,575,1,8,0:0:0:0:
162,79,1030,1,0,0:0:0:0:
166,69,1371,1,0,0:0:0:0:
194,128,1711,1,0,0:0:0:0:
194,128,1939,1,8,0:0:0:0:
194,128,2166,1,8,0:0:0:0:
203,121,2393,1,8,0:0:0:0:
166,68,2848,1,0,0:0:0:0:
166,68,3189,1,8,0:0:0:0:
203,121,3530,1,0,0:0:0:0:
203,121,3757,1,8,0:0:0:0:
250,215,3984,1,8,0:0:0:0:
250,215,4211,1,8,0:0:0:0:
295,100,4552,1,0,0:0:0:0:
279,100,5007,1,8,0:0:0:0:
163,128,5348,1,12,0:0:0:0:
150,172,6484,1,0,0:0:0:0:
150,172,6711,1,0,0:0:0:0:
150,172,6939,1,8,0:0:0:0:
150,172,7166,1,8,0:0:0:0:
150,172,7393,1,4,0:0:0:0:
239,168,7848,1,8,0:0:0:0:
296,201,8189,1,8,0:0:0:0:
332,123,8757,1,8,0:0:0:0:
233,75,8984,1,0,0:0:0:0:
303,97,9211,1,0,0:0:0:0:
299,69,9666,1,8,0:0:0:0:
200,71,10007,1,8,0:0:0:0:
187,70,10575,1,8,0:0:0:0:
187,70,10802,1,0,0:0:0:0:
192,72,11030,1,0,0:0:0:0:
192,72,11484,1,8,0:0:0:0:
263,75,11825,1,8,0:0:0:0:
196,60,12393,1,8,0:0:0:0:
181,128,12621,1,0,0:0:0:0:
224,160,12848,1,8,0:0:0:0:
224,160,13302,1,8,0:0:0:0:
224,128,14211,1,8,0:0:0:0:
224,96,14666,1,4,0:0:0:0:
288,160,15121,1,8,0:0:0:0:
76,145,15461,1,8,0:0:0:0:
239,106,15802,1,0,0:0:0:0:
239,106,16030,1,8,0:0:0:0:
149,13,16257,1,8,0:0:0:0:
237,82,16484,1,0,0:0:0:0:
201,75,16939,1,8,0:0:0:0:
234,70,17280,1,8,0:0:0:0:
234,70,17848,1,8,0:0:0:0:
234,70,18075,1,0,0:0:0:0:
234,70,18302,1,0,0:0:0:0:
241,68,18757,1,8,0:0:0:0:
241,68,19098,1,8,0:0:0:0:
193,120,19666,1,0,0:0:0:0:
195,109,19893,1,0,0:0:0:0:
241,68,20121,1,8,0:0:0:0:
48,139,21484,1,8,0:0:0:0:
48,139,21711,1,8,0:0:0:0:
150,172,21939,1,4,0:0:0:0:
239,168,22394,1,8,0:0:0:0:
296,201,22735,1,8,0:0:0:0:
332,123,23303,1,8,0:0:0:0:
233,75,23530,1,0,0:0:0:0:
303,97,23757,1,0,0:0:0:0:
299,69,24212,1,8,0:0:0:0:
200,71,24553,1,8,0:0:0:0:
187,70,25121,1,8,0:0:0:0:
187,70,25348,1,0,0:0:0:0:
192,72,25576,1,0,0:0:0:0:
192,72,26030,1,8,0:0:0:0:
263,75,26371,1,8,0:0:0:0:
196,60,26939,1,8,0:0:0:0:
181,128,27167,1,0,0:0:0:0:
224,160,27394,1,8,0:0:0:0:
224,160,27848,1,8,0:0:0:0:
224,128,28757,1,8,0:0:0:0:
224,96,29212,1,4,0:0:0:0:
288,160,29667,1,8,0:0:0:0:
76,145,30007,1,8,0:0:0:0:
239,106,30348,1,0,0:0:0:0:
239,106,30576,1,8,0:0:0:0:
149,13,30803,1,0,0:0:0:0:
237,82,31030,1,8,0:0:0:0:
201,75,31485,1,8,0:0:0:0:
234,70,31826,1,8,0:0:0:0:
234,70,32394,1,8,0:0:0:0:
234,70,32621,1,8,0:0:0:0:
234,70,32848,1,0,0:0:0:0:
241,68,33303,1,8,0:0:0:0:
241,68,33644,1,8,0:0:0:0:
193,120,34212,1,0,0:0:0:0:
195,109,34439,1,0,0:0:0:0:
241,68,34667,1,8,0:0:0:0:
165,108,36030,1,8,0:0:0:0:
165,108,36484,1,4,0:0:0:0:
256,192,43757,12,0,46939,0:0:0:0:
256,155,47393,5,0,0:0:0:0:
256,155,47621,1,0,0:0:0:0:
256,155,47848,1,8,0:0:0:0:
231,141,48075,1,8,0:0:0:0:
231,141,48302,1,0,0:0:0:0:
231,141,48757,1,8,0:0:0:0:
256,192,49211,12,0,50689,0:0:0:0:
185,117,51939,5,0,0:0:0:0:
185,117,52166,1,0,0:0:0:0:
194,60,52393,1,0,0:0:0:0:
237,178,52848,1,4,0:0:0:0:
237,178,53075,1,0,0:0:0:0:
241,161,53302,1,8,0:0:0:0:
241,161,53643,1,8,0:0:0:0:
241,161,54211,1,8,0:0:0:0:
241,161,54439,1,8,0:0:0:0:
241,161,54666,1,0,0:0:0:0:
198,136,54893,1,0,0:0:0:0:
198,136,55121,1,8,0:0:0:0:
198,136,55461,1,8,0:0:0:0:
147,55,56030,1,0,0:0:0:0:
245,83,56257,1,8,0:0:0:0:
245,83,56484,1,4,0:0:0:0:
174,37,56711,1,8,0:0:0:0:
168,153,56939,1,8,0:0:0:0:
224,144,57280,1,8,0:0:0:0:
245,83,57848,1,0,0:0:0:0:
253,82,58075,1,0,0:0:0:0:
253,82,58302,1,8,0:0:0:0:
261,71,58530,1,8,0:0:0:0:
261,71,58757,1,0,0:0:0:0:
261,71,59098,1,8,0:0:0:0:
321,182,60121,1,4,0:0:0:0:
283,156,60348,1,0,0:0:0:0:
285,148,60575,1,8,0:0:0:0:
130,160,60916,1,8,0:0:0:0:
220,137,61484,1,8,0:0:0:0:
22,115,61711,1,0,0:0:0:0:
220,137,61939,1,8,0:0:0:0:
223,126,62393,1,8,0:0:0:0:
223,126,62734,1,8,0:0:0:0:
233,200,63075,1,0,0:0:0:0:
241,79,63302,1,0,0:0:0:0:
241,79,63530,1,8,0:0:0:0:
241,79,63757,1,8,0:0:0:0:
256,104,64439,1,8,0:0:0:0:
256,104,65121,1,8,0:0:0:0:
170,63,65348,1,8,0:0:0:0:
256,104,65575,1,8,0:0:0:0:
217,83,66711,1,12,0:0:0:0:
237,178,67393,1,4,0:0:0:0:
237,178,67620,1,0,0:0:0:0:
241,161,67847,1,8,0:0:0:0:
241,161,68188,1,8,0:0:0:0:
241,161,68756,1,8,0:0:0:0:
241,161,68984,1,8,0:0:0:0:
241,161,69211,1,0,0:0:0:0:
198,136,69438,1,0,0:0:0:0:
198,136,69666,1,8,0:0:0:0:
198,136,70006,1,8,0:0:0:0:
147,55,70575,1,0,0:0:0:0:
245,83,70802,1,8,0:0:0:0:
245,83,71029,1,4,0:0:0:0:
174,37,71256,1,8,0:0:0:0:
168,153,71484,1,8,0:0:0:0:
224,144,71825,1,8,0:0:0:0:
245,83,72393,1,0,0:0:0:0:
253,82,72620,1,0,0:0:0:0:
253,82,72847,1,8,0:0:0:0:
261,71,73075,1,8,0:0:0:0:
261,71,73302,1,0,0:0:0:0:
261,71,73643,1,8,0:0:0:0:
321,182,74666,1,4,0:0:0:0:
283,156,74893,1,0,0:0:0:0:
285,148,75120,1,8,0:0:0:0:
130,160,75461,1,8,0:0:0:0:
220,137,76029,1,8,0:0:0:0:
22,115,76256,1,0,0:0:0:0:
220,137,76484,1,8,0:0:0:0:
223,126,76938,1,8,0:0:0:0:
223,126,77279,1,8,0:0:0:0:
48,123,77621,1,0,0:0:0:0:
241,79,77847,1,0,0:0:0:0:
241,79,78075,1,8,0:0:0:0:
241,79,78302,1,8,0:0:0:0:
88,140,78757,1,0,0:0:0:0:
117,101,79098,1,8,0:0:0:0:
203,138,80121,1,8,0:0:0:0:
284,148,80575,5,4,0:0:0:0:
276,111,81939,1,12,0:0:0:0:
221,131,82393,1,8,0:0:0:0:
223,120,82621,1,8,0:0:0:0:
223,120,82848,1,0,0:0:0:0:
223,120,83075,1,0,0:0:0:0:
163,82,83302,1,8,0:0:0:0:
71,142,83757,1,0,0:0:0:0:
181,76,84211,1,8,0:0:0:0:
182,75,84439,1,8,0:0:0:0:
182,75,84666,1,0,0:0:0:0:
181,76,84893,1,0,0:0:0:0:
181,76,85121,1,8,0:0:0:0:
256,192,85575,12,0,89211,0:0:0:0:
