osu file format v14

[General]
AudioFilename: BLOODY STREAM.mp3
AudioLeadIn: 0
PreviewTime: 49152
Countdown: 0
SampleSet: Normal
StackLeniency: 0.7
Mode: 0
LetterboxInBreaks: 1
StoryFireInFront: 0
WidescreenStoryboard: 1

[Editor]
Bookmarks: 7333,36424,50970
DistanceSpacing: 1.25
BeatDivisor: 2
GridSize: 4
TimelineZoom: 1.1

[Metadata]
Title:BLOODY STREAM
TitleUnicode:BLOODY STREAM
Artist:Coda
ArtistUnicode:Coda
Creator:Landwii
Version:Normal
Source:JoJo's Bizarre Adventure
Tags:Anime ジョジョの奇妙な冒険 Joseph Joestar ジョセフ・ジョースター Part 2 Battle Tendency opening jojos
BeatmapID:1439982
BeatmapSetID:681098

[Difficulty]
HPDrainRate:3.4
CircleSize:2.6
OverallDifficulty:3.2
ApproachRate:4
SliderMultiplier:1.5
SliderTickRate:2

[Events]
//Background and Video events
Video,-160,"Jojo's Bizarre Adventure - Opening 2.avi"
0,0,"097d3046ef726fe837016b0827ee985de0bfce92_hq.jpg",0,0
//Break Periods
2,36511,46181
2,49124,49817
//Storyboard Layer 0 (Background)
//Storyboard Layer 1 (Fail)
//Storyboard Layer 2 (Pass)
//Storyboard Layer 3 (Foreground)
//Storyboard Sound Samples

[TimingPoints]
61,454.545454545455,4,1,0,70,1,0
12333,-90.9090909090909,4,1,0,70,0,0
14379,-100,4,1,0,70,0,0
19947,-100,4,1,0,90,0,0
20288,-95.2380952380952,4,1,0,95,0,0
20629,-95.2380952380952,4,1,0,100,0,0
20970,-90.9090909090909,4,1,0,75,0,0
21765,-100,4,1,0,70,0,0
27788,-90.9090909090909,4,1,0,70,0,0
28242,-83.3333333333333,4,1,0,70,0,0
28697,-80,4,1,0,70,0,0
29151,-90.9090909090909,4,1,0,70,0,0
30970,-95.2380952380952,4,1,0,70,0,0
32788,-100,4,1,0,70,0,0
34606,-86.9565217391304,4,1,0,90,0,0
34833,-83.3333333333333,4,1,0,90,0,0
35174,-86.9565217391304,4,1,0,90,0,0
35515,-90.9090909090909,4,1,0,90,0,0
36311,-100,4,2,0,80,0,0
47788,-83.3333333333333,4,1,0,60,0,0
48242,-83.3333333333333,4,1,0,60,0,0
48697,-76.9230769230769,4,1,0,60,0,0
49151,-74.0740740740741,4,1,0,60,0,0
51197,-95.2380952380952,4,1,0,60,0,0
52788,-100,4,1,0,80,0,1
53222,-100,4,1,0,90,0,1
53904,-100,4,1,0,80,0,1
55041,-100,4,1,0,90,0,1
55723,-100,4,1,0,80,0,1
60495,-100,4,1,0,90,0,1
61033,-100,4,1,0,80,0,1
62313,-100,4,1,0,90,0,1
62852,-100,4,1,0,80,0,1
65856,-90.9090909090909,4,1,0,80,0,0
66168,-83.3333333333333,4,1,0,80,0,0
66424,-90.9090909090909,4,1,0,80,0,0
66651,-83.3333333333333,4,1,0,80,0,0
67333,-100,4,1,0,80,0,1
67768,-100,4,1,0,90,0,1
68109,-100,4,1,0,90,0,1
68450,-100,4,1,0,80,0,1
69586,-100,4,1,0,90,0,1
70268,-100,4,1,0,75,0,1
74606,-100,4,1,0,70,0,0
75515,-105.263157894737,4,1,0,70,0,0
75970,-111.111111111111,4,1,0,80,0,0
76424,-105.263157894737,4,1,0,80,0,0
77561,-111.111111111111,4,1,0,80,0,0
77901,-100,4,1,0,80,0,0
78242,-90.9090909090909,4,1,0,80,0,0
78677,-100,4,1,0,45,0,0
78791,-111.111111111111,4,1,0,50,0,0
79018,-100,4,1,0,60,0,0
79245,-95.2380952380952,4,1,0,70,0,0
79472,-100,4,1,0,80,0,0
79700,-95.2380952380952,4,1,0,90,0,0
79927,-100,4,1,0,95,0,0
80061,-90.9090909090909,4,1,0,100,0,0
80515,-111.111111111111,4,2,0,80,0,1
81879,-100,4,2,0,80,0,0
89132,-100,4,2,0,50,0,0

[Colours]
Combo1 : 4,14,57
Combo2 : 204,0,122
Combo3 : 255,184,113
Combo4 : 37,183,194
Combo5 : 39,158,87
Combo6 : 255,36,36
Combo7 : 138,155,164
Combo8 : 230,230,0

[HitObjects]
136,88,7333,6,0,P|204:56|296:64,2,150,0|8|0,0:0|0:0|0:0,0:0:0:0:
88,168,8470,1,0,0:0:0:0:
128,252,8697,2,0,P|192:276|224:268,1,75,8|0,2:0|0:0,0:0:0:0:
264,212,9151,6,0,P|312:280|304:360,2,150,0|8|0,0:0|0:0|0:0,0:0:0:0:
88,168,10515,2,0,P|136:120|172:104,1,75
232,88,10970,2,0,P|184:40|148:28,1,75
76,64,11424,5,8,0:0:0:0:
76,64,11651,2,0,L|24:-16,2,75
88,168,12333,2,0,B|128:192|128:192|188:176,1,82.5000025177003,0|2,0:0|0:0,0:0:0:0:
256,136,12788,2,0,P|276:196|264:244,1,82.5000025177003,0|2,0:0|0:0,0:0:0:0:
188,280,13242,2,0,P|276:312|364:280,1,165.000005035401,0|2,0:0|0:0,0:0:0:0:
464,168,14151,1,2,0:0:0:0:
392,112,14379,6,0,P|320:96|288:100,1,75
216,100,14833,1,8,0:0:0:0:
208,192,15061,1,8,0:0:0:0:
160,280,15288,2,0,P|207:290|264:270,1,75,0|8,0:0|0:0,0:0:0:0:
320,244,15742,6,0,P|360:272|420:276,2,75,0|8|0,0:0|0:0|0:0,0:0:0:0:
356,136,16424,2,0,P|456:124|516:152,2,150,0|8|0,0:0|2:0|0:0,0:0:0:0:
268,180,17561,1,0,0:0:0:0:
188,236,17788,2,0,P|168:180|188:136,1,75
240,96,18242,6,0,P|176:72|96:100,1,150,8|2,0:0|0:0,0:0:0:0:
36,172,18924,2,0,P|24:256|140:336,1,225
228,304,20061,6,0,P|276:312|320:328,1,75
396,352,20515,2,0,L|428:276,1,78.7499975967408
428,180,20970,1,0,0:0:0:0:
348,132,21197,2,2,L|228:152,2,82.5000025177002,2|2|6,2:0|0:0|2:0,0:0:0:0:
448,64,21879,6,0,P|380:32|288:40,2,150,0|8|0,0:0|0:0|0:0,0:0:0:0:
428,180,23016,1,0,0:0:0:0:
384,252,23243,2,0,P|320:276|288:268,1,75,8|0,2:0|0:0,0:0:0:0:
248,192,23697,6,0,P|200:260|224:332,2,150,0|8|0,0:0|0:0|0:0,0:0:0:0:
424,172,25061,2,0,P|376:124|340:116,1,75
276,88,25516,2,0,P|320:40|352:32,1,75
436,60,25970,5,8,0:0:0:0:
436,60,26197,2,0,L|508:-12,2,75
424,172,26879,2,0,B|396:196|396:196|324:184,1,75,0|2,0:0|0:0,0:0:0:0:
224,204,27333,2,0,P|304:276|316:324,1,150,0|2,0:0|0:0,0:0:0:0:
144,336,28242,2,0,P|96:256|92:160,1,179.999994506836,0|2,0:0|0:0,0:0:0:0:
196,88,29151,6,0,P|248:40|352:24,1,165.000005035401,0|8,0:0|0:0,0:0:0:0:
436,88,29833,2,0,L|460:180,1,82.5000025177003
468,264,30288,2,0,B|436:292|436:292|360:296,2,82.5000025177003,0|8|0,0:0|2:0|0:0,0:0:0:0:
384,212,30970,2,0,P|284:200|212:236,2,157.499995193482,0|8|0,0:0|0:0|0:0,0:0:0:0:
312,288,32107,5,0,0:0:0:0:
272,372,32334,2,0,P|239:350|220:308,1,78.7499975967408,8|0,2:0|0:0,0:0:0:0:
256,192,32788,12,4,36311,0:0:0:0:
196,60,47788,6,2,L|176:156,1,89.9999972534181
144,228,48242,6,2,L|184:312,1,89.9999972534181
228,384,48697,6,2,L|304:296,1,97.4999955368044
436,132,51424,6,0,P|368:68|296:56,1,157.499995193482
216,92,52106,1,0,0:0:0:0:
240,188,52333,1,0,0:0:0:0:
324,256,52561,1,0,0:0:0:0:
412,288,52788,6,0,P|380:332|332:356,1,75,8|8,0:0|0:0,0:0:0:0:
272,328,53242,2,0,P|216:284|136:280,1,150,0|2,0:0|0:0,0:0:0:0:
72,344,53924,1,0,0:0:0:0:
12,272,54151,1,0,0:0:0:0:
184,200,54606,6,0,P|160:136|136:116,1,75,8|8,0:0|0:0,0:0:0:0:
68,88,55061,2,0,P|140:40|216:52,1,150,0|2,0:0|0:0,0:0:0:0:
348,164,55970,5,0,0:0:0:0:
376,252,56197,2,0,P|432:192|432:112,1,150
388,48,56879,1,8,0:0:0:0:
296,72,57106,1,8,0:0:0:0:
220,16,57333,2,0,P|208:92|240:156,1,150,0|8,0:0|0:0,0:0:0:0:
364,296,58242,5,0,0:0:0:0:
188,360,58697,1,0,0:0:0:0:
136,168,59151,1,0,0:0:0:0:
252,32,59606,2,0,P|296:44|336:88,1,75,0|8,0:0|0:0,0:0:0:0:
392,120,60061,1,0,0:0:0:0:
368,212,60288,1,8,0:0:0:0:
448,260,60515,2,0,P|372:304|288:268,1,150,0|2,0:0|0:0,0:0:0:0:
248,224,61197,5,0,0:0:0:0:
172,288,61424,1,0,0:0:0:0:
20,192,61879,2,0,P|56:140|80:120,1,75,8|8,0:0|0:0,0:0:0:0:
148,92,62333,2,0,P|236:120|296:104,1,150,0|2,0:0|0:0,0:0:0:0:
404,20,63242,1,8,0:0:0:0:
256,192,63697,12,4,66424,0:0:0:0:
412,288,67333,6,0,P|380:332|332:356,1,75,8|8,0:0|0:0,0:0:0:0:
272,328,67787,2,0,P|200:332|136:280,1,150,0|2,0:0|0:0,0:0:0:0:
248,136,68696,1,0,0:0:0:0:
412,44,69151,6,0,P|452:92|456:104,1,75,8|8,0:0|0:0,0:0:0:0:
380,160,69606,2,0,P|428:232|424:300,1,150,0|2,0:0|0:0,0:0:0:0:
240,320,70515,1,0,0:0:0:0:
164,380,70742,6,0,P|132:316|176:244,1,150
244,196,71424,1,8,0:0:0:0:
216,108,71651,1,8,0:0:0:0:
128,72,71879,2,0,B|168:12|168:12|276:24,1,150,0|8,0:0|0:0,0:0:0:0:
416,100,72788,6,0,L|404:276,1,150
480,328,73470,2,0,P|388:364|300:280,1,225
300,164,74606,2,2,P|212:112|172:156,1,150
120,248,75515,2,2,P|46:233|32:164,1,142.49999619484
64,56,76424,2,2,P|152:28|228:36,1,142.49999619484
332,96,77333,1,0,0:0:0:0:
380,228,77788,1,0,0:0:0:0:
256,192,78242,12,0,80515,0:0:0:0:
256,192,81424,5,0,0:0:0:0:
256,192,81879,12,4,89151,0:0:0:0:
