osu file format v14

[General]
AudioFilename: audio.mp3
AudioLeadIn: 0
PreviewTime: 163230
Countdown: 0
SampleSet: Normal
StackLeniency: 0.2
Mode: 0
LetterboxInBreaks: 0
WidescreenStoryboard: 1

[Editor]
DistanceSpacing: 0.3
BeatDivisor: 4
GridSize: 8
TimelineZoom: 2.799999

[Metadata]
Title:BLOODY STREAM
TitleUnicode:BLOODY STREAM
Artist:Coda
ArtistUnicode:Coda
Creator:Ferdeza
Version:Insane
Source:ジョジョの奇妙な冒険
Tags:jojo jojo's bizarre adventure joseph joestar part 2 battle tendency opening no kimyou na bouken japanese jazz jpop anime
BeatmapID:2457070
BeatmapSetID:1120987

[Difficulty]
HPDrainRate:5
CircleSize:4
OverallDifficulty:8
ApproachRate:9
SliderMultiplier:1.8
SliderTickRate:1

[Events]
//Background and Video events
0,0,"cropped-1920-1080-844915.png",0,0
//Break Periods
//Storyboard Layer 0 (Background)
//Storyboard Layer 1 (Fail)
//Storyboard Layer 2 (Pass)
//Storyboard Layer 3 (Foreground)
//Storyboard Layer 4 (Overlay)
//Storyboard Sound Samples

[TimingPoints]
1185,454.545454545455,4,1,0,60,1,0
1185,-66.6666666666667,4,1,0,60,0,0
6412,-66.6666666666667,4,1,0,85,0,1
7775,-66.6666666666667,4,1,0,50,0,0
8457,-100,4,2,0,50,0,0
23003,-83.3333333333333,4,2,0,50,0,0
28912,-71.4285714285714,4,2,0,60,0,0
29366,-62.5,4,2,0,70,0,0
29821,-55.5555555555556,4,2,0,80,0,0
30275,-83.3333333333333,4,2,0,50,0,0
32094,-66.6666666666667,4,2,0,50,0,0
33457,-55.5555555555556,4,2,0,50,0,0
33912,-83.3333333333333,4,2,0,50,0,0
35730,-62.5,4,2,0,50,0,0
36071,-71.4285714285714,4,2,0,50,0,0
36412,-83.3333333333333,4,2,0,50,0,0
36753,-100,4,2,0,50,0,0
37548,-111.111111111111,4,2,0,40,0,0
48457,-71.4285714285714,4,1,0,50,0,0
48912,-62.5,4,1,0,60,0,0
49366,-55.5555555555556,4,1,0,70,0,0
49821,-50,4,1,0,80,0,0
50275,-50,4,1,0,85,0,0
51753,-50,4,1,0,90,0,0
52548,-125,4,1,0,40,0,0
53116,-125,4,1,0,60,0,0
53912,-62.5,4,1,0,80,0,1
66639,-45.4545454545455,4,1,0,80,0,1
68457,-62.5,4,1,0,80,0,1
75730,-55.5555555555556,4,1,0,80,0,1
78685,-47.6190476190476,4,1,0,80,0,1
79366,-43.4782608695652,4,1,0,80,0,1
81185,-43.4782608695652,4,1,0,80,0,0
81639,-83.3333333333333,4,1,0,50,0,0
83003,-62.5,4,1,0,60,0,1
84821,-55.5555555555556,4,1,0,70,0,1
86639,-55.5555555555556,4,1,0,50,0,0
90275,-50,4,1,0,60,0,0
91639,-133.333333333333,4,1,0,60,0,0
92775,-83.3333333333333,4,1,0,60,0,0
93912,-50,4,1,0,60,0,0
95275,-133.333333333333,4,1,0,60,0,0
96412,-83.3333333333333,4,1,0,60,0,0
97435,-55.5555555555556,4,1,0,70,0,0
107548,-62.5,4,1,0,70,0,0
107775,-71.4285714285714,4,1,0,70,0,0
108003,-83.3333333333333,4,1,0,70,0,0
108230,-55.5555555555556,4,1,0,70,0,0
109253,-55.5555555555556,4,1,0,75,0,0
109480,-55.5555555555556,4,1,0,80,0,0
109707,-55.5555555555556,4,1,0,85,0,0
109935,-200,4,1,0,90,0,0
110048,-178.571428571429,4,1,0,60,0,0
110957,-178.571428571429,4,1,0,5,0,0
111033,-71.4285714285714,4,1,0,40,0,0
112094,-66.6666666666667,4,1,0,50,0,0
117321,-66.6666666666667,4,1,0,85,0,1
118685,-66.6666666666667,4,1,0,50,0,0
119366,-100,4,2,0,50,0,0
133912,-83.3333333333333,4,2,0,50,0,0
139821,-71.4285714285714,4,2,0,60,0,0
140275,-62.5,4,2,0,70,0,0
140730,-55.5555555555556,4,2,0,80,0,0
141185,-83.3333333333333,4,2,0,50,0,0
143003,-66.6666666666667,4,2,0,50,0,0
144366,-55.5555555555556,4,2,0,50,0,0
144821,-83.3333333333333,4,2,0,50,0,0
146639,-62.5,4,2,0,50,0,0
146980,-71.4285714285714,4,2,0,50,0,0
147321,-83.3333333333333,4,2,0,50,0,0
147662,-100,4,2,0,50,0,0
148457,-111.111111111111,4,2,0,40,0,0
159366,-71.4285714285714,4,1,0,50,0,0
159821,-62.5,4,1,0,60,0,0
160275,-55.5555555555556,4,1,0,70,0,0
160730,-50,4,1,0,80,0,0
161525,-50,4,1,0,85,0,0
162662,-50,4,1,0,90,0,0
163457,-125,4,1,0,40,0,0
164025,-83.3333333333333,4,1,0,60,0,0
164821,-62.5,4,1,0,80,0,1
177548,-45.4545454545455,4,1,0,80,0,1
177775,-45.4545454545455,4,1,0,5,0,1
177889,-45.4545454545455,4,1,0,80,0,1
178116,-45.4545454545455,4,1,0,5,0,1
178230,-45.4545454545455,4,1,0,80,0,0
178457,-45.4545454545455,4,1,0,5,0,0
178685,-62.5,4,1,0,30,0,0
178912,-52.6315789473684,4,1,0,70,0,0
179253,-52.6315789473684,4,1,0,5,0,0
179366,-52.6315789473684,4,1,0,60,0,0
180275,-52.6315789473684,4,1,0,80,0,0
180730,-52.6315789473684,4,1,0,80,0,0
181185,-62.5,4,1,0,80,0,1
188457,-55.5555555555556,4,1,0,80,0,1
191412,-47.6190476190476,4,1,0,80,0,1
192094,-43.4782608695652,4,1,0,80,0,1
193912,-43.4782608695652,4,1,0,80,0,0
194366,-83.3333333333333,4,1,0,50,0,0
195730,-62.5,4,1,0,60,0,1
197548,-55.5555555555556,4,1,0,70,0,1
199366,-166.666666666667,4,2,0,40,0,0
213685,-166.666666666667,4,2,0,40,0,0
213798,-166.666666666667,4,2,0,5,0,0
213912,-62.5,4,1,0,50,0,0
214366,-55.5555555555556,4,1,0,60,0,0
214821,-50,4,1,0,70,0,0
215275,-45.4545454545455,4,1,0,80,0,0
215730,-45.4545454545455,4,1,0,85,0,0
217207,-45.4545454545455,4,1,0,90,0,0
218003,-125,4,1,0,40,0,0
218685,-125,4,1,0,60,0,0
219366,-55.5555555555556,4,1,0,80,0,1
232094,-55.5555555555556,4,1,0,80,0,1
232150,-55.5555555555556,4,1,0,80,0,0
232321,-55.5555555555556,4,1,0,5,0,0
233912,-55.5555555555556,4,1,0,80,0,1
233969,-55.5555555555556,4,1,0,80,0,0
234139,-55.5555555555556,4,1,0,5,0,0
234821,-55.5555555555556,4,1,0,80,0,1
235048,-41.6666666666667,4,1,0,80,0,1
235730,-55.5555555555556,4,1,0,80,0,1
243003,-50,4,1,0,80,0,1
245957,-43.4782608695652,4,1,0,80,0,1
246639,-40,4,1,0,80,0,1
248457,-40,4,1,0,80,0,0
248912,-76.9230769230769,4,1,0,50,0,0
250275,-55.5555555555556,4,1,0,60,0,1
252094,-50,4,1,0,70,0,1
253912,-50,4,1,0,70,0,0
254025,-50,4,1,0,50,0,0
257548,-125,4,1,0,50,0,0
257889,-125,4,1,0,5,0,0

[Colours]
Combo1 : 0,255,0
Combo2 : 243,7,220
Combo3 : 255,39,28
Combo4 : 247,247,0

[HitObjects]
198,104,1185,5,10,0:0:0:0:
231,98,1298,1,0,0:0:0:0:
264,92,1412,2,0,L|334:104,1,67.5000025749208,2|0,0:0|0:0,0:0:0:0:
400,57,1639,2,0,B|411:120|411:120|404:129|404:129|417:200,1,135.000005149842,10|0,0:0|0:0,0:0:0:0:
436,307,1980,1,0,0:0:0:0:
436,307,2094,6,0,B|373:318|373:318|364:311|364:311|293:324,1,135.000005149842,8|0,0:0|0:0,0:0:0:0:
204,244,2435,1,8,0:0:0:0:
171,250,2548,2,0,L|104:262,1,67.5000025749208,2|0,0:0|0:0,0:0:0:0:
7,281,2775,1,10,0:0:0:0:
7,281,3003,6,0,L|19:214,1,67.5000025749208,10|0,0:0|0:0,0:0:0:0:
8,105,3230,1,10,0:0:0:0:
16,55,3343,1,0,0:0:0:0:
24,5,3457,6,0,B|86:16|86:16|93:25|93:25|164:37,1,135.000005149842,10|0,0:0|0:0,0:0:0:0:
242,11,3798,5,0,0:0:0:0:
292,18,3912,1,8,0:0:0:0:
342,27,4025,1,2,0:0:0:0:
342,27,4253,5,10,0:0:0:0:
348,60,4366,2,0,L|360:127,1,67.5000025749208,2|0,0:0|0:0,0:0:0:0:
381,224,4594,1,10,0:0:0:0:
381,224,4821,5,10,0:0:0:0:
414,219,4935,1,0,0:0:0:0:
447,213,5048,2,0,L|459:143,1,67.5000025749208,2|8,0:0|0:0,0:0:0:0:
512,46,5275,2,0,B|417:52|480:75|385:80,1,135.000005149842,10|0,0:0|0:0,0:0:0:0:
292,14,5616,5,10,0:0:0:0:
287,47,5730,1,8,0:0:0:0:
282,79,5844,1,10,0:0:0:0:
282,79,6071,5,10,0:0:0:0:
287,111,6185,1,2,0:0:0:0:
142,8,6412,5,14,0:0:0:0:
256,192,6525,12,10,7775,0:0:0:0:
118,115,8003,5,10,0:0:0:0:
112,158,8116,1,0,0:0:0:0:
108,199,8230,1,10,0:0:0:0:
104,244,8344,1,0,0:0:0:0:
102,287,8457,6,0,B|163:282|163:282|171:273|171:273|242:267,1,135,14|0,0:0|0:0,0:0:0:0:
364,384,8912,1,8,0:0:0:0:
295,218,9139,1,2,0:0:0:0:
295,218,9253,6,0,L|350:222,1,45,0|0,0:0|0:0,0:0:0:0:
360,130,9480,1,0,0:0:0:0:
360,130,9594,2,0,L|415:134,1,45,8|0,0:0|0:0,0:0:0:0:
481,278,9821,2,0,L|473:188,1,90,8|0,0:0|0:0,0:0:0:0:
460,78,10162,1,0,0:0:0:0:
440,57,10275,6,0,P|376:38|317:66,1,135,12|0,0:0|0:0,0:0:0:0:
238,148,10730,2,0,P|246:104|231:62,1,90,8|0,0:0|0:0,0:0:0:0:
118,16,11071,6,0,L|63:20,1,45,2|0,0:0|0:0,0:0:0:0:
16,102,11298,1,0,0:0:0:0:
16,102,11412,2,0,L|70:96,1,45,8|0,0:0|0:0,0:0:0:0:
137,214,11639,2,0,B|129:126|129:126|93:96,1,135,10|0,0:0|0:0,0:0:0:0:
0,177,12094,6,0,B|8:265|8:265|44:295,1,135,14|8,0:0|0:0,0:0:0:0:
173,352,12548,2,0,P|131:367|87:358,1,90,8|2,0:0|0:0,0:0:0:0:
128,240,12889,6,0,L|183:236,1,45,0|0,0:0|0:0,0:0:0:0:
233,290,13116,1,0,0:0:0:0:
233,290,13230,2,0,L|288:286,1,45,8|0,0:0|0:0,0:0:0:0:
409,212,13457,6,0,B|350:180|350:180|284:201,1,135,12|0,0:0|0:0,0:0:0:0:
277,286,13912,2,0,B|343:265|343:265|402:297,1,135,12|0,0:0|0:0,0:0:0:0:
472,381,14366,2,0,L|480:285,1,90,8|0,0:0|0:0,0:0:0:0:
507,162,14707,6,0,L|503:107,1,45,0|0,0:0|0:0,0:0:0:0:
421,60,14935,1,0,0:0:0:0:
421,60,15048,2,0,L|427:114,1,45,8|0,0:0|0:0,0:0:0:0:
416,214,15275,6,0,P|353:232|294:203,1,135,12|0,0:0|0:0,0:0:0:0:
301,125,15730,2,0,P|364:107|424:136,1,135,14|8,0:0|0:0,0:0:0:0:
444,308,16185,1,10,0:0:0:0:
292,384,16412,1,2,0:0:0:0:
292,384,16525,6,0,L|237:378,1,45,2|0,0:0|0:0,0:0:0:0:
211,312,16753,1,2,0:0:0:0:
211,312,16866,2,0,L|156:306,1,45,8|2,0:0|0:0,0:0:0:0:
55,335,17094,2,0,P|99:343|141:328,1,90,10|2,0:0|0:0,0:0:0:0:
199,232,17435,1,2,0:0:0:0:
217,203,17548,6,0,B|212:142|212:142|203:134|203:134|197:63,1,135,14|8,0:0|0:0,0:0:0:0:
114,8,18003,2,0,L|121:97,1,90,8|0,0:0|0:0,0:0:0:0:
69,186,18344,6,0,L|73:241,1,45,0|0,0:0|0:0,0:0:0:0:
155,288,18571,1,0,0:0:0:0:
155,288,18685,2,0,L|149:234,1,45,10|0,0:0|0:0,0:0:0:0:
207,138,18912,2,0,B|237:102|237:102|325:94,1,135,10|0,0:0|0:0,0:0:0:0:
403,3,19366,6,0,B|397:63|397:63|404:73|404:73|398:144,1,135,14|8,0:0|0:0,0:0:0:0:
467,249,19821,2,0,P|482:207|473:163,1,90,8|2,0:0|0:0,0:0:0:0:
349,197,20162,6,0,L|353:252,1,45,0|0,0:0|0:0,0:0:0:0:
291,289,20389,1,0,0:0:0:0:
291,289,20503,2,0,L|295:344,1,45,8|0,0:0|0:0,0:0:0:0:
221,384,20730,6,0,L|206:236,1,135,8|0,0:0|0:0,0:0:0:0:
93,172,21185,5,10,0:0:0:0:
90,203,21298,1,2,0:0:0:0:
193,116,21525,5,10,0:0:0:0:
196,147,21639,1,2,0:0:0:0:
93,60,21866,5,10,0:0:0:0:
90,91,21980,1,2,0:0:0:0:
193,4,22207,5,2,0:0:0:0:
196,35,22321,1,0,0:0:0:0:
199,66,22435,1,0,0:0:0:0:
179,90,22548,5,10,0:0:0:0:
225,86,22662,1,0,0:0:0:0:
270,81,22775,1,0,0:0:0:0:
311,77,22889,1,0,0:0:0:0:
354,75,23003,6,0,B|465:84|465:84|501:128,1,161.999995056153,14|8,0:0|0:0,0:0:0:0:
491,237,23457,2,0,B|486:284|486:284|478:292|478:292|473:339,1,107.999996704102,8|2,0:0|0:0,0:0:0:0:
392,378,23798,6,0,L|396:322,1,53.9999983520508,0|0,0:0|0:0,0:0:0:0:
343,217,24025,1,0,0:0:0:0:
343,217,24139,2,0,L|338:270,1,53.9999983520508,8|0,0:0|0:0,0:0:0:0:
218,288,24366,2,0,P|266:308|318:295,1,107.999996704102,8|0,0:0|0:0,0:0:0:0:
277,159,24707,1,0,0:0:0:0:
255,134,24821,6,0,B|180:140|180:140|173:149|173:149|97:155,1,161.999995056153,12|8,0:0|0:0,0:0:0:0:
0,68,25275,2,0,L|119:78,1,107.999996704102,8|0,0:0|0:0,0:0:0:0:
212,25,25616,6,0,L|267:29,1,53.9999983520508,0|2,0:0|0:0,0:0:0:0:
323,83,25844,1,0,0:0:0:0:
323,83,25957,2,0,L|378:87,1,53.9999983520508,8|0,0:0|0:0,0:0:0:0:
459,13,26185,2,0,P|496:82|471:156,1,161.999995056153,10|0,0:0|0:0,0:0:0:0:
373,164,26639,6,0,B|405:202|405:202|395:313,1,161.999995056153,14|8,0:0|0:0,0:0:0:0:
254,364,27094,2,0,P|202:377|154:357,1,107.999996704102,8|2,0:0|0:0,0:0:0:0:
34,307,27435,6,0,L|88:303,1,53.9999983520508,0|0,0:0|0:0,0:0:0:0:
193,241,27662,1,0,0:0:0:0:
193,241,27775,2,0,L|139:245,1,53.9999983520508,8|0,0:0|0:0,0:0:0:0:
64,208,28003,2,0,B|73:97|73:97|117:61,1,161.999995056153,12|0,0:0|0:0,0:0:0:0:
178,144,28457,6,0,B|297:154|297:154|311:133|302:99,1,161.999995056153,10|8,0:0|0:0,0:0:0:0:
214,29,28912,6,0,B|231:2|263:-11|296:1|296:1|308:33|335:51|377:50,1,188.999994232178,10|0,0:0|0:0,0:0:0:0:
452,0,29366,6,0,B|443:102|443:102|450:111|450:111|441:214,1,216,2|0,0:0|0:0,0:0:0:0:
493,297,29821,6,0,B|325:265|431:341|253:309,1,242.999992584229,10|0,0:0|0:0,0:0:0:0:
143,234,30275,6,0,P|180:303|155:377,1,161.999995056153,14|8,0:0|0:0,0:0:0:0:
19,369,30730,2,0,P|-2:320|8:269,1,107.999996704102,10|0,0:0|0:0,0:0:0:0:
143,234,31071,6,0,L|139:179,1,53.9999983520508,2|0,0:0|0:0,0:0:0:0:
85,123,31298,1,0,0:0:0:0:
85,123,31412,2,0,L|81:68,1,53.9999983520508,10|0,0:0|0:0,0:0:0:0:
207,39,31639,2,0,B|210:86|210:86|203:95|203:95|206:142,1,107.999996704102,8|2,0:0|0:0,0:0:0:0:
230,264,31980,1,2,0:0:0:0:
241,294,32094,6,0,P|331:330|414:278,1,202.500007724762,14|8,0:0|0:0,0:0:0:0:
330,125,32548,2,0,P|311:188|340:248,1,135.000005149842,8|0,0:0|0:0,0:0:0:0:
492,271,32889,6,0,L|485:191,1,67.5000025749208,0|0,0:0|0:0,0:0:0:0:
407,111,33116,1,0,0:0:0:0:
407,111,33230,2,0,L|412:178,1,67.5000025749208,10|0,0:0|0:0,0:0:0:0:
414,278,33457,2,0,P|312:331|222:260,1,242.999992584229,10|0,0:0|0:0,0:0:0:0:
162,137,33912,6,0,B|156:212|156:212|147:218|147:218|141:295,1,161.999995056153,14|8,0:0|0:0,0:0:0:0:
0,339,34366,1,10,0:0:0:0:
32,117,34594,1,0,0:0:0:0:
32,117,34707,6,0,L|87:113,1,53.9999983520508,0|0,0:0|0:0,0:0:0:0:
143,59,34935,1,0,0:0:0:0:
143,59,35048,2,0,L|198:55,1,53.9999983520508,8|0,0:0|0:0,0:0:0:0:
266,148,35275,2,0,P|229:79|254:5,1,161.999995056153,8|0,0:0|0:0,0:0:0:0:
417,0,35730,5,10,0:0:0:0:
463,63,35844,2,0,L|453:174,1,72,0|0,0:0|0:0,0:0:0:0:
364,197,36071,5,10,0:0:0:0:
347,224,36185,2,0,L|353:295,1,62.9999980773926,0|0,0:0|0:0,0:0:0:0:
443,345,36412,5,10,0:0:0:0:
434,357,36525,2,0,P|407:363|381:361,1,53.9999983520508,0|0,0:0|0:0,0:0:0:0:
288,329,36753,5,10,0:0:0:0:
288,329,36866,2,0,P|265:329|244:334,1,45,8|0,0:0|0:0,0:0:0:0:
172,384,37094,5,10,0:0:0:0:
169,360,37207,1,0,0:0:0:0:
167,337,37321,1,2,0:0:0:0:
165,314,37435,1,0,0:0:0:0:
182,286,37548,6,0,L|167:118,2,161.999995056153,14|10|10,0:0|0:0|0:0,0:0:0:0:
186,315,38571,1,0,0:0:0:0:
186,315,38685,1,0,0:0:0:0:
353,358,38912,1,8,0:0:0:0:
353,358,39025,1,0,0:0:0:0:
353,358,39139,1,0,0:0:0:0:
463,219,39366,6,0,B|386:225|386:225|379:234|379:234|291:242,1,161.999995056153,12|8,0:0|0:0,0:0:0:0:
378,71,40275,2,0,P|392:108|384:147,1,80.9999975280763,10|0,0:0|0:0,0:0:0:0:
233,123,40616,1,0,0:0:0:0:
233,123,40730,2,0,L|313:115,1,80.9999975280763,10|2,0:0|0:0,0:0:0:0:
469,101,41185,6,0,L|476:181,1,80.9999975280763,14|0,0:0|0:0,0:0:0:0:
485,291,41525,1,0,0:0:0:0:
485,291,41639,2,0,B|376:276|432:319|324:305,1,161.999995056153,8|8,0:0|0:0,0:0:0:0:
245,236,42321,2,0,L|251:315,2,80.9999975280763,2|10|2,0:0|0:0|0:0,0:0:0:0:
192,0,43003,6,0,B|185:76|185:76|176:83|176:83|170:157,1,161.999995056153,14|8,0:0|0:0,0:0:0:0:
69,310,43685,1,0,0:0:0:0:
69,310,43798,1,0,0:0:0:0:
69,310,43912,6,0,B|61:222|61:222|35:200,1,121.499996292114,10|0,0:0|0:0,0:0:0:0:
14,176,44366,1,8,0:0:0:0:
17,145,44480,1,0,0:0:0:0:
19,115,44594,1,0,0:0:0:0:
22,85,44707,1,0,0:0:0:0:
25,55,44821,6,0,P|82:38|136:63,1,121.499996292114,14|0,0:0|0:0,0:0:0:0:
149,93,45275,2,0,P|186:79|225:87,1,80.9999975280763,10|2,0:0|0:0,0:0:0:0:
246,112,45616,1,0,0:0:0:0:
246,112,45730,2,0,B|254:200|254:200|280:222,1,121.499996292114,8|0,0:0|0:0,0:0:0:0:
311,221,46185,1,10,0:0:0:0:
342,218,46298,1,0,0:0:0:0:
371,215,46412,1,2,0:0:0:0:
402,213,46525,1,0,0:0:0:0:
433,211,46639,6,0,B|438:137|438:137|447:130|447:130|454:54,1,161.999995056153,12|8,0:0|0:0,0:0:0:0:
283,151,47321,1,2,0:0:0:0:
283,151,47548,2,0,P|320:165|359:158,1,80.9999975280763,14|0,0:0|0:0,0:0:0:0:
371,34,47889,1,0,0:0:0:0:
371,34,48003,2,0,P|334:19|295:27,1,80.9999975280763,10|2,0:0|0:0,0:0:0:0:
136,104,48344,1,0,0:0:0:0:
136,104,48457,6,0,B|131:160|131:160|137:168|137:168|132:240,1,125.999996154785,10|0,0:0|0:0,0:0:0:0:
230,305,48798,1,0,0:0:0:0:
258,290,48912,6,0,B|248:181|248:181|226:175|213:182,1,144,10|0,0:0|0:0,0:0:0:0:
186,366,49253,1,0,0:0:0:0:
277,368,49366,6,0,B|312:342|352:340|390:365|390:365|435:353|467:315|456:278,1,242.999992584229,2|2,0:0|0:0,0:0:0:0:
406,79,49821,6,0,B|323:110|282:196|329:264|391:258|408:223|403:206,1,270,10|0,0:0|0:0,0:0:0:0:
296,57,50275,5,10,0:0:0:0:
296,57,50389,5,10,0:0:0:0:
255,225,50616,5,10,0:0:0:0:
431,54,50844,5,10,0:0:0:0:
171,94,51071,5,10,0:0:0:0:
452,281,51298,5,10,0:0:0:0:
305,15,51525,5,10,0:0:0:0:
40,345,51753,5,14,0:0:0:0:
40,345,52548,6,0,B|106:333|106:333|115:339|115:339|179:328,1,144,2|2,0:0|0:0,0:0:0:0:
241,281,53116,5,8,0:0:0:0:
272,285,53230,1,0,0:0:0:0:
304,291,53344,1,0,0:0:0:0:
354,347,53457,5,10,0:0:0:0:
402,336,53571,1,0,0:0:0:0:
454,327,53685,1,0,0:0:0:0:
496,159,53912,6,0,B|352:138|433:204|278:180,1,216,14|8,0:0|0:0,0:0:0:0:
190,72,54366,1,10,0:0:0:0:
190,72,54480,1,2,0:0:0:0:
233,319,54707,1,10,0:0:0:0:
311,69,54935,5,0,0:0:0:0:
311,69,55048,2,0,P|314:33|298:1,1,72,10|0,0:0|0:0,0:0:0:0:
120,34,55275,2,0,P|82:92|98:161,1,144,10|2,0:0|0:0,0:0:0:0:
256,318,55730,6,0,B|228:160|228:160|199:148|162:174,1,216,14|8,0:0|0:0,0:0:0:0:
129,299,56185,1,10,0:0:0:0:
129,299,56298,1,2,0:0:0:0:
326,264,56525,1,2,0:0:0:0:
69,253,56753,5,0,0:0:0:0:
69,253,56866,2,0,P|53:284|56:320,1,72,8|0,0:0|0:0,0:0:0:0:
216,384,57094,2,0,B|315:366|315:366|354:310,1,144,8|2,0:0|0:0,0:0:0:0:
248,168,57548,6,0,P|232:236|271:294,1,144,14|2,0:0|0:0,0:0:0:0:
470,234,57889,1,0,0:0:0:0:
463,200,58003,2,0,B|399:188|399:188|390:195|390:195|323:183,1,144,10|2,0:0|0:0,0:0:0:0:
202,102,58344,6,0,B|220:132|220:132|212:167,1,72,2|0,0:0|0:0,0:0:0:0:
111,185,58571,2,0,B|91:154|91:154|99:120,1,72,2|8,0:0|0:0,0:0:0:0:
234,34,58798,1,2,0:0:0:0:
258,14,58912,2,0,P|326:-2|385:35,1,144,10|0,0:0|0:0,0:0:0:0:
459,160,59253,5,0,0:0:0:0:
459,160,59366,2,0,L|446:230,1,72,10|0,0:0|0:0,0:0:0:0:
345,274,59594,2,0,L|357:203,1,72,10|0,0:0|0:0,0:0:0:0:
278,129,59821,1,10,0:0:0:0:
278,129,59935,2,0,L|265:199,1,72,2|2,0:0|0:0,0:0:0:0:
107,318,60162,6,0,P|103:282|120:251,1,72,0|0,0:0|0:0,0:0:0:0:
266,275,60389,1,8,0:0:0:0:
266,275,60503,2,0,P|271:310|256:343,1,72,8|0,0:0|0:0,0:0:0:0:
71,276,60730,2,0,B|58:211|58:211|65:202|65:202|52:135,1,144,8|8,0:0|0:0,0:0:0:0:
280,115,61185,6,0,B|130:141|130:141|117:70,1,216,14|8,0:0|0:0,0:0:0:0:
257,41,61639,1,10,0:0:0:0:
257,41,61753,1,2,0:0:0:0:
214,288,61980,1,10,0:0:0:0:
116,0,62207,5,0,0:0:0:0:
116,0,62321,2,0,L|194:13,1,72,10|0,0:0|0:0,0:0:0:0:
350,31,62548,2,2,B|362:98|362:98|355:107|355:107|367:171,1,144,10|0,0:0|0:0,0:0:0:0:
255,336,63003,6,0,P|224:236|286:153,1,216,14|8,0:0|0:0,0:0:0:0:
315,285,63457,1,10,0:0:0:0:
315,285,63571,1,2,0:0:0:0:
118,250,63798,1,2,0:0:0:0:
350,216,64025,5,0,0:0:0:0:
350,216,64139,2,0,B|385:240|385:240|403:339,2,144,8|10|2,0:0|0:0|0:0,0:0:0:0:
173,355,64821,6,0,P|105:372|46:333,1,144,14|0,0:0|0:0,0:0:0:0:
30,219,65162,1,8,0:0:0:0:
35,188,65275,2,0,L|50:101,1,72,8|0,0:0|0:0,0:0:0:0:
73,18,65503,1,2,0:0:0:0:
104,23,65616,1,8,0:0:0:0:
136,29,65730,6,0,L|214:42,1,72,0|0,0:0|0:0,0:0:0:0:
286,94,65957,2,0,P|281:58|298:27,1,72,8|0,0:0|0:0,0:0:0:0:
434,44,66185,5,8,0:0:0:0:
476,73,66298,1,0,0:0:0:0:
497,120,66412,1,0,0:0:0:0:
492,171,66525,1,0,0:0:0:0:
463,214,66639,6,0,B|470:257|470:257|479:263|479:263|487:306,2,99.0000030212403,10|0|0,0:0|0:0|0:0,0:0:0:0:
292,194,66980,6,0,B|299:150|299:150|308:144|308:144|316:101,2,99.0000030212403,10|0|0,0:0|0:0|0:0,0:0:0:0:
244,362,67321,5,10,0:0:0:0:
155,345,67435,1,0,0:0:0:0:
68,328,67548,1,0,0:0:0:0:
68,328,67775,6,0,B|15:291|0:242|32:188|32:188|150:211|179:139|150:95|110:80|76:119,1,396.000012084961,14|0,0:0|0:0,0:0:0:0:
198,301,68457,6,0,B|224:151|224:151|257:135|291:152,1,216,14|8,0:0|0:0,0:0:0:0:
379,284,68912,1,10,0:0:0:0:
379,284,69025,1,0,0:0:0:0:
336,37,69253,1,2,0:0:0:0:
512,235,69480,5,0,0:0:0:0:
512,235,69594,2,0,P|479:252|444:246,1,72,10|0,0:0|0:0,0:0:0:0:
453,36,69821,2,0,P|492:93|476:162,1,144,10|2,0:0|0:0,0:0:0:0:
308,219,70275,6,0,P|245:137|275:37,1,216,14|0,0:0|0:0,0:0:0:0:
362,165,70730,1,10,0:0:0:0:
362,165,70844,1,2,0:0:0:0:
165,200,71071,1,2,0:0:0:0:
350,17,71298,5,0,0:0:0:0:
350,17,71412,2,0,L|363:95,1,72,8|0,0:0|0:0,0:0:0:0:
436,188,71639,2,0,B|424:252|424:252|431:260|431:260|419:327,1,144,8|2,0:0|0:0,0:0:0:0:
216,376,72094,6,0,P|177:317|194:249,1,144,14|2,0:0|0:0,0:0:0:0:
324,145,72435,1,8,0:0:0:0:
315,115,72548,2,0,B|290:79|290:79|191:61,1,144,10|2,0:0|0:0,0:0:0:0:
85,140,72889,6,0,P|120:145|151:128,1,72,10|0,0:0|0:0,0:0:0:0:
131,12,73116,2,0,P|96:8|65:25,1,72,2|8,0:0|0:0,0:0:0:0:
9,141,73344,1,2,0:0:0:0:
14,171,73457,2,0,L|27:249,1,72,10|8,0:0|0:0,0:0:0:0:
109,347,73685,2,0,L|96:276,1,72,2|0,0:0|0:0,0:0:0:0:
310,185,73912,5,10,0:0:0:0:
310,185,74025,2,0,B|330:216|330:216|321:250,1,72,0|0,0:0|0:0,0:0:0:0:
184,275,74253,1,8,0:0:0:0:
184,275,74366,2,0,B|166:244|166:244|174:208,1,72,10|0,0:0|0:0,0:0:0:0:
327,108,74594,5,0,0:0:0:0:
358,112,74707,1,2,0:0:0:0:
390,118,74821,2,0,L|460:130,1,72,0|0,0:0|0:0,0:0:0:0:
512,26,75048,5,8,0:0:0:0:
459,35,75162,1,0,0:0:0:0:
412,43,75275,1,8,0:0:0:0:
282,65,75503,5,8,0:0:0:0:
152,87,75730,6,0,B|121:260|121:260|146:288|196:279,1,242.999992584229,14|8,0:0|0:0,0:0:0:0:
329,209,76185,2,0,P|407:195|475:235,1,161.999995056153,10|2,0:0|0:0,0:0:0:0:
452,367,76525,1,2,0:0:0:0:
452,367,76639,2,0,P|374:381|305:341,1,161.999995056153,2|10,0:0|0:0,0:0:0:0:
218,163,77094,2,0,B|231:88|231:88|240:81|240:81|259:-28,1,161.999995056153,10|2,0:0|0:0,0:0:0:0:
451,77,77548,6,0,B|459:116|459:116|436:150,1,80.9999975280763,14|0,0:0|0:0,0:0:0:0:
324,131,77775,2,0,B|314:91|314:91|336:58,1,80.9999975280763,0|8,0:0|0:0,0:0:0:0:
490,118,78003,1,10,0:0:0:0:
495,149,78116,2,0,L|510:235,1,80.9999975280763,2|0,0:0|0:0,0:0:0:0:
447,377,78344,1,2,0:0:0:0:
447,377,78457,1,0,0:0:0:0:
447,377,78685,6,0,B|431:289|431:289|438:280|438:280|422:192,2,188.999994232178,10|10|2,0:0|0:0|0:0,0:0:0:0:
224,237,79366,6,0,B|200:248|157:236|138:167|206:100|311:129|350:232,1,310.500005922318,12|8,0:0|0:0,0:0:0:0:
173,310,79821,5,10,0:0:0:0:
173,310,79935,5,2,0:0:0:0:
113,129,80162,5,2,0:0:0:0:
378,131,80389,5,2,0:0:0:0:
94,345,80616,5,2,0:0:0:0:
181,0,80844,5,2,0:0:0:0:
486,264,81071,5,2,0:0:0:0:
486,264,81185,5,6,0:0:0:0:
486,264,81639,6,0,P|511:217|505:164,1,107.999996704102,14|0,0:0|0:0,0:0:0:0:
329,155,81980,1,0,0:0:0:0:
329,155,82094,2,0,B|376:163|376:163|382:172|382:172|437:182,1,107.999996704102,0|10,0:0|0:0,0:0:0:0:
304,82,82548,6,0,B|190:101|190:101|180:124|187:148,1,161.999995056153,8|0,0:0|0:0,0:0:0:0:
281,215,83003,6,0,B|279:248|256:271|256:271|105:244,1,216,14|0,0:0|0:0,0:0:0:0:
18,300,83457,2,0,B|29:234|29:234|23:224|23:224|37:145,1,144,8|0,0:0|0:0,0:0:0:0:
50,45,83798,1,0,0:0:0:0:
50,45,83912,5,0,0:0:0:0:
152,164,84139,1,8,0:0:0:0:
211,7,84366,2,0,P|193:73|232:133,1,144,8|0,0:0|0:0,0:0:0:0:
507,120,84821,6,0,B|332:137|462:176|280:195,1,242.999992584229,14|8,0:0|0:0,0:0:0:0:
166,182,85275,2,0,B|207:211|207:211|228:325,1,161.999995056153,8|0,0:0|0:0,0:0:0:0:
129,382,85616,1,0,0:0:0:0:
129,382,85730,5,0,0:0:0:0:
96,210,85957,1,0,0:0:0:0:
287,226,86185,2,0,B|361:239|361:239|368:248|368:248|447:262,1,161.999995056153,8|0,0:0|0:0,0:0:0:0:
239,384,86639,5,14,0:0:0:0:
256,192,86753,12,0,89594,0:0:0:0:
172,161,89935,5,8,0:0:0:0:
172,161,90048,1,8,0:0:0:0:
228,105,90275,6,0,B|357:127|357:127|363:137|363:137|513:163,2,270,10|10|10,0:0|0:0|0:0,0:0:0:0:
273,19,91639,6,0,B|143:41|143:41|137:51|137:51|-12:77,1,270,10|0,0:0|0:0,0:0:0:0:
144,215,92775,6,0,P|143:188|135:162,2,53.9999983520508,2|0|2,0:0|0:0|0:0,0:0:0:0:
68,203,93116,1,0,0:0:0:0:
68,203,93230,1,8,0:0:0:0:
224,171,93457,1,2,0:0:0:0:
385,217,93912,6,0,B|473:233|528:311|493:386|431:391|409:359|411:342,2,270,10|10|10,0:0|0:0|0:0,0:0:0:0:
220,298,95275,6,0,B|221:315|199:347|137:342|102:267|157:189|245:173,1,270,10|2,0:0|0:0,0:0:0:0:
359,146,96412,5,2,0:0:0:0:
359,146,96639,1,2,0:0:0:0:
142,12,96866,5,8,0:0:0:0:
142,12,97435,5,2,0:0:0:0:
115,35,97548,2,0,B|64:117|104:134|97:204,1,161.999995056153,8|2,0:0|0:0,0:0:0:0:
220,262,97889,1,0,0:0:0:0:
228,232,98003,6,0,B|232:216|214:189|115:218|115:218|89:254,1,161.999995056153,10|0,0:0|0:0,0:0:0:0:
198,369,98344,1,8,0:0:0:0:
274,384,98457,6,0,B|300:387|312:386|359:365,1,80.9999975280763,8|0,0:0|0:0,0:0:0:0:
443,299,98685,1,2,0:0:0:0:
446,268,98798,1,0,0:0:0:0:
434,242,98912,6,0,B|436:231|436:231|423:210|423:210|414:181|419:159,1,80.9999975280763,8|0,0:0|0:0,0:0:0:0:
478,93,99139,2,0,B|476:104|476:104|489:125|489:125|498:154|493:176,1,80.9999975280763,2|0,0:0|0:0,0:0:0:0:
341,203,99366,6,0,B|246:222|244:179|176:162,1,161.999995056153,10|2,0:0|0:0,0:0:0:0:
338,34,99821,6,0,B|356:92|341:145|282:142|254:101,1,161.999995056153,10|0,0:0|0:0,0:0:0:0:
107,55,100162,1,8,0:0:0:0:
76,126,100275,6,0,B|59:154|95:175|79:211,1,80.9999975280763,8|0,0:0|0:0,0:0:0:0:
183,210,100503,2,0,B|199:238|163:259|179:295,1,80.9999975280763,2|0,0:0|0:0,0:0:0:0:
93,363,100730,6,0,B|118:350|141:353|189:374,1,80.9999975280763,10|0,0:0|0:0,0:0:0:0:
304,375,100957,1,2,0:0:0:0:
334,369,101071,1,0,0:0:0:0:
413,379,101185,5,2,0:0:0:0:
408,348,101298,1,0,0:0:0:0:
402,316,101412,1,0,0:0:0:0:
397,285,101525,1,0,0:0:0:0:
329,248,101639,5,10,0:0:0:0:
335,206,101753,1,8,0:0:0:0:
343,163,101866,1,0,0:0:0:0:
350,121,101980,1,8,0:0:0:0:
369,39,102094,5,8,0:0:0:0:
339,45,102207,2,0,B|309:51|279:55|279:55|264:62|264:62|220:65|174:82,1,161.999995056153,2|0,0:0|0:0,0:0:0:0:
59,104,102548,6,0,B|69:83|56:54|35:74|2:9,2,80.9999975280763,10|0|0,0:0|0:0|0:0,0:0:0:0:
162,267,103003,6,0,B|162:184|138:143|138:143|111:158|106:173,1,161.999995056153,10|2,0:0|0:0,0:0:0:0:
119,331,103344,1,0,0:0:0:0:
128,366,103457,6,0,B|88:359|88:359|83:357|83:357|37:357,2,80.9999975280763,10|0|2,0:0|0:0|0:0,0:0:0:0:
309,380,103798,1,0,0:0:0:0:
314,302,103912,5,10,0:0:0:0:
283,307,104025,1,0,0:0:0:0:
251,313,104139,1,2,0:0:0:0:
220,318,104253,1,0,0:0:0:0:
189,323,104366,6,0,B|183:292|194:262|194:262|210:245,1,80.9999975280763,10|0,0:0|0:0,0:0:0:0:
307,168,104594,2,0,B|324:176|324:176|344:200|350:231,1,80.9999975280763,10|0,0:0|0:0,0:0:0:0:
406,353,104821,5,10,0:0:0:0:
411,322,104935,1,0,0:0:0:0:
417,290,105048,1,0,0:0:0:0:
422,259,105162,1,0,0:0:0:0:
427,228,105275,6,0,B|424:169|444:113|444:113|447:83|447:83|458:45|460:34,1,161.999995056153,8|2,0:0|0:0,0:0:0:0:
337,0,105616,1,10,0:0:0:0:
341,78,105730,6,0,B|352:105|347:131|353:167|353:169,1,80.9999975280763,0|0,0:0|0:0,0:0:0:0:
274,256,105957,5,2,0:0:0:0:
243,251,106071,1,0,0:0:0:0:
200,282,106185,5,10,0:0:0:0:
191,240,106298,1,0,0:0:0:0:
184,197,106412,1,2,0:0:0:0:
176,155,106525,1,0,0:0:0:0:
196,106,106639,5,10,0:0:0:0:
143,115,106753,1,0,0:0:0:0:
88,124,106866,1,2,0:0:0:0:
34,135,106980,1,0,0:0:0:0:
67,179,107094,6,0,B|68:198|73:211|73:211|70:222,4,40.4999987640381,10|0|0|0|0,0:0|0:0|0:0|0:0|0:0,0:0:0:0:
49,45,107435,1,10,0:0:0:0:
124,23,107548,6,0,B|162:22|167:26|167:26|182:31|202:31,1,72,10|0,0:0|0:0,0:0:0:0:
274,102,107775,2,0,B|297:97|303:96|303:96|326:94|335:89,1,62.9999980773926,10|0,0:0|0:0,0:0:0:0:
418,20,108003,6,0,B|404:60|411:67|411:67|409:85,1,53.9999983520508,10|0,0:0|0:0,0:0:0:0:
456,158,108230,2,0,L|469:236,2,53.9999983520508,14|0|0,0:0|0:0|0:0,0:0:0:0:
399,257,108457,5,14,0:0:0:0:
391,301,108571,1,0,0:0:0:0:
433,284,108685,5,10,0:0:0:0:
357,272,108798,1,0,0:0:0:0:
280,259,108912,5,10,0:0:0:0:
127,234,109139,5,2,0:0:0:0:
127,234,109253,5,10,0:0:0:0:
225,113,109480,5,10,0:0:0:0:
178,382,109707,5,10,0:0:0:0:
62,40,109935,5,10,0:0:0:0:
62,40,110048,2,0,B|201:65|127:2|260:32,1,201.600002460938,10|8,0:0|0:0,0:0:0:0:
337,44,111033,6,0,L|388:34,2,41.9999987182618,8|0|8,0:0|0:0|0:0,0:0:0:0:
289,105,111298,1,8,0:0:0:0:
400,141,111525,1,8,0:0:0:0:
344,225,111753,5,8,0:0:0:0:
311,236,111866,1,8,0:0:0:0:
358,343,112094,5,10,0:0:0:0:
325,337,112207,1,0,0:0:0:0:
292,331,112321,2,0,L|222:318,1,67.5000025749208,2|0,0:0|0:0,0:0:0:0:
109,345,112548,2,0,B|147:318|147:318|162:231,1,135.000005149842,10|0,0:0|0:0,0:0:0:0:
120,68,112889,1,0,0:0:0:0:
120,68,113003,6,0,P|83:122|97:186,1,135.000005149842,10|0,0:0|0:0,0:0:0:0:
237,210,113344,1,10,0:0:0:0:
243,177,113457,2,0,L|255:110,1,67.5000025749208,2|0,0:0|0:0,0:0:0:0:
274,13,113685,1,10,0:0:0:0:
274,13,113912,6,0,L|341:24,1,67.5000025749208,2|0,0:0|0:0,0:0:0:0:
491,44,114140,1,2,0:0:0:0:
501,93,114253,1,0,0:0:0:0:
512,142,114366,6,0,B|449:130|449:130|442:121|442:121|371:109,1,135.000005149842,10|0,0:0|0:0,0:0:0:0:
303,211,114707,1,0,0:0:0:0:
352,200,114821,1,8,0:0:0:0:
402,192,114935,1,10,0:0:0:0:
402,192,115162,5,10,0:0:0:0:
396,225,115275,2,0,L|384:292,1,67.5000025749208,2|0,0:0|0:0,0:0:0:0:
369,384,115503,1,10,0:0:0:0:
369,384,115730,5,10,0:0:0:0:
336,378,115844,1,0,0:0:0:0:
303,372,115957,2,0,L|233:359,1,67.5000025749208,2|8,0:0|0:0,0:0:0:0:
162,233,116185,6,0,P|177:298|140:352,1,135.000005149842,10|0,0:0|0:0,0:0:0:0:
21,271,116525,5,10,0:0:0:0:
26,238,116639,1,8,0:0:0:0:
33,207,116753,1,10,0:0:0:0:
33,207,116980,5,10,0:0:0:0:
28,174,117094,1,2,0:0:0:0:
287,113,117321,5,14,0:0:0:0:
256,192,117435,12,10,118685,0:0:0:0:
403,256,118912,5,10,0:0:0:0:
409,213,119025,1,0,0:0:0:0:
413,172,119139,1,8,0:0:0:0:
417,127,119253,1,0,0:0:0:0:
419,84,119366,6,0,B|331:76|331:76|295:106,1,135,14|8,0:0|0:0,0:0:0:0:
192,188,119821,2,0,P|235:196|277:181,1,90,8|2,0:0|0:0,0:0:0:0:
233,61,120162,6,0,L|178:65,1,45,0|0,0:0|0:0,0:0:0:0:
128,11,120389,1,0,0:0:0:0:
128,11,120503,2,0,L|73:15,1,45,8|0,0:0|0:0,0:0:0:0:
79,131,120730,2,0,P|95:89|87:45,1,90,8|0,0:0|0:0,0:0:0:0:
2,129,121071,1,0,0:0:0:0:
4,159,121185,6,0,B|9:220|9:220|18:228|18:228|24:299,1,135,12|8,0:0|0:0,0:0:0:0:
107,363,121639,2,0,L|99:267,1,90,8|0,0:0|0:0,0:0:0:0:
142,161,121980,6,0,L|139:205,1,45,2|0,0:0|0:0,0:0:0:0:
209,277,122207,1,0,0:0:0:0:
209,277,122321,2,0,L|213:232,1,45,10|0,0:0|0:0,0:0:0:0:
199,106,122548,2,0,P|263:87|322:115,1,135,10|0,0:0|0:0,0:0:0:0:
352,212,123003,6,0,P|416:231|475:203,1,135,14|8,0:0|0:0,0:0:0:0:
401,57,123457,2,0,L|394:147,1,90,8|2,0:0|0:0,0:0:0:0:
379,307,123798,6,0,L|324:303,1,45,0|0,0:0|0:0,0:0:0:0:
274,357,124025,1,0,0:0:0:0:
274,357,124139,2,0,L|219:353,1,45,8|0,0:0|0:0,0:0:0:0:
129,372,124366,6,0,P|157:313|139:249,1,135,12|0,0:0|0:0,0:0:0:0:
74,205,124821,2,0,P|56:142|85:83,1,135,12|8,0:0|0:0,0:0:0:0:
241,125,125275,2,0,P|197:132|155:117,1,90,8|0,0:0|0:0,0:0:0:0:
251,3,125616,6,0,L|248:47,1,45,0|0,0:0|0:0,0:0:0:0:
318,119,125844,1,0,0:0:0:0:
318,119,125957,2,0,L|322:74,1,45,8|0,0:0|0:0,0:0:0:0:
428,0,126185,6,0,B|396:60|396:60|417:123,1,135,10|0,0:0|0:0,0:0:0:0:
472,179,126639,2,0,B|493:242|493:242|461:302,1,135,14|8,0:0|0:0,0:0:0:0:
307,363,127094,1,10,0:0:0:0:
325,204,127321,1,2,0:0:0:0:
325,204,127435,6,0,L|270:198,1,45,0|2,0:0|0:0,0:0:0:0:
221,257,127662,1,0,0:0:0:0:
221,257,127775,2,0,L|166:251,1,45,10|0,0:0|0:0,0:0:0:0:
138,357,128003,2,0,L|145:267,1,90,10|2,0:0|0:0,0:0:0:0:
66,175,128344,1,2,0:0:0:0:
96,161,128457,6,0,B|157:166|157:166|165:175|165:175|236:181,1,135,14|8,0:0|0:0,0:0:0:0:
344,114,128912,2,0,P|302:99|258:106,1,90,8|0,0:0|0:0,0:0:0:0:
289,233,129253,6,0,L|286:277,1,45,0|0,0:0|0:0,0:0:0:0:
354,348,129480,1,0,0:0:0:0:
354,348,129594,2,0,L|357:303,1,45,10|0,0:0|0:0,0:0:0:0:
459,250,129821,2,0,L|470:115,1,135,10|0,0:0|0:0,0:0:0:0:
477,14,130275,6,0,B|441:44|441:44|353:36,1,135,10|8,0:0|0:0,0:0:0:0:
233,113,130730,2,0,P|276:120|319:105,1,90,8|2,0:0|0:0,0:0:0:0:
186,51,131071,6,0,L|130:54,1,45,0|0,0:0|0:0,0:0:0:0:
80,0,131298,1,0,0:0:0:0:
80,0,131412,2,0,L|24:3,1,45,8|0,0:0|0:0,0:0:0:0:
0,117,131639,6,0,B|87:109|87:109|123:139,1,135,8|0,0:0|0:0,0:0:0:0:
147,245,132094,5,10,0:0:0:0:
144,276,132207,1,2,0:0:0:0:
232,358,132435,5,10,0:0:0:0:
229,327,132548,1,2,0:0:0:0:
317,245,132775,5,10,0:0:0:0:
314,276,132889,1,2,0:0:0:0:
402,358,133116,5,2,0:0:0:0:
399,327,133230,1,0,0:0:0:0:
396,296,133344,1,0,0:0:0:0:
417,273,133457,5,10,0:0:0:0:
421,227,133571,1,0,0:0:0:0:
423,181,133685,1,0,0:0:0:0:
427,140,133798,1,0,0:0:0:0:
431,99,133912,6,0,B|356:105|356:105|349:114|349:114|273:120,1,161.999995056153,14|8,0:0|0:0,0:0:0:0:
173,61,134366,2,0,P|195:110|184:162,1,107.999996704102,8|2,0:0|0:0,0:0:0:0:
42,171,134707,6,0,L|38:115,1,53.9999983520508,0|0,0:0|0:0,0:0:0:0:
91,10,134935,1,0,0:0:0:0:
91,10,135048,2,0,L|96:63,1,53.9999983520508,8|0,0:0|0:0,0:0:0:0:
156,176,135275,2,0,L|147:283,1,107.999996704102,8|0,0:0|0:0,0:0:0:0:
32,312,135616,1,0,0:0:0:0:
31,342,135730,6,0,B|106:348|106:348|113:357|113:357|189:363,1,161.999995056153,12|8,0:0|0:0,0:0:0:0:
325,301,136185,2,0,P|274:314|225:294,1,107.999996704102,8|0,0:0|0:0,0:0:0:0:
284,165,136525,6,0,L|339:169,1,53.9999983520508,0|2,0:0|0:0,0:0:0:0:
395,223,136753,1,0,0:0:0:0:
395,223,136866,2,0,L|450:227,1,53.9999983520508,8|0,0:0|0:0,0:0:0:0:
512,111,137094,2,0,P|443:72|368:97,1,161.999995056153,10|0,0:0|0:0,0:0:0:0:
266,164,137548,6,0,P|291:90|254:21,1,161.999995056153,14|8,0:0|0:0,0:0:0:0:
127,49,138003,2,0,P|115:100|137:149,1,107.999996704102,8|2,0:0|0:0,0:0:0:0:
237,235,138344,6,0,L|181:231,1,53.9999983520508,0|0,0:0|0:0,0:0:0:0:
76,284,138571,1,0,0:0:0:0:
76,284,138685,2,0,L|129:289,1,53.9999983520508,8|0,0:0|0:0,0:0:0:0:
242,339,138912,2,0,B|316:331|316:331|325:339|325:339|401:332,1,161.999995056153,10|0,0:0|0:0,0:0:0:0:
490,384,139366,6,0,B|479:265|479:265|456:254|424:269,1,161.999995056153,10|8,0:0|0:0,0:0:0:0:
317,255,139821,6,0,B|287:242|269:213|275:179|275:179|304:161|317:132|309:90,1,188.999994232178,10|0,0:0|0:0,0:0:0:0:
371,0,140275,6,0,B|220:3|318:54|167:56,1,216,2|0,0:0|0:0,0:0:0:0:
45,18,140730,6,0,B|93:75|93:75|78:242,1,242.999992584229,2|0,0:0|0:0,0:0:0:0:
0,327,141185,6,0,B|74:319|74:319|83:327|83:327|159:320,1,161.999995056153,14|8,0:0|0:0,0:0:0:0:
240,181,141639,1,10,0:0:0:0:
278,359,141866,1,0,0:0:0:0:
278,359,141980,6,0,L|274:304,1,53.9999983520508,2|0,0:0|0:0,0:0:0:0:
323,243,142207,1,0,0:0:0:0:
323,243,142321,2,0,L|319:188,1,53.9999983520508,10|0,0:0|0:0,0:0:0:0:
450,109,142548,2,0,P|401:130|350:117,1,107.999996704102,10|2,0:0|0:0,0:0:0:0:
257,21,142889,1,2,0:0:0:0:
223,18,143003,6,0,L|240:219,1,202.500007724762,14|8,0:0|0:0,0:0:0:0:
36,183,143457,2,0,P|95:154|158:173,1,135.000005149842,8|0,0:0|0:0,0:0:0:0:
194,319,143798,6,0,L|113:325,1,67.5000025749208,0|0,0:0|0:0,0:0:0:0:
22,263,144025,1,0,0:0:0:0:
22,263,144139,2,0,L|88:256,1,67.5000025749208,10|0,0:0|0:0,0:0:0:0:
244,260,144366,2,0,L|222:17,1,242.999992584229,10|0,0:0|0:0,0:0:0:0:
387,0,144821,6,0,B|382:74|382:74|372:81|372:81|366:157,1,161.999995056153,6|10,0:0|0:0,0:0:0:0:
431,273,145275,2,0,P|453:224|442:173,1,107.999996704102,8|0,0:0|0:0,0:0:0:0:
311,212,145616,6,0,L|306:265,1,53.9999983520508,0|0,0:0|0:0,0:0:0:0:
350,330,145844,1,0,0:0:0:0:
350,330,145957,2,0,L|345:383,1,53.9999983520508,8|0,0:0|0:0,0:0:0:0:
218,383,146185,2,0,L|233:207,1,161.999995056153,0|0,0:0|0:0,0:0:0:0:
221,59,146639,5,10,0:0:0:0:
161,109,146753,2,0,P|156:144|166:178,1,72,0|0,0:0|0:0,0:0:0:0:
324,145,146980,5,10,0:0:0:0:
295,132,147094,2,0,P|263:129|233:137,1,62.9999980773926,0|0,0:0|0:0,0:0:0:0:
310,241,147321,5,10,0:0:0:0:
324,238,147435,2,0,L|387:232,1,53.9999983520508,0|0,0:0|0:0,0:0:0:0:
481,152,147662,5,2,0:0:0:0:
481,152,147775,2,0,L|417:146,1,45,10|0,0:0|0:0,0:0:0:0:
362,60,148003,5,10,0:0:0:0:
337,58,148116,1,0,0:0:0:0:
314,56,148230,1,0,0:0:0:0:
291,54,148344,1,0,0:0:0:0:
267,33,148457,6,0,L|98:18,2,161.999995056153,14|10|10,0:0|0:0|0:0,0:0:0:0:
298,37,149480,1,0,0:0:0:0:
298,37,149594,1,0,0:0:0:0:
437,49,149821,1,8,0:0:0:0:
437,49,149934,1,0,0:0:0:0:
437,49,150048,1,0,0:0:0:0:
377,226,150275,6,0,P|345:158|376:63,1,161.999995056153,12|8,0:0|0:0,0:0:0:0:
469,239,151185,2,0,L|462:319,1,80.9999975280763,10|0,0:0|0:0,0:0:0:0:
380,384,151526,1,0,0:0:0:0:
380,384,151639,2,0,L|386:303,1,80.9999975280763,10|2,0:0|0:0,0:0:0:0:
227,361,152094,6,0,P|264:375|303:368,1,80.9999975280763,14|0,0:0|0:0,0:0:0:0:
273,267,152434,1,0,0:0:0:0:
273,267,152548,2,0,B|163:271|225:303|116:308,1,161.999995056153,8|10,0:0|0:0,0:0:0:0:
35,208,153230,2,0,B|56:241|56:241|48:281,2,80.9999975280763,2|10|2,0:0|0:0|0:0,0:0:0:0:
0,52,153912,6,0,B|76:59|76:59|83:68|83:68|157:74,1,161.999995056153,14|8,0:0|0:0,0:0:0:0:
349,34,154594,1,0,0:0:0:0:
349,34,154707,1,0,0:0:0:0:
349,34,154821,6,0,P|295:9|238:26,1,121.499996292114,8|0,0:0|0:0,0:0:0:0:
236,58,155275,1,8,0:0:0:0:
233,89,155389,1,0,0:0:0:0:
230,118,155503,1,2,0:0:0:0:
228,149,155616,1,0,0:0:0:0:
225,179,155730,6,0,B|313:186|313:186|339:164,1,121.499996292114,14|2,0:0|0:0,0:0:0:0:
360,141,156185,2,0,P|398:133|435:148,1,80.9999975280763,8|2,0:0|0:0,0:0:0:0:
456,173,156525,1,0,0:0:0:0:
456,173,156639,2,0,B|446:228|446:228|437:234|437:234|424:305,1,121.499996292114,10|0,0:0|0:0,0:0:0:0:
420,316,157094,1,10,0:0:0:0:
389,318,157208,1,0,0:0:0:0:
358,320,157321,1,2,0:0:0:0:
329,323,157435,1,0,0:0:0:0:
298,326,157548,6,0,L|283:158,1,161.999995056153,14|8,0:0|0:0,0:0:0:0:
137,232,158230,1,2,0:0:0:0:
137,232,158457,2,0,P|174:246|212:239,1,80.9999975280763,14|0,0:0|0:0,0:0:0:0:
224,115,158798,1,0,0:0:0:0:
224,115,158912,2,0,P|187:99|148:107,1,80.9999975280763,10|2,0:0|0:0,0:0:0:0:
59,210,159253,1,0,0:0:0:0:
59,210,159366,6,0,B|63:266|63:266|71:272|71:272|78:344,1,125.999996154785,10|0,0:0|0:0,0:0:0:0:
277,300,159707,1,8,0:0:0:0:
274,271,159821,6,0,B|181:272|226:234|138:235,1,144,10|0,0:0|0:0,0:0:0:0:
337,350,160162,1,0,0:0:0:0:
352,260,160275,2,0,B|366:92|366:92|339:64|279:71,1,242.999992584229,2|0,0:0|0:0,0:0:0:0:
68,91,160730,6,0,B|116:93|152:121|167:169|167:169|214:192|269:182|286:142,1,270,10|0,0:0|0:0,0:0:0:0:
386,9,161185,5,10,0:0:0:0:
386,9,161298,5,10,0:0:0:0:
220,101,161525,5,10,0:0:0:0:
441,115,161753,5,10,0:0:0:0:
207,0,161980,5,10,0:0:0:0:
183,275,162207,5,10,0:0:0:0:
448,38,162435,5,10,0:0:0:0:
14,36,162662,5,14,0:0:0:0:
13,35,163457,6,0,B|5:134|5:134|21:151|48:150,1,144,2|2,0:0|0:0,0:0:0:0:
113,107,164025,5,8,0:0:0:0:
113,107,164139,2,0,L|183:119,1,53.9999983520508,0|0,0:0|0:0,0:0:0:0:
283,51,164366,5,10,0:0:0:0:
292,103,164480,1,0,0:0:0:0:
303,151,164594,1,0,0:0:0:0:
120,252,164821,6,0,B|267:275|186:209|330:230,1,216,14|8,0:0|0:0,0:0:0:0:
410,327,165275,1,10,0:0:0:0:
410,327,165389,1,2,0:0:0:0:
363,56,165616,1,2,0:0:0:0:
266,310,165844,5,0,0:0:0:0:
266,310,165957,2,0,P|298:325|334:321,1,72,10|0,0:0|0:0,0:0:0:0:
445,182,166185,2,0,B|380:171|380:171|374:161|374:161|307:150,1,144,10|2,0:0|0:0,0:0:0:0:
157,26,166639,6,0,B|215:67|215:67|240:209,1,216,14|0,0:0|0:0,0:0:0:0:
118,166,167094,1,10,0:0:0:0:
118,166,167207,1,2,0:0:0:0:
332,120,167434,1,2,0:0:0:0:
177,299,167662,5,0,0:0:0:0:
177,299,167775,2,0,L|164:228,1,72,8|0,0:0|0:0,0:0:0:0:
331,149,168003,2,0,B|319:213|319:213|326:222|326:222|314:289,1,144,8|2,0:0|0:0,0:0:0:0:
109,338,168457,6,0,P|69:280|85:211,1,144,14|2,0:0|0:0,0:0:0:0:
213,76,168798,1,8,0:0:0:0:
226,108,168912,2,0,P|168:147|99:131,1,144,8|2,0:0|0:0,0:0:0:0:
129,0,169253,6,0,B|147:30|147:30|139:65,1,72,0|2,0:0|0:0,0:0:0:0:
38,83,169480,2,0,B|18:52|18:52|26:18,1,72,2|10,0:0|0:0,0:0:0:0:
221,7,169707,1,2,0:0:0:0:
251,0,169821,2,0,B|315:10|315:10|321:20|321:20|388:31,1,144,10|2,0:0|0:0,0:0:0:0:
481,128,170162,5,0,0:0:0:0:
481,128,170275,2,0,L|411:141,1,72,10|0,0:0|0:0,0:0:0:0:
367,242,170503,2,0,L|438:230,1,72,10|0,0:0|0:0,0:0:0:0:
512,309,170730,1,10,0:0:0:0:
512,309,170844,2,0,L|442:322,1,72,2|0,0:0|0:0,0:0:0:0:
216,361,171071,6,0,B|208:325|208:325|227:295,1,72,10|0,0:0|0:0,0:0:0:0:
361,319,171298,1,8,0:0:0:0:
361,319,171412,2,0,B|368:353|368:353|349:384,1,72,8|0,0:0|0:0,0:0:0:0:
176,316,171639,2,0,P|136:258|152:189,1,144,8|8,0:0|0:0,0:0:0:0:
338,39,172094,6,8,B|356:63|344:92|344:92|186:120,1,216,14|0,0:0|0:0,0:0:0:0:
156,8,172548,1,10,0:0:0:0:
156,8,172662,1,2,0:0:0:0:
109,279,172889,1,10,0:0:0:0:
12,21,173116,5,0,0:0:0:0:
12,20,173230,2,0,P|43:5|79:8,1,72,10|0,0:0|0:0,0:0:0:0:
135,127,173457,2,0,P|78:166|10:151,1,144,10|2,0:0|0:0,0:0:0:0:
198,39,173912,6,0,B|215:140|215:140|209:149|209:149|230:267,1,216,14|8,0:0|0:0,0:0:0:0:
354,245,174366,1,8,0:0:0:0:
354,245,174479,1,2,0:0:0:0:
140,199,174706,1,2,0:0:0:0:
335,319,174935,5,0,0:0:0:0:
335,319,175048,2,0,B|400:329|400:329|406:339|406:339|472:349,2,144,10|10|2,0:0|0:0|0:0,0:0:0:0:
430,73,175730,6,0,P|469:131|453:199,1,144,14|0,0:0|0:0,0:0:0:0:
330,242,176071,1,2,0:0:0:0:
297,236,176185,2,0,L|219:223,1,72,8|0,0:0|0:0,0:0:0:0:
107,198,176412,1,0,0:0:0:0:
112,167,176525,1,2,0:0:0:0:
118,135,176639,6,0,L|130:56,1,72,0|0,0:0|0:0,0:0:0:0:
220,4,176866,2,0,P|225:40|208:71,1,72,8|0,0:0|0:0,0:0:0:0:
53,43,177094,5,8,0:0:0:0:
39,116,177207,1,0,0:0:0:0:
26,190,177321,1,8,0:0:0:0:
13,264,177435,1,0,0:0:0:0:
26,338,177548,6,0,B|22:363|50:382|50:382|138:366|138:366|145:357|145:357|233:341|233:341|261:361|258:385,2,297.000009063721,2|2|2,0:0|0:0|0:0,0:0:0:0:
182,218,178685,6,0,P|218:212|249:229,1,72,2|0,0:0|0:0,0:0:0:0:
313,311,178912,6,0,B|257:244|265:151|338:116|387:152|385:190|372:201,1,256.499993150711,2|0,0:0|0:0,0:0:0:0:
232,138,179366,6,0,B|229:123|229:123|233:85|233:85|218:56,3,85.4999977169037,2|0|0|0,0:0|0:0|0:0|0:0,0:0:0:0:
340,0,179821,6,0,B|303:37|334:65|324:80,3,85.4999977169037,2|0|0|0,0:0|0:0|0:0|0:0,0:0:0:0:
434,114,180275,5,2,0:0:0:0:
406,182,180388,1,2,0:0:0:0:
455,238,180503,2,0,B|448:275|448:275|439:281|439:281|432:321,1,85.4999977169037,10|0,0:0|0:0,0:0:0:0:
275,372,180730,5,10,0:0:0:0:
228,362,180843,1,0,0:0:0:0:
181,354,180957,2,0,L|138:346,2,42.7499988584519,10|0|0,0:0|0:0|0:0,0:0:0:0:
103,209,181185,6,0,B|243:160|175:239|312:194,1,216,14|8,0:0|0:0,0:0:0:0:
394,97,181639,1,10,0:0:0:0:
394,97,181753,1,2,0:0:0:0:
347,368,181980,1,10,0:0:0:0:
256,84,182207,5,0,0:0:0:0:
256,84,182321,2,0,P|287:67|322:71,1,72,10|0,0:0|0:0,0:0:0:0:
512,151,182548,2,0,P|454:190|386:174,1,144,10|2,0:0|0:0,0:0:0:0:
207,24,183003,6,0,B|183:6|154:18|154:18|126:176,1,216,14|8,0:0|0:0,0:0:0:0:
232,134,183457,1,10,0:0:0:0:
232,134,183570,1,2,0:0:0:0:
15,163,183797,1,2,0:0:0:0:
211,273,184025,5,0,0:0:0:0:
211,273,184139,2,0,L|197:194,1,72,8|0,0:0|0:0,0:0:0:0:
64,221,184366,2,0,B|82:320|82:320|138:359,1,144,8|2,0:0|0:0,0:0:0:0:
278,310,184821,6,0,B|342:320|342:320|347:329|347:329|414:341,1,144,14|0,0:0|0:0,0:0:0:0:
500,220,185162,1,8,0:0:0:0:
512,191,185275,2,0,P|527:122|488:64,1,144,10|2,0:0|0:0,0:0:0:0:
388,133,185616,2,0,B|357:153|357:153|323:144,1,72,2|0,0:0|0:0,0:0:0:0:
304,28,185844,2,0,B|335:8|335:8|369:17,1,72,2|8,0:0|0:0,0:0:0:0:
419,204,186071,5,2,0:0:0:0:
414,236,186185,2,0,L|343:248,1,72,10|0,0:0|0:0,0:0:0:0:
266,314,186412,2,0,L|195:326,1,72,2|0,0:0|0:0,0:0:0:0:
215,181,186639,5,14,0:0:0:0:
215,181,186753,2,0,P|219:216|202:246,1,72,0|2,0:0|0:0,0:0:0:0:
66,225,186980,1,8,0:0:0:0:
66,225,187094,2,0,P|61:189|79:159,1,72,10|2,0:0|0:0,0:0:0:0:
220,104,187321,5,0,0:0:0:0:
250,97,187434,1,2,0:0:0:0:
282,91,187548,2,0,L|351:78,1,72,0|0,0:0|0:0,0:0:0:0:
447,0,187775,5,8,0:0:0:0:
438,46,187888,1,0,0:0:0:0:
428,99,188002,1,8,0:0:0:0:
404,228,188230,5,8,0:0:0:0:
380,357,188457,6,0,B|202:335|320:402|140:374,1,242.999992584229,14|8,0:0|0:0,0:0:0:0:
99,271,188912,2,0,B|81:192|81:192|124:124,1,161.999995056153,10|0,0:0|0:0,0:0:0:0:
258,145,189253,1,0,0:0:0:0:
258,145,189366,2,0,B|275:225|275:225|231:293,1,161.999995056153,2|8,0:0|0:0,0:0:0:0:
9,164,189821,2,0,P|-5:86|35:17,1,161.999995056153,10|2,0:0|0:0,0:0:0:0:
288,6,190275,6,0,B|308:39|308:39|298:79,1,80.9999975280763,14|0,0:0|0:0,0:0:0:0:
187,100,190503,2,0,B|163:65|163:65|173:27,1,80.9999975280763,2|8,0:0|0:0,0:0:0:0:
328,89,190730,1,10,0:0:0:0:
358,94,190844,2,0,L|443:109,1,80.9999975280763,2|0,0:0|0:0,0:0:0:0:
512,222,191071,1,2,0:0:0:0:
512,222,191185,1,0,0:0:0:0:
511,221,191412,6,0,B|423:237|423:237|414:230|414:230|327:246,2,188.999994232178,10|10|2,0:0|0:0|0:0,0:0:0:0:
357,330,192094,6,0,B|152:293|152:293|119:247|155:199,1,310.500005922318,14|8,0:0|0:0,0:0:0:0:
282,55,192548,5,10,0:0:0:0:
282,55,192662,5,2,0:0:0:0:
228,229,192889,5,2,0:0:0:0:
123,23,193116,5,2,0:0:0:0:
263,312,193343,5,2,0:0:0:0:
466,39,193571,5,2,0:0:0:0:
5,169,193798,5,2,0:0:0:0:
5,169,193912,5,6,0:0:0:0:
5,169,194366,6,0,B|13:215|13:215|7:224|7:224|16:279,1,107.999996704102,14|0,0:0|0:0,0:0:0:0:
187,206,194707,1,0,0:0:0:0:
187,206,194821,2,0,P|140:181|88:187,1,107.999996704102,0|10,0:0|0:0,0:0:0:0:
219,287,195275,2,0,B|228:262|260:255|289:267|289:267|299:295|321:310|351:311,1,161.999995056153,8|2,0:0|0:0,0:0:0:0:
461,185,195730,6,0,B|454:151|413:133|373:142|373:142|353:177|320:192|282:185,1,216,14|8,0:0|0:0,0:0:0:0:
169,67,196185,2,0,P|208:122|192:192,1,144,10|0,0:0|0:0,0:0:0:0:
101,106,196525,1,0,0:0:0:0:
101,106,196639,5,0,0:0:0:0:
281,94,196866,1,8,0:0:0:0:
184,271,197094,2,0,B|249:283|249:283|257:292|257:292|336:306,1,144,8|0,0:0|0:0,0:0:0:0:
416,384,197435,1,0,0:0:0:0:
416,384,197548,6,0,B|388:226|388:226|446:143,1,242.999992584229,14|8,0:0|0:0,0:0:0:0:
490,62,198003,2,0,B|416:74|416:74|409:84|409:84|335:97,1,161.999995056153,8|0,0:0|0:0,0:0:0:0:
201,125,198344,1,0,0:0:0:0:
201,125,198457,5,0,0:0:0:0:
366,12,198685,1,8,0:0:0:0:
328,223,198912,2,0,P|264:269|190:246,1,161.999995056153,8|0,0:0|0:0,0:0:0:0:
71,149,199366,6,0,B|55:109|103:85|175:125|111:197|47:229|47:229|118:240|123:294,1,323.999990112305,8|2,0:0|0:0,0:0:0:0:
248,183,201185,6,0,B|249:238|199:272|199:272|248:246|304:268|304:268|355:291|410:267,1,323.999990112305,10|0,0:0|0:0,0:0:0:0:
457,123,203003,6,0,B|393:175|304:151|271:86|271:86|231:125|166:107,1,323.999990112305,8|0,0:0|0:0,0:0:0:0:
57,5,204821,6,0,B|76:112|76:112|110:153|110:153|139:313,1,323.999990112305,10|2,0:0|0:0,0:0:0:0:
284,286,206639,6,0,B|280:304|241:331|172:300|164:200|259:135|365:153,1,323.999990112305,10|0,0:0|0:0,0:0:0:0:
451,55,208457,6,0,B|415:174|486:258|486:258|465:315|401:310,1,323.999990112305,8|2,0:0|0:0,0:0:0:0:
265,342,210275,6,0,L|296:347,2,26.9999991760254,10|2|2,0:0|0:0|0:0,0:0:0:0:
167,288,210730,2,0,L|135:293,4,26.9999991760254,10|2|2|2|2,0:0|0:0|0:0|0:0|0:0,0:0:0:0:
264,234,211412,2,0,L|295:239,4,26.9999991760254,10|2|2|2|2,0:0|0:0|0:0|0:0|0:0,0:0:0:0:
166,180,212094,5,12,0:0:0:0:
256,192,212207,12,0,213685,0:0:0:0:
230,83,213912,6,0,B|120:73|120:73|111:94|115:108,1,144,10|0,0:0|0:0,0:0:0:0:
271,150,214253,1,8,0:0:0:0:
304,140,214366,6,0,B|412:115|360:169|475:139,1,161.999995056153,10|0,0:0|0:0,0:0:0:0:
256,75,214707,1,0,0:0:0:0:
195,159,214821,6,0,B|197:207|225:243|273:258|273:258|296:305|286:360|246:377,1,270,2|0,0:0|0:0,0:0:0:0:
44,351,215275,6,0,B|30:365|-12:368|-52:312|-13:229|91:220|167:283,1,297.000009063721,10|0,0:0|0:0,0:0:0:0:
353,376,215730,5,10,0:0:0:0:
353,376,215844,5,10,0:0:0:0:
349,185,216071,5,10,0:0:0:0:
179,359,216298,5,10,0:0:0:0:
477,289,216525,5,10,0:0:0:0:
263,64,216753,5,10,0:0:0:0:
44,351,216980,5,10,0:0:0:0:
512,91,217207,5,14,0:0:0:0:
512,91,218003,6,0,B|417:67|462:113|370:88,1,144,2|2,0:0|0:0,0:0:0:0:
265,10,218685,5,8,0:0:0:0:
240,163,218912,2,0,L|248:115,1,36,10|0,0:0|0:0,0:0:0:0:
265,10,219139,1,8,0:0:0:0:
133,46,219366,6,0,B|153:160|153:160|162:166|162:166|183:284,1,242.999992584229,14|10,0:0|0:0,0:0:0:0:
321,351,219821,1,10,0:0:0:0:
320,349,219935,1,2,0:0:0:0:
22,296,220162,1,10,0:0:0:0:
295,200,220389,5,0,0:0:0:0:
295,200,220503,2,0,L|279:286,1,80.9999975280763,10|0,0:0|0:0,0:0:0:0:
111,366,220730,2,0,B|98:293|98:293|104:283|104:283|90:205,1,161.999995056153,10|2,0:0|0:0,0:0:0:0:
255,117,221185,6,0,B|431:134|307:172|480:189,1,242.999992584229,14|8,0:0|0:0,0:0:0:0:
408,83,221639,1,10,0:0:0:0:
408,83,221752,1,2,0:0:0:0:
440,321,221979,1,2,0:0:0:0:
486,77,222208,5,0,0:0:0:0:
511,46,222321,1,8,0:0:0:0:
498,9,222435,1,0,0:0:0:0:
459,3,222548,1,8,0:0:0:0:
434,33,222662,1,0,0:0:0:0:
447,70,222775,1,2,0:0:0:0:
512,232,223003,6,0,B|438:245|438:245|428:238|428:238|334:255,1,161.999995056153,14|2,0:0|0:0,0:0:0:0:
275,354,223344,1,8,0:0:0:0:
244,353,223457,2,0,B|230:279|230:279|237:269|237:269|220:175,1,161.999995056153,10|2,0:0|0:0,0:0:0:0:
143,81,223798,6,0,P|139:121|157:158,1,80.9999975280763,2|0,0:0|0:0,0:0:0:0:
274,136,224025,2,0,P|277:96|261:59,1,80.9999975280763,2|8,0:0|0:0,0:0:0:0:
82,35,224253,1,0,0:0:0:0:
51,35,224366,2,0,P|3:96|25:171,1,161.999995056153,10|2,0:0|0:0,0:0:0:0:
118,334,224707,5,0,0:0:0:0:
118,334,224821,2,0,L|132:254,1,80.9999975280763,10|0,0:0|0:0,0:0:0:0:
246,204,225048,2,0,L|231:283,1,80.9999975280763,10|0,0:0|0:0,0:0:0:0:
323,368,225275,1,10,0:0:0:0:
323,368,225389,2,0,L|337:288,1,80.9999975280763,2|0,0:0|0:0,0:0:0:0:
391,144,225616,6,0,B|425:121|425:121|464:129,1,80.9999975280763,10|0,0:0|0:0,0:0:0:0:
489,269,225844,1,8,0:0:0:0:
489,269,225957,2,0,B|455:290|455:290|415:280,1,80.9999975280763,8|0,0:0|0:0,0:0:0:0:
315,131,226185,2,0,B|241:117|241:117|234:107|234:107|139:91,1,161.999995056153,8|8,0:0|0:0,0:0:0:0:
24,30,226639,6,0,B|79:68|79:68|110:242,1,242.999992584229,14|8,0:0|0:0,0:0:0:0:
0,384,227094,1,10,0:0:0:0:
1,382,227208,1,2,0:0:0:0:
299,329,227435,1,10,0:0:0:0:
30,238,227662,5,0,0:0:0:0:
30,238,227775,2,0,L|46:332,1,80.9999975280763,10|0,0:0|0:0,0:0:0:0:
205,384,228003,2,0,B|191:310|191:310|199:300|199:300|182:206,1,161.999995056153,10|2,0:0|0:0,0:0:0:0:
273,86,228457,6,0,P|384:51|476:123,1,242.999992584229,14|8,0:0|0:0,0:0:0:0:
421,239,228912,1,10,0:0:0:0:
421,239,229025,1,2,0:0:0:0:
472,4,229252,1,2,0:0:0:0:
499,263,229480,5,0,0:0:0:0:
499,263,229594,2,0,B|466:311|466:311|364:330,2,161.999995056153,8|10|2,0:0|0:0|0:0,0:0:0:0:
273,254,230275,6,0,P|198:276|136:228,1,161.999995056153,14|0,0:0|0:0,0:0:0:0:
163,116,230616,1,8,0:0:0:0:
195,110,230730,2,0,L|281:92,1,80.9999975280763,8|0,0:0|0:0,0:0:0:0:
427,64,230957,1,2,0:0:0:0:
432,95,231070,1,0,0:0:0:0:
438,127,231184,6,0,L|455:213,1,80.9999975280763,0|0,0:0|0:0,0:0:0:0:
507,286,231412,2,0,P|470:304|431:300,1,80.9999975280763,8|0,0:0|0:0,0:0:0:0:
321,219,231639,5,8,0:0:0:0:
247,230,231752,1,0,0:0:0:0:
173,243,231866,1,8,0:0:0:0:
99,256,231980,1,0,0:0:0:0:
85,329,232094,5,2,0:0:0:0:
85,329,233912,5,2,0:0:0:0:
85,329,234821,5,2,0:0:0:0:
195,134,235048,5,8,0:0:0:0:
221,153,235162,2,0,P|230:204|203:250,1,107.999996704102,10|8,0:0|0:0,0:0:0:0:
34,234,235389,5,8,0:0:0:0:
8,215,235503,2,0,P|-1:163|25:117,1,107.999996704102,10|0,0:0|0:0,0:0:0:0:
295,88,235730,6,0,B|315:206|315:206|309:215|309:215|331:341,1,242.999992584229,14|10,0:0|0:0,0:0:0:0:
484,240,236185,1,10,0:0:0:0:
483,242,236299,1,2,0:0:0:0:
185,295,236526,1,10,0:0:0:0:
433,384,236753,5,0,0:0:0:0:
433,384,236866,2,0,P|450:347|446:308,1,80.9999975280763,10|0,0:0|0:0,0:0:0:0:
232,177,237094,2,0,B|125:195|189:221|85:238,1,161.999995056153,10|2,0:0|0:0,0:0:0:0:
0,93,237548,6,0,P|92:22|203:58,1,242.999992584229,14|8,0:0|0:0,0:0:0:0:
294,243,238003,1,10,0:0:0:0:
294,243,238116,1,2,0:0:0:0:
261,4,238343,1,2,0:0:0:0:
436,192,238572,5,0,0:0:0:0:
436,192,238685,2,0,P|399:209|360:205,1,80.9999975280763,8|0,0:0|0:0,0:0:0:0:
335,21,238912,2,0,P|409:-1|471:46,1,161.999995056153,8|2,0:0|0:0,0:0:0:0:
490,249,239366,6,0,B|471:351|471:351|423:384,1,161.999995056153,14|2,0:0|0:0,0:0:0:0:
263,307,239707,1,8,0:0:0:0:
265,278,239821,2,0,P|339:256|401:303,1,161.999995056153,10|2,0:0|0:0,0:0:0:0:
213,364,240162,6,0,B|178:386|178:386|140:376,1,80.9999975280763,2|0,0:0|0:0,0:0:0:0:
121,259,240389,2,0,B|155:236|155:236|193:246,1,80.9999975280763,2|8,0:0|0:0,0:0:0:0:
57,363,240616,1,2,0:0:0:0:
31,347,240730,2,0,L|47:252,1,80.9999975280763,2|8,0:0|0:0,0:0:0:0:
0,179,240957,2,0,L|16:84,1,80.9999975280763,2|0,0:0|0:0,0:0:0:0:
112,0,241185,5,8,0:0:0:0:
112,0,241298,2,0,P|151:-3|187:13,1,80.9999975280763,0|0,0:0|0:0,0:0:0:0:
155,192,241525,1,8,0:0:0:0:
155,192,241639,2,0,P|115:195|78:179,1,80.9999975280763,10|0,0:0|0:0,0:0:0:0:
247,62,241866,5,0,0:0:0:0:
277,55,241979,1,2,0:0:0:0:
309,49,242094,2,0,L|390:33,1,80.9999975280763,0|0,0:0|0:0,0:0:0:0:
512,10,242321,5,8,0:0:0:0:
502,56,242434,1,0,0:0:0:0:
492,109,242548,1,8,0:0:0:0:
468,237,242776,5,8,0:0:0:0:
444,365,243003,6,0,B|250:334|372:406|179:369,1,270,14|0,0:0|0:0,0:0:0:0:
108,236,243457,2,0,B|87:117|87:117|132:52,1,180,10|0,0:0|0:0,0:0:0:0:
255,134,243798,1,2,0:0:0:0:
255,134,243912,2,0,B|275:252|275:252|230:317,1,180,2|8,0:0|0:0,0:0:0:0:
19,187,244366,2,0,B|2:99|2:99|53:24,1,180,10|2,0:0|0:0,0:0:0:0:
338,22,244821,6,0,P|343:65|323:105,1,90,14|0,0:0|0:0,0:0:0:0:
199,83,245048,2,0,P|193:39|213:0,1,90,2|8,0:0|0:0,0:0:0:0:
360,114,245275,1,10,0:0:0:0:
365,145,245389,2,0,L|381:239,1,90,2|0,0:0|0:0,0:0:0:0:
258,319,245616,1,2,0:0:0:0:
258,319,245730,1,0,0:0:0:0:
257,318,245957,6,0,P|354:342|437:285,2,207.000003948212,10|10|2,0:0|0:0|0:0,0:0:0:0:
124,166,246639,6,0,B|104:144|103:95|169:53|261:103|264:222|169:295,1,337.5,14|8,0:0|0:0,0:0:0:0:
39,138,247094,5,10,0:0:0:0:
39,138,247207,5,2,0:0:0:0:
186,0,247435,5,2,0:0:0:0:
353,260,247662,5,2,0:0:0:0:
113,20,247889,5,2,0:0:0:0:
35,384,248117,5,2,0:0:0:0:
505,247,248344,5,2,0:0:0:0:
505,247,248457,5,14,0:0:0:0:
505,247,248912,6,0,P|513:190|486:139,1,116.999994644165,14|0,0:0|0:0,0:0:0:0:
362,169,249253,1,0,0:0:0:0:
362,169,249366,2,0,B|310:159|310:159|303:150|303:150|242:137,1,116.999994644165,0|10,0:0|0:0,0:0:0:0:
158,2,249821,2,0,B|178:120|178:120|115:131,1,175.499991966248,8|0,0:0|0:0,0:0:0:0:
26,51,250275,6,0,B|-1:206|-1:206|81:221,1,242.999992584229,14|2,0:0|0:0,0:0:0:0:
258,279,250730,2,0,P|183:255|121:302,1,161.999995056153,8|0,0:0|0:0,0:0:0:0:
270,356,251071,1,0,0:0:0:0:
270,356,251185,1,0,0:0:0:0:
312,189,251412,1,8,0:0:0:0:
467,295,251639,2,0,B|453:220|453:220|444:213|444:213|430:134,1,161.999995056153,8|0,0:0|0:0,0:0:0:0:
200,110,252094,6,0,B|386:78|386:78|416:45|399:-5,1,270,14|8,0:0|0:0,0:0:0:0:
242,24,252548,2,0,B|158:38|158:38|151:48|151:48|65:63,1,180,8|0,0:0|0:0,0:0:0:0:
1,202,252889,1,0,0:0:0:0:
1,202,253003,1,0,0:0:0:0:
194,369,253230,1,8,0:0:0:0:
125,132,253457,2,0,P|80:207|97:294,1,180,8|0,0:0|0:0,0:0:0:0:
348,163,253912,5,14,0:0:0:0:
256,192,254025,12,0,256866,0:0:0:0:
305,99,257207,5,8,0:0:0:0:
305,99,257321,1,8,0:0:0:0:
231,74,257548,6,0,P|220:125|248:171,1,108,8|0,0:0|0:0,0:0:0:0:
