osu file format v14

[General]
AudioFilename: audio.mp3
AudioLeadIn: 0
PreviewTime: 69
Countdown: 0
SampleSet: None
StackLeniency: 0.4
Mode: 1
LetterboxInBreaks: 0
WidescreenStoryboard: 1

[Editor]
DistanceSpacing: 1.7
BeatDivisor: 4
GridSize: 32
TimelineZoom: 1.6

[Metadata]
Title:BLOODY STREAM
TitleUnicode:BLOODY STREAM
Artist:Coda
ArtistUnicode:Coda
Creator:BabySnakes
Version:Venom
Source:ジョジョの奇妙な冒険
Tags:JoJo's Bizarre Adventure Battle Tendency JoJo no Kimyou na Bouken 2012 op opening 2
BeatmapID:2157384
BeatmapSetID:847529

[Difficulty]
HPDrainRate:6.5
CircleSize:4
OverallDifficulty:5
ApproachRate:9
SliderMultiplier:1.4
SliderTickRate:1

[Events]
//Background and Video events
0,0,"background.png",0,0
//Break Periods
//Storyboard Layer 0 (Background)
//Storyboard Layer 1 (Fail)
//Storyboard Layer 2 (Pass)
//Storyboard Layer 3 (Foreground)
//Storyboard Layer 4 (Overlay)
//Storyboard Sound Samples

[TimingPoints]
121,454.545454545455,4,2,0,100,1,0
5348,-10,4,2,0,50,0,1
6285,-10,4,2,0,50,0,0
6484,-100,4,2,0,50,0,0
6711,-222.222222222222,4,2,0,100,0,0
7393,-222.222222222222,4,2,0,75,0,0
20121,-100,4,2,0,85,0,0
20461,-104.166666666667,4,2,0,85,0,0
20802,-96.1538461538461,4,2,0,85,0,0
21143,-125,4,2,0,85,0,0
22052,-222.222222222222,4,2,0,75,0,0
34666,-45.4545454545455,4,2,0,90,0,0
34666,-45.4545454545455,4,2,0,90,0,0
34780,-48.780487804878,4,2,0,90,0,0
34893,-52.6315789473684,4,2,0,90,0,0
35007,-57.1428571428571,4,2,0,90,0,0
35121,-62.5,4,2,0,90,0,0
35234,-68.9655172413793,4,2,0,90,0,0
35348,-76.9230769230769,4,2,0,90,0,0
35461,-86.9565217391304,4,2,0,90,0,0
35575,-100,4,2,0,90,0,0
35802,-125,4,2,0,90,0,0
35916,-136.193951081857,4,2,0,90,0,0
36030,-149.590197653528,4,2,0,90,0,0
36143,-165.909015495902,4,2,0,90,0,0
36257,-186.224594309721,4,2,0,90,0,0
36371,-212.20924680572,4,2,0,90,0,0
36484,-246.621896571709,4,2,0,90,0,0
36598,-285.714285714286,4,2,0,50,0,0
47393,-285.714285714286,4,2,0,75,0,0
47507,-250,4,2,0,75,0,0
47961,-222.222222222222,4,2,0,75,0,0
48643,-200,4,2,0,75,0,0
48871,-181.818181818182,4,2,0,75,0,0
49211,-153.846153846154,4,2,0,85,0,0
49249,-153.846153846154,4,2,0,85,0,0
49325,-133.333333333333,4,2,0,85,0,0
49363,-133.333333333333,4,2,0,85,0,0
49552,-105.263157894737,4,2,0,85,0,0
49590,-105.263157894737,4,2,0,85,0,0
49780,-86.9565217391304,4,2,0,85,0,0
49817,-86.9565217391304,4,2,0,85,0,0
50007,-74.0740740740741,4,2,0,85,0,0
50045,-74.0740740740741,4,2,0,85,0,0
50234,-64.5161290322581,4,2,0,85,0,0
50272,-64.5161290322581,4,2,0,85,0,0
50461,-57.1428571428571,4,2,0,90,0,0
50499,-57.1428571428571,4,2,0,90,0,0
50689,-50,4,2,0,90,0,0
50802,-100,4,2,0,60,0,0
51371,-100,4,2,0,60,0,0
51939,-98.0392156862745,4,2,0,60,0,0
52052,-96.1538461538461,4,2,0,75,0,0
52166,-94.3396226415094,4,2,0,75,0,0
52280,-92.5925925925926,4,2,0,75,0,0
52393,-90.9090909090909,4,2,0,75,0,0
52507,-89.2857142857143,4,2,0,75,0,0
52621,-87.719298245614,4,2,0,75,0,0
52734,-86.2068965517241,4,2,0,75,0,0
52848,-84.7457627118644,4,2,0,90,0,1
53302,-55.5555555555556,4,2,0,90,0,1
53643,-45.4545454545455,4,2,0,90,0,1
53871,-83.3333333333333,4,2,0,90,0,1
55121,-55.5555555555556,4,2,0,90,0,1
55461,-45.4545454545455,4,2,0,90,0,1
55689,-83.3333333333333,4,2,0,90,0,1
56711,-83.3333333333333,4,2,0,90,0,1
56825,-80.2564353622695,4,2,0,90,0,1
56939,-77.3986020264502,4,2,0,90,0,1
57052,-74.737354252817,4,2,0,90,0,1
57166,-72.2529779064844,4,2,0,90,0,1
57280,-69.9285050963895,4,2,0,90,0,1
57393,-67.7489332930453,4,2,0,90,0,1
57507,-65.7010797972465,4,2,0,90,0,1
57621,-63.7734359405402,4,2,0,90,0,1
57734,-61.955642238383,4,2,0,90,0,1
57848,-60.2386414017773,4,2,0,90,0,1
57961,-58.6142420885427,4,2,0,90,0,1
58075,-57.0751171324091,4,2,0,90,0,1
58189,-55.6147853019021,4,2,0,90,0,1
58302,-54.227317662,4,2,0,90,0,1
58416,-52.9073655518027,4,2,0,90,0,1
58530,-51.6501713236183,4,2,0,90,0,1
58643,-50.451312213405,4,2,0,90,0,1
58757,-49.3068686933433,4,2,0,90,0,1
58871,-48.2131948907513,4,2,0,90,0,1
58984,-47.1669635040903,4,2,0,90,0,1
59098,-46.165195689648,4,2,0,90,0,1
59211,-45.2050750833695,4,2,0,90,0,1
59325,-44.2840966509266,4,2,0,90,0,1
59439,-43.3998957534504,4,2,0,90,0,1
59552,-42.5502944480376,4,2,0,90,0,1
59666,-41.7333356704001,4,2,0,90,0,1
59893,-83.3333333333333,4,2,0,90,0,1
60575,-55.5555555555556,4,2,0,90,0,1
60916,-45.4545454545455,4,2,0,90,0,1
61143,-83.3333333333333,4,2,0,90,0,1
62393,-55.5555555555556,4,2,0,90,0,1
62734,-45.4545454545455,4,2,0,90,0,1
62961,-83.3333333333333,4,2,0,90,0,1
65121,-68.9655172413793,4,2,0,90,0,1
65234,-66.6666666666667,4,2,0,90,0,1
65348,-64.5161290322581,4,2,0,90,0,1
65461,-62.5,4,2,0,90,0,1
65575,-50,4,2,0,95,0,1
65802,-55.5555555555556,4,2,0,95,0,1
66143,-62.5,4,2,0,95,0,1
66484,-71.4285714285714,4,2,0,95,0,1
66711,-33.3333333333333,4,2,0,100,0,1
66939,-83.3333333333333,4,2,0,100,0,1
67393,-83.3333333333333,4,2,0,90,0,1
67848,-55.5555555555556,4,2,0,90,0,1
68189,-45.4545454545455,4,2,0,90,0,1
68416,-83.3333333333333,4,2,0,90,0,1
69666,-55.5555555555556,4,2,0,90,0,1
70007,-45.4545454545455,4,2,0,90,0,1
70234,-83.3333333333333,4,2,0,90,0,1
71257,-83.3333333333333,4,2,0,90,0,1
71371,-80.2564353622695,4,2,0,90,0,1
71485,-77.3986020264502,4,2,0,90,0,1
71598,-74.737354252817,4,2,0,90,0,1
71712,-72.2529779064844,4,2,0,90,0,1
71826,-69.9285050963895,4,2,0,90,0,1
71939,-67.7489332930453,4,2,0,90,0,1
72053,-65.7010797972465,4,2,0,90,0,1
72167,-63.7734359405402,4,2,0,90,0,1
72280,-61.955642238383,4,2,0,90,0,1
72394,-60.2386414017773,4,2,0,90,0,1
72507,-58.6142420885427,4,2,0,90,0,1
72621,-57.0751171324091,4,2,0,90,0,1
72735,-55.6147853019021,4,2,0,90,0,1
72848,-54.227317662,4,2,0,90,0,1
72962,-52.9073655518027,4,2,0,90,0,1
73076,-51.6501713236183,4,2,0,90,0,1
73189,-50.451312213405,4,2,0,90,0,1
73303,-49.3068686933433,4,2,0,90,0,1
73417,-48.2131948907513,4,2,0,90,0,1
73530,-47.1669635040903,4,2,0,90,0,1
73644,-46.165195689648,4,2,0,90,0,1
73757,-45.2050750833695,4,2,0,90,0,1
73871,-44.2840966509266,4,2,0,90,0,1
73985,-43.3998957534504,4,2,0,90,0,1
74098,-42.5502944480376,4,2,0,90,0,1
74211,-83.3333333333333,4,2,0,100,0,1
74212,-41.7333356704001,4,2,0,90,0,1
74439,-83.3333333333333,4,2,0,100,0,1
74666,-80,4,2,0,80,0,0
74893,-83.3333333333333,4,2,0,80,0,0
78757,-57.1428571428571,4,2,0,100,0,0
79893,-83.3333333333333,4,2,0,80,0,0
80007,-50,4,2,0,100,0,0
80083,-50,4,2,0,100,0,0
80121,-41.6666666666667,4,2,0,100,0,0
80234,-100,4,2,0,90,0,0
80575,-90.9090909090909,4,2,0,80,0,0
85575,-80,4,2,0,80,0,0
88871,-60.2409638554217,4,2,0,65,0,0

[Colours]
Combo1 : 236,241,139
Combo2 : 236,113,147
Combo3 : 112,243,162
Combo4 : 128,255,249

[HitObjects]
244,221,121,5,0,0:0:0:0:
244,221,234,1,0,0:0:0:0:
244,221,348,1,8,0:0:0:0:
169,153,575,1,8,0:0:0:0:
254,233,802,1,0,0:0:0:0:
183,166,916,1,8,0:0:0:0:
183,166,1030,1,0,0:0:0:0:
127,145,1143,1,8,0:0:0:0:
186,138,1371,1,0,0:0:0:0:
244,131,1484,1,8,0:0:0:0:
244,131,1711,1,0,0:0:0:0:
353,178,1939,1,0,0:0:0:0:
195,122,2052,1,0,0:0:0:0:
195,122,2166,1,8,0:0:0:0:
299,155,2280,1,0,0:0:0:0:
299,155,2393,1,8,0:0:0:0:
299,155,2621,1,8,0:0:0:0:
344,193,2734,1,0,0:0:0:0:
298,154,2848,1,8,0:0:0:0:
239,163,2961,1,8,0:0:0:0:
180,173,3189,1,0,0:0:0:0:
180,173,3302,1,8,0:0:0:0:
180,173,3530,1,8,0:0:0:0:
180,173,3757,1,0,0:0:0:0:
121,161,3871,1,0,0:0:0:0:
62,149,3984,1,8,0:0:0:0:
121,154,4098,1,8,0:0:0:0:
61,149,4211,1,0,0:0:0:0:
166,204,4439,1,8,0:0:0:0:
113,176,4552,1,0,0:0:0:0:
162,191,4666,1,0,0:0:0:0:
113,176,4780,1,8,0:0:0:0:
113,176,5007,1,8,0:0:0:0:
113,176,5121,1,8,0:0:0:0:
166,204,5348,2,0,B|254:205|216:125|216:125|451:64|448:66|433:73,8,350
89,125,6484,5,8,0:0:0:0:
357,271,6711,5,0,0:0:0:0:
357,271,6939,1,8,0:0:0:0:
357,271,7052,1,8,0:0:0:0:
357,271,7166,1,0,0:0:0:0:
357,271,7280,1,8,0:0:0:0:
357,271,7393,1,0,0:0:0:0:
357,271,7621,1,0,0:0:0:0:
357,271,7734,1,0,0:0:0:0:
357,271,7848,1,8,0:0:0:0:
357,271,8075,1,0,0:0:0:0:
317,243,8189,1,8,0:0:0:0:
284,219,8302,1,0,0:0:0:0:
233,183,8416,1,8,0:0:0:0:
207,149,8530,1,0,0:0:0:0:
207,149,8757,1,8,0:0:0:0:
128,134,8984,1,8,0:0:0:0:
128,134,9098,1,8,0:0:0:0:
128,134,9211,1,0,0:0:0:0:
115,140,9439,1,8,0:0:0:0:
78,170,9552,1,0,0:0:0:0:
116,139,9666,1,8,0:0:0:0:
205,129,9893,1,8,0:0:0:0:
205,129,10007,1,0,0:0:0:0:
205,129,10121,1,0,0:0:0:0:
238,162,10234,1,8,0:0:0:0:
271,196,10348,1,0,0:0:0:0:
340,260,10575,1,0,0:0:0:0:
361,167,10802,1,8,0:0:0:0:
372,120,10916,1,8,0:0:0:0:
372,120,11030,1,8,0:0:0:0:
322,140,11257,1,8,0:0:0:0:
271,196,11371,1,8,0:0:0:0:
271,196,11484,1,0,0:0:0:0:
271,196,11711,1,8,0:0:0:0:
271,196,11825,1,8,0:0:0:0:
271,196,11939,1,0,0:0:0:0:
271,196,12052,1,8,0:0:0:0:
271,196,12166,1,0,0:0:0:0:
271,196,12393,1,8,0:0:0:0:
128,134,12621,1,8,0:0:0:0:
128,134,12735,1,8,0:0:0:0:
128,134,12848,1,0,0:0:0:0:
115,140,13076,1,8,0:0:0:0:
78,170,13189,1,0,0:0:0:0:
116,139,13303,1,8,0:0:0:0:
205,129,13530,1,8,0:0:0:0:
205,129,13644,1,0,0:0:0:0:
205,129,13758,1,8,0:0:0:0:
238,162,13871,1,8,0:0:0:0:
271,196,13985,1,0,0:0:0:0:
116,139,14211,1,8,0:0:0:0:
238,162,14439,1,0,0:0:0:0:
238,162,14552,1,8,0:0:0:0:
271,196,14666,1,0,0:0:0:0:
116,139,14893,1,8,0:0:0:0:
141,148,15007,1,8,0:0:0:0:
155,164,15121,1,0,0:0:0:0:
150,115,15234,1,0,0:0:0:0:
150,115,15348,1,8,0:0:0:0:
150,115,15461,1,8,0:0:0:0:
150,115,15575,1,0,0:0:0:0:
141,148,15689,1,8,0:0:0:0:
141,148,15802,1,0,0:0:0:0:
166,155,15916,1,0,0:0:0:0:
166,155,16030,1,8,0:0:0:0:
252,98,16257,1,0,0:0:0:0:
193,52,16371,1,8,0:0:0:0:
193,52,16484,1,0,0:0:0:0:
255,170,16711,1,8,0:0:0:0:
275,187,16825,1,0,0:0:0:0:
288,198,16939,1,8,0:0:0:0:
325,230,17166,1,0,0:0:0:0:
325,230,17280,1,8,0:0:0:0:
325,230,17393,1,0,0:0:0:0:
325,230,17507,1,8,0:0:0:0:
312,206,17621,1,0,0:0:0:0:
299,182,17734,1,0,0:0:0:0:
286,158,17848,1,8,0:0:0:0:
277,105,18075,1,8,0:0:0:0:
277,105,18302,1,0,0:0:0:0:
250,111,18416,1,0,0:0:0:0:
171,130,18530,1,0,0:0:0:0:
171,130,18757,1,8,0:0:0:0:
171,130,18984,1,8,0:0:0:0:
187,116,19098,1,8,0:0:0:0:
177,137,19211,1,0,0:0:0:0:
194,150,19325,1,8,0:0:0:0:
187,116,19439,1,0,0:0:0:0:
189,94,19552,1,0,0:0:0:0:
182,46,19666,1,8,0:0:0:0:
198,91,20121,1,0,0:0:0:0:
182,46,20234,1,8,0:0:0:0:
104,135,20461,1,8,0:0:0:0:
104,135,20574,1,0,0:0:0:0:
199,125,20802,1,0,0:0:0:0:
149,130,20916,1,8,0:0:0:0:
149,130,21143,1,8,0:0:0:0:
149,130,21257,1,0,0:0:0:0:
149,130,21371,1,0,0:0:0:0:
149,130,21484,1,8,0:0:0:0:
149,130,21598,1,8,0:0:0:0:
149,130,21711,1,8,0:0:0:0:
149,130,21825,1,8,0:0:0:0:
149,130,21939,1,0,0:0:0:0:
73,150,22166,1,0,0:0:0:0:
73,150,22280,1,0,0:0:0:0:
73,150,22393,1,8,0:0:0:0:
149,169,22621,1,0,0:0:0:0:
181,177,22734,1,8,0:0:0:0:
218,186,22848,1,8,0:0:0:0:
263,198,22961,1,0,0:0:0:0:
263,198,23075,1,0,0:0:0:0:
263,198,23302,1,8,0:0:0:0:
263,198,23530,1,0,0:0:0:0:
228,180,23643,1,8,0:0:0:0:
198,164,23757,1,0,0:0:0:0:
128,128,23984,1,8,0:0:0:0:
128,128,24098,1,0,0:0:0:0:
128,128,24211,1,8,0:0:0:0:
188,43,24439,1,0,0:0:0:0:
188,43,24552,1,0,0:0:0:0:
248,99,24666,1,8,0:0:0:0:
245,111,24780,1,8,0:0:0:0:
183,2,24893,1,0,0:0:0:0:
247,163,25007,1,8,0:0:0:0:
245,111,25121,1,8,0:0:0:0:
183,38,25234,1,8,0:0:0:0:
270,192,25348,1,0,0:0:0:0:
86,153,25461,1,8,0:0:0:0:
124,152,25575,1,0,0:0:0:0:
197,150,25802,1,8,0:0:0:0:
236,150,25916,1,0,0:0:0:0:
236,150,26030,1,8,0:0:0:0:
236,150,26257,1,0,0:0:0:0:
236,150,26371,1,0,0:0:0:0:
236,150,26484,1,8,0:0:0:0:
236,150,26598,1,0,0:0:0:0:
236,150,26711,1,0,0:0:0:0:
293,203,26939,1,8,0:0:0:0:
276,194,27166,1,8,0:0:0:0:
276,194,27280,1,0,0:0:0:0:
276,194,27393,1,8,0:0:0:0:
276,194,27621,1,0,0:0:0:0:
240,217,27734,1,0,0:0:0:0:
197,238,27848,1,8,0:0:0:0:
158,210,28075,1,8,0:0:0:0:
180,218,28189,1,8,0:0:0:0:
119,181,28302,1,0,0:0:0:0:
207,134,28530,1,0,0:0:0:0:
61,138,28757,1,8,0:0:0:0:
80,152,28984,1,8,0:0:0:0:
80,152,29098,1,0,0:0:0:0:
80,152,29211,1,0,0:0:0:0:
80,152,29439,1,0,0:0:0:0:
80,152,29552,1,0,0:0:0:0:
61,138,29666,1,8,0:0:0:0:
61,138,29780,1,0,0:0:0:0:
80,152,29893,1,8,0:0:0:0:
80,152,30007,1,8,0:0:0:0:
80,152,30121,1,0,0:0:0:0:
59,141,30234,1,8,0:0:0:0:
59,141,30348,1,0,0:0:0:0:
74,158,30461,1,0,0:0:0:0:
106,144,30575,1,8,0:0:0:0:
151,130,30802,1,0,0:0:0:0:
165,148,30916,1,8,0:0:0:0:
193,134,31030,1,8,0:0:0:0:
231,117,31257,1,8,0:0:0:0:
250,109,31371,1,0,0:0:0:0:
250,109,31484,1,8,0:0:0:0:
250,109,31711,1,0,0:0:0:0:
250,109,31825,1,8,0:0:0:0:
250,109,31939,1,0,0:0:0:0:
267,124,32052,1,8,0:0:0:0:
282,135,32166,1,0,0:0:0:0:
170,100,32280,1,0,0:0:0:0:
207,110,32393,5,8,0:0:0:0:
185,120,32507,1,0,0:0:0:0:
159,112,32621,1,8,0:0:0:0:
159,112,32734,1,8,0:0:0:0:
170,100,32848,1,8,0:0:0:0:
170,100,33075,1,8,0:0:0:0:
170,100,33189,1,8,0:0:0:0:
170,100,33302,1,0,0:0:0:0:
183,162,33530,1,8,0:0:0:0:
193,183,33643,1,0,0:0:0:0:
204,206,33757,1,8,0:0:0:0:
204,206,33871,1,8,0:0:0:0:
204,206,33984,1,0,0:0:0:0:
204,206,34098,1,0,0:0:0:0:
204,206,34211,1,8,0:0:0:0:
204,206,34439,1,8,0:0:0:0:
250,229,34666,1,12,0:0:0:0:
293,251,34780,1,12,0:0:0:0:
293,251,34893,1,4,0:0:0:0:
293,251,35007,1,12,0:0:0:0:
293,251,35121,1,12,0:0:0:0:
293,251,35234,1,4,0:0:0:0:
293,251,35348,1,12,0:0:0:0:
293,251,35461,1,12,0:0:0:0:
293,251,35575,1,4,0:0:0:0:
173,102,35802,1,0,0:0:0:0:
232,176,35916,1,0,0:0:0:0:
291,248,36030,1,8,0:0:0:0:
224,167,36143,1,0,0:0:0:0:
297,255,36257,1,8,0:0:0:0:
225,168,36371,1,0,0:0:0:0:
288,244,36484,1,8,0:0:0:0:
183,165,36711,1,8,0:0:0:0:
142,134,36825,1,0,0:0:0:0:
142,134,36939,1,8,0:0:0:0:
142,134,37052,1,8,0:0:0:0:
142,134,37166,1,0,0:0:0:0:
123,98,37280,1,0,0:0:0:0:
123,98,37393,1,8,0:0:0:0:
210,156,37621,1,0,0:0:0:0:
253,185,37734,1,0,0:0:0:0:
253,185,37848,1,8,0:0:0:0:
253,185,38075,1,8,0:0:0:0:
253,185,38189,1,8,0:0:0:0:
253,185,38302,1,0,0:0:0:0:
268,80,38530,1,8,0:0:0:0:
219,98,38757,1,0,0:0:0:0:
122,123,38984,1,8,0:0:0:0:
122,123,39098,1,8,0:0:0:0:
122,123,39211,1,8,0:0:0:0:
122,123,39439,1,0,0:0:0:0:
161,99,39552,1,8,0:0:0:0:
162,100,39666,1,0,0:0:0:0:
122,123,39780,1,0,0:0:0:0:
122,123,39893,1,8,0:0:0:0:
122,123,40007,1,8,0:0:0:0:
122,123,40121,1,0,0:0:0:0:
122,123,40348,1,8,0:0:0:0:
122,123,40461,1,8,0:0:0:0:
122,123,40575,1,0,0:0:0:0:
122,123,40802,1,0,0:0:0:0:
122,123,40916,1,0,0:0:0:0:
178,89,41030,1,8,0:0:0:0:
169,120,41257,1,0,0:0:0:0:
348,191,41371,1,8,0:0:0:0:
122,123,41484,1,0,0:0:0:0:
28,143,41711,1,8,0:0:0:0:
44,148,41825,1,0,0:0:0:0:
28,143,41939,1,8,0:0:0:0:
355,233,42166,1,8,0:0:0:0:
355,233,42280,1,8,0:0:0:0:
78,152,42393,1,8,0:0:0:0:
130,243,42621,1,8,0:0:0:0:
313,202,42734,1,8,0:0:0:0:
78,151,42848,1,0,0:0:0:0:
363,255,42961,1,0,0:0:0:0:
362,252,43075,1,8,0:0:0:0:
164,147,43189,1,0,0:0:0:0:
263,246,43302,1,0,0:0:0:0:
357,287,43530,1,8,0:0:0:0:
313,152,43643,1,8,0:0:0:0:
358,288,43757,1,0,0:0:0:0:
448,324,43984,1,8,0:0:0:0:
251,119,44211,1,0,0:0:0:0:
287,57,44325,1,0,0:0:0:0:
287,156,44439,1,8,0:0:0:0:
251,119,44552,1,8,0:0:0:0:
215,82,44666,1,0,0:0:0:0:
147,10,44893,1,0,0:0:0:0:
184,49,45007,1,0,0:0:0:0:
147,10,45121,1,8,0:0:0:0:
182,47,45234,1,0,0:0:0:0:
142,12,45348,1,8,0:0:0:0:
183,66,45461,1,8,0:0:0:0:
210,88,45575,1,0,0:0:0:0:
280,168,45802,1,8,0:0:0:0:
328,239,45916,1,8,0:0:0:0:
280,168,46030,1,0,0:0:0:0:
280,168,46257,1,8,0:0:0:0:
280,168,46371,1,0,0:0:0:0:
182,19,46484,1,8,0:0:0:0:
182,19,46598,1,8,0:0:0:0:
280,168,46711,1,0,0:0:0:0:
280,168,46825,1,8,0:0:0:0:
280,168,46939,1,0,0:0:0:0:
182,19,47052,1,0,0:0:0:0:
280,168,47166,1,8,0:0:0:0:
280,168,47280,1,0,0:0:0:0:
280,168,47393,1,8,0:0:0:0:
203,157,47621,1,8,0:0:0:0:
206,195,47734,1,8,0:0:0:0:
210,233,47848,1,0,0:0:0:0:
267,165,48075,1,0,0:0:0:0:
110,168,48189,1,8,0:0:0:0:
71,144,48302,1,8,0:0:0:0:
137,137,48416,1,0,0:0:0:0:
71,144,48530,1,0,0:0:0:0:
71,144,48757,1,8,0:0:0:0:
71,144,48984,1,0,0:0:0:0:
71,144,49211,1,12,0:0:0:0:
71,144,49325,1,12,0:0:0:0:
71,144,49552,1,12,0:0:0:0:
105,74,49780,1,12,0:0:0:0:
73,139,50007,1,12,0:0:0:0:
105,76,50234,1,12,0:0:0:0:
69,146,50461,1,12,0:0:0:0:
105,77,50689,1,12,0:0:0:0:
63,304,51484,1,8,0:0:0:0:
117,159,51939,1,8,0:0:0:0:
80,146,52052,1,8,0:0:0:0:
80,146,52166,1,0,0:0:0:0:
80,146,52280,1,8,0:0:0:0:
80,146,52393,1,8,0:0:0:0:
80,146,52507,1,8,0:0:0:0:
80,146,52621,1,0,0:0:0:0:
80,146,52734,1,8,0:0:0:0:
80,146,52848,1,0,0:0:0:0:
185,142,53075,1,0,0:0:0:0:
80,146,53189,1,0,0:0:0:0:
80,146,53302,1,12,0:0:0:0:
80,146,53416,1,12,0:0:0:0:
201,164,53643,1,12,0:0:0:0:
81,134,53984,1,8,0:0:0:0:
126,142,54098,1,0,0:0:0:0:
126,142,54211,1,8,0:0:0:0:
201,164,54439,1,0,0:0:0:0:
192,72,54666,1,8,0:0:0:0:
192,72,54893,1,0,0:0:0:0:
192,72,55007,1,0,0:0:0:0:
168,112,55121,1,12,0:0:0:0:
143,160,55234,1,12,0:0:0:0:
143,160,55461,1,12,0:0:0:0:
21,140,55802,1,0,0:0:0:0:
112,151,56030,1,8,0:0:0:0:
20,137,56257,1,8,0:0:0:0:
65,144,56371,1,8,0:0:0:0:
65,144,56484,1,0,0:0:0:0:
65,144,56711,1,0,0:0:0:0:
65,144,56825,1,0,0:0:0:0:
65,144,56939,1,8,0:0:0:0:
65,144,57052,1,8,0:0:0:0:
65,144,57166,1,0,0:0:0:0:
65,144,57280,1,8,0:0:0:0:
65,144,57393,1,0,0:0:0:0:
124,152,57507,1,8,0:0:0:0:
162,138,57621,1,8,0:0:0:0:
162,138,57734,1,0,0:0:0:0:
162,138,57848,1,8,0:0:0:0:
162,138,57961,1,0,0:0:0:0:
162,138,58075,1,8,0:0:0:0:
162,138,58189,1,0,0:0:0:0:
162,138,58302,1,8,0:0:0:0:
162,138,58416,1,8,0:0:0:0:
162,138,58530,1,0,0:0:0:0:
162,138,58643,1,8,0:0:0:0:
162,138,58757,1,8,0:0:0:0:
162,138,58871,1,0,0:0:0:0:
162,138,58984,1,8,0:0:0:0:
162,138,59098,1,0,0:0:0:0:
162,138,59211,1,0,0:0:0:0:
162,138,59325,1,8,0:0:0:0:
162,138,59439,1,0,0:0:0:0:
162,138,59552,1,0,0:0:0:0:
162,138,59666,1,8,0:0:0:0:
70,153,59893,1,8,0:0:0:0:
115,146,60007,1,8,0:0:0:0:
115,146,60121,1,0,0:0:0:0:
190,93,60348,1,0,0:0:0:0:
259,159,60461,1,0,0:0:0:0:
239,117,60575,1,12,0:0:0:0:
217,71,60689,1,12,0:0:0:0:
282,20,60916,1,12,0:0:0:0:
296,151,61257,1,8,0:0:0:0:
299,190,61371,1,0,0:0:0:0:
303,232,61484,1,8,0:0:0:0:
303,232,61711,1,0,0:0:0:0:
303,232,61825,1,8,0:0:0:0:
303,232,61939,1,8,0:0:0:0:
215,260,62166,1,0,0:0:0:0:
256,177,62393,1,12,0:0:0:0:
276,135,62507,1,12,0:0:0:0:
276,135,62734,1,12,0:0:0:0:
335,260,63075,1,0,0:0:0:0:
136,145,63189,1,8,0:0:0:0:
89,148,63303,1,0,0:0:0:0:
131,166,63416,1,8,0:0:0:0:
30,103,63530,1,0,0:0:0:0:
66,130,63643,1,0,0:0:0:0:
66,130,63757,1,8,0:0:0:0:
152,161,63984,1,8,0:0:0:0:
238,192,64211,1,8,0:0:0:0:
201,163,64325,1,8,0:0:0:0:
276,206,64439,1,0,0:0:0:0:
230,208,64552,1,8,0:0:0:0:
207,162,64666,1,8,0:0:0:0:
230,208,64780,1,0,0:0:0:0:
230,208,64893,1,0,0:0:0:0:
230,208,65007,1,8,0:0:0:0:
228,104,65121,1,8,0:0:0:0:
228,104,65234,1,8,0:0:0:0:
228,104,65348,1,8,0:0:0:0:
228,104,65461,1,8,0:0:0:0:
394,193,65575,1,12,0:0:0:0:
402,226,65689,1,12,0:0:0:0:
374,199,65802,1,4,0:0:0:0:
342,169,65916,1,12,0:0:0:0:
320,148,66030,1,12,0:0:0:0:
291,121,66143,1,4,0:0:0:0:
291,121,66257,1,12,0:0:0:0:
291,121,66371,1,12,0:0:0:0:
291,121,66484,1,4,0:0:0:0:
291,121,66711,1,12,0:0:0:0:
146,142,67166,5,0,0:0:0:0:
111,147,67280,1,0,0:0:0:0:
146,159,67393,1,0,0:0:0:0:
153,138,67621,1,0,0:0:0:0:
108,147,67734,1,0,0:0:0:0:
107,165,67848,1,12,0:0:0:0:
107,165,67961,1,12,0:0:0:0:
107,165,68189,1,12,0:0:0:0:
81,134,68530,1,8,0:0:0:0:
126,142,68644,1,0,0:0:0:0:
126,142,68757,1,8,0:0:0:0:
201,164,68985,1,0,0:0:0:0:
192,72,69212,1,8,0:0:0:0:
192,72,69439,1,0,0:0:0:0:
192,72,69553,1,0,0:0:0:0:
107,165,69666,1,12,0:0:0:0:
107,165,69780,1,12,0:0:0:0:
107,165,70007,1,12,0:0:0:0:
21,140,70348,1,0,0:0:0:0:
112,151,70576,1,8,0:0:0:0:
20,137,70803,1,8,0:0:0:0:
65,144,70917,1,8,0:0:0:0:
65,144,71030,1,0,0:0:0:0:
65,144,71257,5,0,0:0:0:0:
65,144,71371,1,0,0:0:0:0:
65,144,71485,1,8,0:0:0:0:
65,144,71598,1,8,0:0:0:0:
65,144,71712,1,0,0:0:0:0:
65,144,71826,1,8,0:0:0:0:
65,144,71939,1,0,0:0:0:0:
124,152,72053,1,8,0:0:0:0:
162,138,72167,1,0,0:0:0:0:
162,138,72280,1,0,0:0:0:0:
162,138,72394,1,8,0:0:0:0:
162,138,72507,1,8,0:0:0:0:
162,138,72621,1,8,0:0:0:0:
162,138,72735,1,0,0:0:0:0:
162,138,72848,1,0,0:0:0:0:
162,138,72962,1,8,0:0:0:0:
162,138,73076,1,0,0:0:0:0:
162,138,73189,1,8,0:0:0:0:
162,138,73303,1,8,0:0:0:0:
162,138,73417,1,0,0:0:0:0:
162,138,73530,1,8,0:0:0:0:
162,138,73644,1,8,0:0:0:0:
162,138,73757,1,8,0:0:0:0:
162,138,73871,1,8,0:0:0:0:
162,138,73985,1,0,0:0:0:0:
162,138,74098,1,0,0:0:0:0:
162,138,74212,1,8,0:0:0:0:
80,180,74439,1,8,0:0:0:0:
162,138,74666,1,4,0:0:0:0:
254,135,74893,1,0,0:0:0:0:
254,135,75007,1,0,0:0:0:0:
254,135,75121,1,8,0:0:0:0:
254,135,75348,1,8,0:0:0:0:
208,143,75461,1,8,0:0:0:0:
149,147,75575,1,0,0:0:0:0:
90,142,75689,1,8,0:0:0:0:
254,135,75802,1,0,0:0:0:0:
152,153,76030,1,8,0:0:0:0:
102,162,76143,1,0,0:0:0:0:
56,170,76257,1,8,0:0:0:0:
3,182,76371,1,8,0:0:0:0:
45,172,76484,1,0,0:0:0:0:
129,206,76711,1,8,0:0:0:0:
164,220,76825,1,0,0:0:0:0:
204,236,76939,1,8,0:0:0:0:
302,277,77052,1,8,0:0:0:0:
358,286,77280,1,8,0:0:0:0:
309,266,77621,1,8,0:0:0:0:
309,266,77734,1,0,0:0:0:0:
263,255,77848,1,8,0:0:0:0:
263,255,78075,1,0,0:0:0:0:
263,255,78302,1,8,0:0:0:0:
263,255,78530,1,0,0:0:0:0:
412,302,78757,1,12,0:0:0:0:
375,288,78871,1,12,0:0:0:0:
326,228,79098,1,12,0:0:0:0:
274,163,79325,1,12,0:0:0:0:
240,96,79552,1,12,0:0:0:0:
206,26,79780,1,12,0:0:0:0:
222,60,80007,1,12,0:0:0:0:
189,81,80121,1,12,0:0:0:0:
218,207,80575,1,4,0:0:0:0:
161,197,80802,1,8,0:0:0:0:
132,192,80916,1,8,0:0:0:0:
130,163,81030,1,8,0:0:0:0:
179,140,81257,1,0,0:0:0:0:
287,102,81484,1,8,0:0:0:0:
178,140,81711,1,8,0:0:0:0:
250,112,81939,1,0,0:0:0:0:
197,124,82052,1,8,0:0:0:0:
270,166,82280,1,8,0:0:0:0:
241,165,82393,1,0,0:0:0:0:
163,165,82621,1,8,0:0:0:0:
75,165,82734,1,8,0:0:0:0:
75,165,82848,1,0,0:0:0:0:
75,165,83075,1,0,0:0:0:0:
75,165,83302,1,8,0:0:0:0:
97,196,83416,1,0,0:0:0:0:
75,165,83530,1,8,0:0:0:0:
75,165,83643,1,8,0:0:0:0:
105,189,83757,1,0,0:0:0:0:
68,130,83984,1,8,0:0:0:0:
88,162,84098,1,0,0:0:0:0:
88,162,84211,1,8,0:0:0:0:
171,190,84439,1,8,0:0:0:0:
206,204,84552,1,8,0:0:0:0:
242,217,84666,1,0,0:0:0:0:
280,221,84780,1,8,0:0:0:0:
314,237,84893,1,0,0:0:0:0:
404,271,85121,1,8,0:0:0:0:
330,247,85348,1,8,0:0:0:0:
366,258,85461,1,8,0:0:0:0:
222,236,85575,1,4,0:0:0:0:
256,192,85802,12,0,88643,0:0:0:0:
74,147,88871,5,8,0:0:0:0:
74,147,88984,1,0,0:0:0:0:
74,147,89098,1,0,0:0:0:0:
74,147,89211,1,8,0:0:0:0:
