osu file format v14

[General]
AudioFilename: 04._Summerhead.ogg
AudioLeadIn: 0
PreviewTime: 86897
Countdown: 0
SampleSet: Soft
StackLeniency: 0.2
Mode: 0
LetterboxInBreaks: 0
WidescreenStoryboard: 1

[Editor]
Bookmarks: 20748,32750,40962,61176,81390,101604,142032,167299,210259,210299,210338,210378,210417,210457,210496,210535,210575,210614,210654,210693,210733,210772,210812,210851,210891,210930,210970,211009,211049,211088,211128,211167,211207,211246,211286,211325,211365,211404,211444,211483,211523,211562,211601,211641,211680,211720,211759,211799,211838,211878,211917,211957,211996,212036,212075,212115,212154,212194,212233,212273,212312,212352,212391,212431,212470,212510,212549,212588,212628,212667,212707,212746,212786,212825,212865,212904,212944,212983,213023,213062,213102,213141,213181,213220,213260,213299,213339,213378,213418,213457,213497,213536,213576,213615,213654,213694,213733,213773,213812,213852,213891,213931,213970,214010,214049,214089,214128,214168,214207,214247,214286,214326,214365,214405,214444,214484,214523,214563,214602,214641,214681
DistanceSpacing: 1
BeatDivisor: 4
GridSize: 32
TimelineZoom: 2.300001

[Metadata]
Title:Summerhead
TitleUnicode:Summerhead
Artist:Cocteau Twins
ArtistUnicode:Cocteau Twins
Creator:app
Version:nomadic
Source:
Tags:posydomojka Elizabeth Fraser dtm katayama mapping cancer sentrimaro koue venix aishiteiru- giyokon aeong dreampop dream pop ethereal rock english four-calendar café four calendar cafe
BeatmapID:4323108
BeatmapSetID:2066422

[Difficulty]
HPDrainRate:5.5
CircleSize:3.2
OverallDifficulty:9.2
ApproachRate:9.5
SliderMultiplier:1.4
SliderTickRate:0.5

[Events]
//Background and Video events
0,0,"350449.jpg",0,0
//Break Periods
//Storyboard Layer 0 (Background)
//Storyboard Layer 1 (Fail)
//Storyboard Layer 2 (Pass)
//Storyboard Layer 3 (Foreground)
//Storyboard Layer 4 (Overlay)
//Storyboard Sound Samples

[TimingPoints]
215,319.148936170213,4,2,1,40,1,0
534,315.844330857465,4,2,2,50,1,0
534,-120.481927710843,4,2,2,50,0,0
612,-120.481927710843,4,2,1,50,0,0
1165,-100,4,2,1,50,0,0
1481,-66.6666666666667,4,2,1,50,0,0
2744,-100,4,2,1,50,0,0
3060,-133.333333333333,4,2,1,50,0,0
3692,-100,4,2,1,50,0,0
5587,-312.5,4,2,1,50,0,0
7798,-100,4,2,1,50,0,0
8114,-312.5,4,2,1,50,0,0
8745,-100,4,2,1,50,0,0
10009,-55.5555555555556,4,2,1,50,0,0
10325,-100,4,2,1,50,0,0
10641,-66.6666666666667,4,2,1,50,0,0
11904,-50,4,2,1,50,0,0
12220,-44.4444444444445,4,2,1,50,0,0
12536,-40,4,2,1,50,0,0
12851,-133.333333333333,4,2,1,50,0,0
14746,-100,4,2,1,50,0,0
15694,-50,4,2,1,50,0,0
16326,-100,4,2,1,50,0,0
16799,-66.6666666666667,4,2,1,50,0,0
18221,-50,4,2,1,50,0,0
20748,-50,4,2,2,50,0,0
20826,-50,4,2,1,50,0,0
22327,-66.6666666666667,4,2,1,50,0,0
23274,-133.333333333333,4,2,1,50,0,0
25169,-80,4,2,1,50,0,0
25801,-66.6666666666667,4,2,1,50,0,0
27380,-222.222222222221,4,2,1,50,0,0
27696,-100,4,2,1,50,0,0
28012,-47.6190476190476,4,2,1,50,0,0
28328,-133.333333333333,4,2,1,50,0,0
30539,-45.4545454545455,4,2,1,50,0,0
30855,-66.6666666666667,4,2,2,50,0,0
30934,-66.6666666666667,4,2,1,50,0,0
33065,-50,4,2,1,50,0,0
34329,-100,4,2,1,50,0,0
34803,-200,4,2,1,50,0,0
35276,-200,4,2,1,50,0,0
35908,-50,4,2,1,50,0,0
36856,-66.6666666666667,4,2,1,50,0,0
37487,-66.6666666666667,4,2,1,50,0,0
40646,-100,4,2,1,50,0,0
40962,-43.4782608695652,4,2,2,60,0,1
41041,-43.4782608695652,4,2,1,60,0,0
43172,-66.6666666666667,4,2,1,60,0,0
43488,-66.6666666666667,4,2,2,60,0,0
43567,-66.6666666666667,4,2,1,60,0,0
45383,-52.6315789473684,4,2,1,60,0,0
46015,-52.6315789473684,4,2,2,60,0,0
46094,-52.6315789473684,4,2,1,60,0,0
47594,-66.6666666666667,4,2,1,60,0,0
47910,-50,4,2,1,60,0,0
48226,-66.6666666666667,4,2,1,60,0,0
48542,-66.6666666666667,4,2,2,60,0,0
48621,-66.6666666666667,4,2,1,60,0,0
49647,-66.6666666666667,4,2,1,60,0,0
51069,-66.6666666666667,4,2,2,60,0,0
51148,-66.6666666666667,4,2,1,60,0,0
53595,-66.6666666666667,4,2,2,60,0,0
53674,-66.6666666666667,4,2,1,60,0,0
55490,-33.3333333333333,4,2,1,60,0,0
55648,-66.6666666666667,4,2,1,60,0,0
56122,-66.6666666666667,4,2,2,60,0,0
56201,-66.6666666666667,4,2,1,60,0,0
57701,-50,4,2,1,60,0,0
58017,-74.0740740740741,4,2,1,60,0,0
58333,-66.6666666666667,4,2,1,60,0,0
58649,-66.6666666666667,4,2,2,60,0,0
58728,-66.6666666666667,4,2,1,60,0,0
61176,-50,4,2,2,50,0,1
61255,-50,4,2,1,50,0,0
62123,-100,4,2,1,50,0,0
63071,-66.6666666666667,4,2,1,50,0,0
63702,-66.6666666666667,4,2,1,50,0,0
66229,-58.8235294117647,4,2,1,50,0,0
66861,-66.6666666666667,4,2,1,50,0,0
67808,-50,4,2,1,50,0,0
68124,-100,4,2,1,50,0,0
68756,-66.6666666666667,4,2,1,50,0,0
70651,-50,4,2,2,50,0,0
70730,-50,4,2,1,50,0,0
70967,-66.6666666666667,4,2,1,50,0,0
71283,-50,4,2,1,50,0,0
71914,-66.6666666666667,4,2,1,50,0,0
72546,-50,4,2,1,50,0,0
72862,-40,4,2,1,50,0,0
73809,-66.6666666666667,4,2,1,50,0,0
75389,-50,4,2,1,50,0,0
75704,-83.3333333333333,4,2,1,50,0,0
76336,-55.5555555555556,4,2,1,50,0,0
78863,-50,4,2,1,50,0,0
80758,-50,4,2,2,50,0,0
80837,-50,4,2,1,50,0,0
81074,-66.6666666666667,4,2,2,50,0,0
81153,-66.6666666666667,4,2,1,50,0,0
81390,-133.333333333333,4,2,2,50,0,0
81469,-133.333333333333,4,2,1,50,0,0
83601,-50,4,2,1,50,0,0
83916,-66.6666666666667,4,2,1,50,0,0
85496,-50,4,2,1,50,0,0
85969,-66.6666666666667,4,2,1,50,0,0
86443,-50,4,2,1,50,0,0
87233,-100,4,2,1,50,0,0
87391,-66.6666666666667,4,2,1,50,0,0
88022,-100,4,2,1,50,0,0
88338,-62.5,4,2,1,50,0,0
89286,-66.6666666666667,4,2,1,50,0,0
90549,-100,4,2,1,50,0,0
90865,-66.6666666666667,4,2,1,50,0,0
91497,-50,4,2,2,50,0,0
91576,-50,4,2,1,50,0,0
91813,-66.6666666666667,4,2,1,50,0,0
92128,-133.333333333333,4,2,1,50,0,0
94023,-66.6666666666667,4,2,1,50,0,0
94339,-133.333333333333,4,2,1,50,0,0
97182,-50,4,2,1,50,0,0
97656,-66.6666666666667,4,2,1,50,0,0
97971,-133.333333333333,4,2,1,50,0,0
98445,-66.6666666666667,4,2,1,50,0,0
99077,-133.333333333333,4,2,1,50,0,0
99709,-45.4545454545455,4,2,1,50,0,0
101604,-45.4545454545455,4,2,2,60,0,1
101683,-45.4545454545455,4,2,1,60,0,0
104130,-66.6666666666667,4,2,2,60,0,0
104209,-66.6666666666667,4,2,1,60,0,0
106657,-133.333333333333,4,2,2,60,0,0
106736,-133.333333333333,4,2,1,60,0,0
107289,-66.6666666666667,4,2,1,60,0,0
107605,-100,4,2,1,60,0,0
107921,-105.263157894737,4,2,1,60,0,0
108236,-50,4,2,1,60,0,0
109184,-50,4,2,2,60,0,0
109263,-50,4,2,1,60,0,0
109816,-58.8235294117647,4,2,1,60,0,0
111711,-58.8235294117647,4,2,2,60,0,0
111790,-58.8235294117647,4,2,1,60,0,0
114237,-58.8235294117647,4,2,2,60,0,0
114316,-58.8235294117647,4,2,1,60,0,0
116764,-117.647058823529,4,2,2,60,0,0
116843,-117.647058823529,4,2,1,60,0,0
117396,-40,4,2,1,60,0,0
117712,-50,4,2,1,60,0,0
118028,-66.6666666666667,4,2,1,60,0,0
118343,-90.9090909090909,4,2,1,60,0,0
118659,-50,4,2,1,60,0,0
119291,-50,4,2,2,60,0,0
119370,-50,4,2,1,60,0,0
121186,-66.6666666666667,4,2,1,60,0,0
121818,-50,4,2,2,60,0,1
121897,-50,4,2,1,60,0,0
124344,-66.6666666666667,4,2,2,60,0,0
124423,-66.6666666666667,4,2,1,60,0,0
126240,-50,4,2,1,60,0,0
126871,-66.6666666666667,4,2,2,60,0,0
126950,-66.6666666666667,4,2,1,60,0,0
129398,-66.6666666666667,4,2,2,60,0,0
129477,-66.6666666666667,4,2,1,60,0,0
131925,-66.6666666666667,4,2,2,60,0,0
132004,-66.6666666666667,4,2,1,60,0,0
134451,-66.6666666666667,4,2,2,60,0,0
134530,-66.6666666666667,4,2,1,60,0,0
136031,-50,4,2,1,60,0,0
136347,-66.6666666666667,4,2,1,60,0,0
136978,-50,4,2,2,60,0,0
137057,-50,4,2,1,60,0,0
138557,-50,4,2,1,60,0,0
138873,-66.6666666666667,4,2,1,60,0,0
139505,-66.6666666666667,4,2,2,60,0,1
139584,-66.6666666666667,4,2,1,60,0,0
139979,-50,4,2,2,60,0,0
140058,-50,4,2,1,60,0,0
140295,-66.6666666666667,4,2,1,60,0,0
140453,-100,4,2,2,60,0,0
140531,-100,4,2,1,60,0,0
140926,-100,4,2,2,60,0,0
141005,-100,4,2,1,60,0,0
141084,-40,4,2,1,60,0,0
141400,-40,4,2,2,60,0,0
141479,-40,4,2,1,60,0,0
142032,-40,4,2,2,50,0,1
142111,-40,4,2,1,50,0,0
143611,-66.6666666666667,4,2,1,50,0,0
143927,-55.5555555555556,4,2,1,50,0,0
144559,-66.6666666666667,4,2,2,50,0,0
144637,-66.6666666666667,4,2,1,50,0,0
146138,-50,4,2,1,50,0,0
147085,-50,4,2,2,50,0,0
147164,-50,4,2,1,50,0,0
149612,-50,4,2,2,50,0,0
149691,-50,4,2,1,50,0,0
151507,-43.4782608695652,4,2,1,50,0,0
152139,-43.4782608695652,4,2,2,50,0,0
152218,-43.4782608695652,4,2,1,50,0,0
154034,-66.6666666666667,4,2,1,50,0,0
154666,-66.6666666666667,4,2,2,50,0,0
154744,-66.6666666666667,4,2,1,50,0,0
157192,-66.6666666666667,4,2,2,50,0,0
157271,-66.6666666666667,4,2,1,50,0,0
158772,-100,4,2,1,50,0,0
159719,-100,4,2,2,50,0,0
159798,-100,4,2,1,50,0,0
162246,-66.6666666666667,4,2,2,50,0,0
162325,-66.6666666666667,4,2,1,50,0,0
164773,-66.6666666666667,4,2,2,50,0,0
164852,-66.6666666666667,4,2,1,50,0,0
166668,-66.6666666666667,4,2,1,55,0,0
167299,-55.5555555555556,4,2,2,60,0,1
167378,-55.5555555555556,4,2,1,60,0,0
167931,-133.333333333333,4,2,1,60,0,0
168247,-100,4,2,1,60,0,0
168563,-66.6666666666667,4,2,1,60,0,0
168879,-50,4,2,1,60,0,0
169194,-40,4,2,1,60,0,0
169508,-100,4,2,1,60,0,0
169826,-100,4,2,2,60,0,0
169905,-100,4,2,1,60,0,0
170458,-86.9565217391304,4,2,1,60,0,0
171405,-66.6666666666667,4,2,1,60,0,0
172353,-66.6666666666667,4,2,2,60,0,0
172432,-66.6666666666667,4,2,1,60,0,0
174880,-66.6666666666667,4,2,2,60,0,0
174959,-66.6666666666667,4,2,1,60,0,0
177406,-66.6666666666667,4,2,2,60,0,0
177485,-66.6666666666667,4,2,1,60,0,0
179301,-50,4,2,1,60,0,0
179617,-50,4,2,1,60,0,0
179933,-50,4,2,2,60,0,0
180012,-50,4,2,1,60,0,0
182460,-50,4,2,2,60,0,0
182539,-50,4,2,1,60,0,0
184987,-40,4,2,2,60,0,0
185066,-40,4,2,1,60,0,0
187513,-40,4,2,2,60,0,1
187592,-40,4,2,1,60,0,0
188145,-50,4,2,1,60,0,0
188461,-133.333333333333,4,2,1,60,0,0
188777,-80,4,2,1,60,0,0
189093,-66.6666666666667,4,2,1,60,0,0
189408,-50,4,2,1,60,0,0
189724,-40,4,2,1,60,0,0
190040,-40,4,2,2,60,0,0
190119,-40,4,2,1,60,0,0
191146,-66.6666666666667,4,2,1,60,0,0
192567,-66.6666666666667,4,2,2,60,0,0
192646,-66.6666666666667,4,2,1,60,0,0
194462,-50,4,2,1,60,0,0
195094,-40,4,2,2,60,0,0
195173,-40,4,2,1,60,0,0
196989,-66.6666666666667,4,2,2,60,0,0
197068,-66.6666666666667,4,2,1,60,0,0
197305,-100,4,2,1,60,0,0
197620,-50,4,2,2,60,0,0
197699,-50,4,2,1,60,0,0
200147,-50,4,2,2,60,0,0
200226,-50,4,2,1,60,0,0
202674,-50,4,2,2,60,0,0
202753,-50,4,2,1,60,0,0
205201,-66.6666666666667,4,2,2,60,0,1
205280,-66.6666666666667,4,2,1,60,0,0
206148,-66.6666666666667,4,2,2,60,0,0
206227,-66.6666666666667,4,2,1,60,0,0
207096,-66.6666666666667,4,2,2,60,0,0
207175,-66.6666666666667,4,2,1,60,0,0
207727,-50,4,2,2,60,0,0
207806,-50,4,2,1,60,0,0
208675,-50,4,2,2,60,0,0
208754,-50,4,2,1,60,0,0
209307,-66.6666666666667,4,2,1,60,0,0
209622,-100,4,2,2,60,0,0
209701,-100,4,2,1,60,0,0
210254,-126.582278481013,4,2,2,60,0,1
210333,-126.582278481013,4,2,1,5,0,0

[Colours]
Combo1 : 203,151,255
Combo2 : 0,255,255
Combo3 : 0,255,128

[HitObjects]
0,170,215,6,0,P|4:192|17:232,2,46.6666666666667,2|2|2,0:0|0:0|0:0,0:0:0:0:
19,193,534,2,0,P|62:183|112:173,1,87.1500012633133,12|0,0:1|0:0,0:0:0:0:
261,178,849,1,0,0:0:0:0:
495,181,1007,1,8,0:1:0:0:
495,181,1086,1,0,0:0:0:0:
495,181,1165,2,0,P|444:191|392:198,1,105,8|0,0:0|0:0,0:0:0:0:
382,207,1481,5,12,0:1:0:0:
398,244,1639,1,8,0:0:0:0:
300,262,1797,1,0,0:0:0:0:
364,325,1955,1,8,0:0:0:0:
209,287,2113,1,12,0:1:0:0:
110,182,2271,1,0,0:0:0:0:
14,28,2429,2,0,P|63:20|118:15,1,105.000004005432,8|0,0:0|0:0,0:0:0:0:
489,5,2744,6,0,P|496:55|500:114,1,105,8|0,0:1|0:0,0:0:0:0:
383,114,3060,2,0,P|376:64|372:5,1,105,12|0,0:1|0:0,0:0:0:0:
136,129,3534,1,8,0:1:0:0:
136,129,3613,1,0,0:0:0:0:
136,129,3692,2,0,P|84:137|32:142,1,105.000004005432,8|0,0:0|0:0,0:0:0:0:
20,157,4008,5,8,0:1:0:0:
121,358,4166,1,8,0:0:0:0:
34,315,4324,1,0,0:0:0:0:
176,287,4482,1,8,0:0:0:0:
362,183,4639,1,12,0:1:0:0:
362,183,4718,1,0,0:0:0:0:
362,183,4797,1,0,0:0:0:0:
505,16,4955,1,8,0:0:0:0:
505,16,5034,1,0,0:0:0:0:
505,16,5113,1,0,0:0:0:0:
338,56,5271,6,0,P|352:46|367:37,3,35,10|0|10|0,0:1|0:0|0:0|0:0,0:0:0:0:
508,141,5587,2,0,P|500:156|492:171,1,33.6,12|0,0:1|0:0,0:0:0:0:
436,250,5903,1,0,0:0:0:0:
308,340,6061,1,8,0:1:0:0:
21,384,6219,1,8,0:0:0:0:
21,384,6298,1,0,0:0:0:0:
21,384,6377,1,0,0:0:0:0:
81,314,6535,1,8,0:1:0:0:
16,132,6692,1,8,0:0:0:0:
95,98,6850,1,0,0:0:0:0:
161,199,7008,1,8,0:0:0:0:
357,134,7166,1,12,0:1:0:0:
357,134,7245,1,0,0:0:0:0:
357,134,7324,1,0,0:0:0:0:
512,18,7482,1,8,0:0:0:0:
512,18,7561,1,0,0:0:0:0:
512,18,7640,1,0,0:0:0:0:
424,67,7798,2,0,L|459:111,3,35,10|0|10|0,0:1|0:0|0:0|0:0,0:0:0:0:
260,31,8114,6,0,L|253:64,1,33.6,12|0,0:1|0:0,0:0:0:0:
239,47,8430,1,0,0:0:0:0:
332,146,8588,1,8,0:1:0:0:
116,243,8745,2,0,P|64:248|12:256,1,105,8|0,0:0|0:0,0:0:0:0:
391,278,9061,2,0,P|442:269|494:263,1,105,8|0,0:1|0:0,0:0:0:0:
501,271,9377,1,0,0:0:0:0:
469,349,9535,1,8,0:0:0:0:
276,376,9693,1,8,0:3:0:0:
6,384,9851,1,4,0:3:0:0:
107,257,10009,6,0,B|150:255|155:206|176:85,1,188.999994232178,8|0,0:0|0:0,0:0:0:0:
237,0,10325,1,10,0:3:0:0:
94,79,10483,1,6,0:3:0:0:
94,79,10562,1,0,0:0:0:0:
94,79,10641,2,0,P|83:130|72:181,1,105,12|0,0:1|0:0,0:0:0:0:
0,118,10956,5,0,0:0:0:0:
214,231,11114,1,8,0:1:0:0:
214,231,11193,1,0,0:0:0:0:
214,231,11272,2,0,P|178:292|114:259,1,157.500006008148,8|0,0:0|0:0,0:0:0:0:
15,0,11588,2,0,P|68:0|120:2,1,105.000004005432,12|8,0:1|0:0,0:0:0:0:
129,6,11825,1,0,0:0:0:0:
137,11,11904,2,0,P|185:23|268:62,1,140,0|8,0:0|0:0,0:0:0:0:
276,68,12141,1,0,0:0:0:0:
284,76,12220,2,0,P|344:144|392:226,1,157.500006008148,12|0,0:1|0:0,0:0:0:0:
385,209,12457,1,0,0:0:0:0:
391,217,12536,2,0,P|416:279|441:402,1,175,8|0,0:0|0:0,0:0:0:0:
512,331,12851,2,0,P|504:291|491:246,1,78.7500030040742,8|0,0:1|0:0,0:0:0:0:
491,246,13167,5,12,0:1:0:0:
282,198,13325,1,8,0:0:0:0:
0,165,13483,1,0,0:0:0:0:
86,103,13641,1,8,0:1:0:0:
230,376,13799,1,8,0:0:0:0:
230,376,13878,1,0,0:0:0:0:
230,376,13957,1,0,0:0:0:0:
260,283,14115,1,8,0:1:0:0:
365,176,14273,1,8,0:0:0:0:
505,78,14431,1,0,0:0:0:0:
498,86,14589,5,8,0:0:0:0:
269,97,14746,2,0,P|315:74|365:55,1,105,12|0,0:1|0:0,0:0:0:0:
424,282,15062,2,0,P|453:241|482:195,1,105,8|0,0:0|0:0,0:0:0:0:
512,0,15378,5,10,0:1:0:0:
500,11,15457,1,0,0:0:0:0:
507,49,15536,1,2,0:0:0:0:
447,108,15615,1,0,0:0:0:0:
379,162,15694,2,0,P|301:222|210:299,1,210,12|0,0:1|0:0,0:0:0:0:
125,377,16010,1,0,0:0:0:0:
237,161,16168,1,8,0:1:0:0:
237,161,16247,1,0,0:0:0:0:
237,161,16326,2,0,P|244:112|190:74,1,105.000004005432,8|0,0:0|0:0,0:0:0:0:
52,0,16642,1,8,0:1:0:0:
29,226,16799,2,0,P|-7:191|0:141,1,105.000004005432,8|0,0:0|0:0,0:0:0:0:
131,192,17115,1,8,0:0:0:0:
209,370,17273,1,12,0:1:0:0:
209,370,17352,1,0,0:0:0:0:
209,370,17431,1,0,0:0:0:0:
318,179,17589,1,8,0:0:0:0:
318,179,17668,1,0,0:0:0:0:
318,179,17747,1,0,0:0:0:0:
467,31,17905,2,0,P|490:15|533:0,3,52.5000020027161,10|0|10|0,0:1|0:0|0:0|0:0,0:0:0:0:
499,35,18221,6,0,P|396:59|296:89,1,210,12|0,0:1|0:0,0:0:0:0:
402,85,18537,5,0,0:0:0:0:
512,123,18695,1,8,0:1:0:0:
472,327,18852,1,8,0:0:0:0:
472,327,18931,1,0,0:0:0:0:
472,327,19010,1,0,0:0:0:0:
361,351,19168,1,8,0:1:0:0:
249,367,19326,1,8,0:0:0:0:
10,384,19484,1,8,0:3:0:0:
3,372,19642,5,4,0:3:0:0:
36,359,19800,5,8,0:1:0:0:
1,287,19958,5,8,0:3:0:0:
111,132,20116,1,8,0:0:0:0:
111,132,20195,1,0,0:0:0:0:
111,132,20274,1,8,0:1:0:0:
290,38,20432,1,6,0:3:0:0:
506,1,20748,1,12,0:1:0:0:
500,9,21063,1,0,0:0:0:0:
408,56,21221,5,8,0:1:0:0:
510,197,21379,1,8,0:0:0:0:
499,208,21537,1,0,0:0:0:0:
418,168,21695,1,8,0:1:0:0:
342,234,21853,1,8,0:0:0:0:
232,128,22011,1,0,0:0:0:0:
195,274,22169,1,8,0:0:0:0:
73,103,22327,2,0,P|80:47|99:-41,1,105.000004005432,12|0,0:1|0:0,0:0:0:0:
68,281,22643,2,0,P|74:330|93:419,1,105.000004005432,8|0,0:0|0:0,0:0:0:0:
0,201,22958,2,0,P|54:195|169:190,1,157.500006008148,8|0,0:1|0:0,0:0:0:0:
169,196,23274,6,0,P|189:231|161:284,1,105,12|0,0:1|0:0,0:0:0:0:
0,374,23748,1,8,0:1:0:0:
260,384,23906,1,8,0:0:0:0:
260,384,23985,1,0,0:0:0:0:
260,384,24064,1,0,0:0:0:0:
503,384,24222,1,8,0:1:0:0:
510,375,24380,5,8,0:0:0:0:
425,337,24538,5,0,0:0:0:0:
337,237,24696,1,8,0:0:0:0:
277,86,24854,2,0,P|266:47|257:-2,1,78.7500030040742,12|0,0:1|0:0,0:0:0:0:
423,139,25169,2,0,P|415:96|404:54,3,87.5,8|0|10|10,0:0|0:0|0:1|0:0,0:0:0:0:
512,254,25801,2,0,P|528:307|409:334,1,210.000008010865,12|0,0:1|0:0,0:0:0:0:
399,333,26196,1,0,0:0:0:0:
402,316,26275,5,8,0:1:0:0:
289,190,26433,1,8,0:0:0:0:
209,109,26591,1,0,0:0:0:0:
0,85,26749,2,0,P|48:108|102:138,1,105.000004005432,8|8,0:1|0:0,0:0:0:0:
71,0,27064,5,0,0:0:0:0:
14,206,27222,1,8,0:0:0:0:
14,206,27301,1,0,0:0:0:0:
14,206,27380,2,0,P|17:228|36:242,1,47.2499985580445,12|0,0:1|0:0,0:0:0:0:
37,263,27696,2,0,P|89:254|115:204,1,105,8|0,0:0|0:0,0:0:0:0:
131,210,28012,2,0,P|121:115|10:107,1,220.499993270874,10|0,0:1|0:0,0:0:0:0:
13,115,28328,5,12,0:1:0:0:
16,258,28486,1,0,0:0:0:0:
94,338,28644,2,0,P|110:358|108:384,1,52.5,0|8,0:0|0:1,0:0:0:0:
2,376,28959,5,8,0:0:0:0:
2,376,29038,1,0,0:0:0:0:
2,376,29117,1,0,0:0:0:0:
133,179,29275,2,0,P|157:187|167:210,2,52.5,8|8|0,0:1|0:0|0:0,0:0:0:0:
94,248,29749,5,8,0:0:0:0:
0,152,29907,1,12,0:1:0:0:
171,12,30065,1,0,0:0:0:0:
171,12,30144,1,0,0:0:0:0:
171,12,30223,2,0,P|196:10|215:27,1,52.5,8|0,0:0|0:0,0:0:0:0:
355,318,30539,2,0,P|381:293|422:254,1,77.0000023498536,10|0,0:0|0:0,0:0:0:0:
407,254,30697,2,0,P|432:230|473:190,1,77.0000023498536,10|0,0:0|0:0,0:0:0:0:
313,38,30855,2,0,P|239:64|165:92,1,157.500006008148,12|0,0:1|0:0,0:0:0:0:
512,0,31170,5,0,0:0:0:0:
434,94,31328,1,8,0:1:0:0:
257,200,31486,1,8,0:0:0:0:
257,200,31565,1,0,0:0:0:0:
257,200,31644,1,0,0:0:0:0:
250,221,31802,5,8,0:1:0:0:
229,209,31960,1,8,0:0:0:0:
287,173,32118,1,0,0:0:0:0:
345,268,32276,1,8,0:0:0:0:
165,76,32434,1,12,0:1:0:0:
77,301,32592,1,0,0:0:0:0:
368,35,32750,1,8,0:0:0:0:
368,35,32829,1,0,0:0:0:0:
368,35,32908,1,0,0:0:0:0:
264,87,33065,2,0,P|252:191|249:296,1,210.000008010865,8|0,0:1|0:0,0:0:0:0:
232,303,33381,5,12,0:1:0:0:
315,353,33539,1,0,0:0:0:0:
162,377,33697,1,0,0:0:0:0:
15,384,33855,1,8,0:1:0:0:
460,312,34013,1,8,0:0:0:0:
460,312,34092,1,0,0:0:0:0:
460,312,34171,1,0,0:0:0:0:
442,327,34329,5,8,0:1:0:0:
508,379,34487,5,8,0:0:0:0:
490,204,34645,1,0,0:0:0:0:
394,82,34803,2,0,P|382:62|363:44,1,35,8|12,0:0|0:1,0:0:0:0:
360,52,35039,1,0,0:0:0:0:
342,68,35118,1,0,0:0:0:0:
512,43,35276,2,0,P|501:57|494:72,2,35,8|0|10,0:0|0:0|0:1,0:0:0:0:
241,146,35750,1,10,0:0:0:0:
241,146,35829,1,0,0:0:0:0:
241,146,35908,2,0,P|139:167|25:176,1,210,12|0,0:1|0:0,0:0:0:0:
26,167,36224,5,0,0:0:0:0:
144,197,36382,1,8,0:1:0:0:
254,368,36540,1,8,0:0:0:0:
254,368,36619,1,0,0:0:0:0:
254,368,36698,1,0,0:0:0:0:
499,246,36856,2,0,P|394:236|291:215,1,210,8|0,0:1|0:0,0:0:0:0:
497,124,37329,5,8,0:0:0:0:
497,124,37408,1,0,0:0:0:0:
497,124,37487,2,0,P|445:126|363:144,1,105.000004005432,14|0,0:1|0:0,0:0:0:0:
497,237,37803,2,0,P|445:235|363:217,1,105.000004005432,10|0,0:0|0:0,0:0:0:0:
331,28,38119,2,0,P|383:37|436:40,1,105.000004005432,10|10,0:1|0:0,0:0:0:0:
446,35,38356,1,0,0:0:0:0:
441,25,38435,5,12,0:1:0:0:
220,181,38593,1,0,0:0:0:0:
333,334,38751,2,0,P|385:325|438:323,1,105.000004005432,8|8,0:1|0:1,0:0:0:0:
180,361,39067,5,8,0:0:0:0:
180,361,39145,1,0,0:0:0:0:
180,361,39224,1,0,0:0:0:0:
439,334,39382,2,0,P|387:343|334:345,1,105.000004005432,8|8,0:1|0:3,0:0:0:0:
27,141,39698,2,0,P|9:188|39:227,1,105.000004005432,8|4,0:0|0:3,0:0:0:0:
161,90,40014,1,12,0:1:0:0:
161,90,40093,1,0,0:0:0:0:
161,90,40172,2,0,P|126:53|77:64,2,105.000004005432,8|0|0,0:0|0:0|0:0,0:0:0:0:
138,242,40646,2,0,P|182:218|184:168,1,105.000004005432,10|0,0:0|0:0,0:0:0:0:
201,166,40962,2,0,P|120:73|-10:0,1,241.500004606247,12|0,0:1|0:0,0:0:0:0:
13,20,41277,5,0,0:0:0:0:
213,9,41435,1,8,0:1:0:0:
494,0,41593,1,10,0:0:0:0:
494,0,41672,1,0,0:0:0:0:
494,0,41751,1,0,0:0:0:0:
462,6,41909,5,14,0:1:0:0:
480,25,42067,5,8,0:0:0:0:
512,22,42226,5,2,0:0:0:0:
391,59,42383,5,8,0:0:0:0:
282,111,42541,1,14,0:1:0:0:
181,198,42699,1,0,0:0:0:0:
90,370,42857,1,10,0:0:0:0:
90,370,42936,1,0,0:0:0:0:
90,370,43015,1,0,0:0:0:0:
220,302,43172,2,0,P|294:287|407:274,1,157.500006008148,8|0,0:1|0:0,0:0:0:0:
72,215,43488,2,0,P|59:140|30:29,1,157.500006008148,12|0,0:1|0:0,0:0:0:0:
136,13,43804,5,0,0:0:0:0:
230,51,43962,1,8,0:1:0:0:
350,162,44120,1,8,0:0:0:0:
350,162,44199,1,0,0:0:0:0:
350,162,44278,1,0,0:0:0:0:
286,227,44436,1,12,0:1:0:0:
431,190,44594,2,0,P|476:182|543:178,1,105.000004005432,8|0,0:0|0:0,0:0:0:0:
379,282,44910,1,8,0:0:0:0:
276,214,45068,2,0,P|223:215|171:222,1,105.000004005432,12|0,0:1|0:0,0:0:0:0:
194,238,45304,1,0,0:0:0:0:
194,238,45383,2,0,P|94:231|-3:215,1,199.499994672775,8|0,0:0|0:0,0:0:0:0:
83,250,45699,5,8,0:1:0:0:
274,197,45857,1,8,0:0:0:0:
512,170,46015,1,12,0:1:0:0:
512,170,46094,1,0,0:0:0:0:
512,170,46173,1,0,0:0:0:0:
475,167,46331,5,0,0:0:0:0:
496,249,46489,1,8,0:1:0:0:
512,384,46647,1,10,0:0:0:0:
503,373,46805,5,0,0:0:0:0:
479,257,46963,1,14,0:1:0:0:
412,106,47121,1,8,0:0:0:0:
241,1,47278,1,2,0:0:0:0:
19,13,47436,1,8,0:0:0:0:
19,13,47515,1,0,0:0:0:0:
19,13,47594,2,0,B|18:80|42:32|48:113,1,105.000004005432,14|0,0:1|0:0,0:0:0:0:
42,121,47910,2,0,P|133:101|98:18,1,210,10|0,0:0|0:0,0:0:0:0:
42,242,48226,2,0,B|35:309|16:258|2:338,1,105.000004005432,8|8,0:1|0:0,0:0:0:0:
486,204,48542,5,12,0:1:0:0:
480,198,48700,5,0,0:0:0:0:
473,190,48858,5,0,0:0:0:0:
348,85,49016,1,8,0:1:0:0:
120,31,49174,1,8,0:0:0:0:
120,31,49252,1,0,0:0:0:0:
120,31,49331,1,0,0:0:0:0:
133,40,49489,5,12,0:1:0:0:
101,45,49647,5,8,0:0:0:0:
480,283,49963,2,0,P|498:333|511:384,2,105.000004005432,8|12|0,0:0|0:1|0:0,0:0:0:0:
468,273,50437,5,8,0:0:0:0:
334,197,50595,1,8,0:1:0:0:
187,150,50753,1,4,0:3:0:0:
34,122,50911,1,2,0:0:0:0:
480,100,51069,2,0,P|498:50|511:0,1,105.000004005432,12|0,0:1|0:0,0:0:0:0:
461,103,51384,5,0,0:0:0:0:
332,188,51542,1,8,0:1:0:0:
38,283,51700,1,10,0:0:0:0:
38,283,51779,1,0,0:0:0:0:
38,283,51858,1,0,0:0:0:0:
15,180,52016,1,14,0:1:0:0:
23,187,52174,5,8,0:0:0:0:
121,258,52332,1,2,0:0:0:0:
252,329,52490,1,8,0:0:0:0:
383,364,52648,2,0,P|433:376|485:384,1,105.000004005432,14|0,0:1|0:0,0:0:0:0:
506,169,52964,5,10,0:0:0:0:
506,169,53043,1,0,0:0:0:0:
506,169,53122,1,0,0:0:0:0:
486,150,53280,5,8,0:1:0:0:
450,229,53437,5,8,0:0:0:0:
65,152,53595,1,12,0:1:0:0:
54,147,53674,1,0,0:0:0:0:
75,117,53753,1,0,0:0:0:0:
20,20,53911,5,0,0:0:0:0:
56,128,54069,1,8,0:1:0:0:
131,360,54227,1,8,0:0:0:0:
131,360,54306,1,0,0:0:0:0:
131,360,54385,1,0,0:0:0:0:
211,310,54543,2,0,P|230:293|240:268,1,52.5000020027161,12|0,0:1|0:0,0:0:0:0:
193,209,54701,2,0,P|238:231|252:280,4,105.000004005432,8|0|8|12|0,0:0|0:0|0:0|0:1|0:0,0:0:0:0:
0,287,55490,2,0,P|12:237|58:214,1,105.000004005432,8|0,0:0|0:0,0:0:0:0:
11,274,55648,2,0,P|20:298|39:315,1,52.5000020027161
134,355,55806,5,8,0:1:0:0:
276,373,55964,1,8,0:0:0:0:
512,384,56122,1,12,0:1:0:0:
512,384,56201,1,0,0:0:0:0:
512,384,56280,1,0,0:0:0:0:
407,325,56438,1,0,0:0:0:0:
465,247,56596,1,8,0:1:0:0:
471,235,56754,5,10,0:0:0:0:
502,165,56912,1,0,0:0:0:0:
486,78,57070,1,14,0:1:0:0:
369,7,57228,1,8,0:0:0:0:
213,0,57385,1,2,0:0:0:0:
67,81,57543,1,8,0:0:0:0:
14,241,57701,2,0,P|26:309|44:377,1,140,14|0,0:1|0:0,0:0:0:0:
11,142,58017,2,0,P|23:74|44:-16,1,141.750000540733,10|0,0:0|0:0,0:0:0:0:
77,81,58333,2,0,P|110:121|143:162,1,105.000004005432,8|8,0:1|0:0,0:0:0:0:
160,311,58649,2,0,P|192:270|226:229,1,105.000004005432,12|0,0:1|0:0,0:0:0:0:
484,4,58965,5,12,0:0:0:0:
472,10,59123,5,8,0:1:0:0:
445,32,59281,5,8,0:0:0:0:
375,76,59438,5,8,0:3:0:0:
311,138,59596,5,12,0:1:0:0:
218,239,59754,5,8,0:0:0:0:
121,384,59912,1,12,0:0:0:0:
133,380,59991,5,0,0:0:0:0:
123,369,60070,5,8,0:0:0:0:
153,363,60149,5,0,0:0:0:0:
152,331,60228,5,8,0:1:0:0:
228,240,60386,1,8,0:3:0:0:
321,139,60544,1,12,0:0:0:0:
385,77,60702,1,8,0:1:0:0:
455,33,60860,1,12,0:0:0:0:
482,11,61018,1,6,0:3:0:0:
492,4,61176,2,0,P|480:98|445:218,1,210,14|0,0:1|0:0,0:0:0:0:
442,218,61491,5,0,0:0:0:0:
367,265,61649,5,8,0:1:0:0:
436,154,61807,2,0,P|427:72|478:58,1,140,8|0,0:0|0:0,0:0:0:0:
367,265,62123,1,14,0:1:0:0:
356,272,62281,1,8,0:0:0:0:
328,288,62439,1,2,0:0:0:0:
256,320,62597,1,8,0:0:0:0:
141,358,62755,1,14,0:1:0:0:
0,378,62913,1,0,0:0:0:0:
468,289,63071,2,0,P|489:337|520:397,1,105.000004005432,10|0,0:0|0:0,0:0:0:0:
460,311,63387,2,0,P|434:236|414:160,1,157.500006008148,10|0,0:1|0:0,0:0:0:0:
342,194,63702,2,0,B|318:129|330:42|268:161|406:34,1,210.000008010865,12|0,0:1|0:0,0:0:0:0:
403,21,64097,5,0,0:0:0:0:
427,25,64176,1,8,0:1:0:0:
512,152,64334,1,8,0:0:0:0:
512,152,64413,1,0,0:0:0:0:
512,152,64492,1,0,0:0:0:0:
427,171,64650,1,8,0:1:0:0:
257,211,64808,1,8,0:0:0:0:
26,224,64966,1,0,0:0:0:0:
15,228,65124,5,8,0:0:0:0:
128,159,65282,1,14,0:1:0:0:
128,159,65361,1,0,0:0:0:0:
128,159,65440,1,0,0:0:0:0:
231,3,65597,1,8,0:0:0:0:
231,3,65676,1,0,0:0:0:0:
231,3,65755,1,0,0:0:0:0:
48,38,65913,5,10,0:1:0:0:
43,28,65992,1,0,0:0:0:0:
99,61,66071,1,10,0:0:0:0:
178,16,66150,1,0,0:0:0:0:
260,48,66229,2,0,P|361:121|471:165,1,238.00000453949,12|0,0:1|0:0,0:0:0:0:
313,108,66703,1,8,0:1:0:0:
309,115,66782,1,0,0:0:0:0:
309,123,66861,2,0,P|337:165|387:157,1,105.000004005432,8|0,0:0|0:0,0:0:0:0:
441,0,67177,2,0,P|477:42|503:82,2,105.000004005432,8|8|0,0:1|0:0|0:0,0:0:0:0:
411,241,67650,5,8,0:0:0:0:
434,262,67729,1,0,0:0:0:0:
444,263,67808,2,0,P|497:229|461:159,1,140,14|0,0:1|0:0,0:0:0:0:
269,320,68124,2,0,P|322:316|374:309,1,105,8|0,0:0|0:0,0:0:0:0:
262,310,68440,1,10,0:1:0:0:
250,325,68519,1,0,0:0:0:0:
226,298,68598,1,10,0:0:0:0:
182,361,68677,1,0,0:0:0:0:
105,373,68756,2,0,P|45:380|-16:382,2,105.000004005432,14|0|0,0:1|0:0|0:0,0:0:0:0:
266,354,69230,1,8,0:1:0:0:
485,329,69388,1,8,0:0:0:0:
485,329,69467,1,0,0:0:0:0:
485,329,69545,1,0,0:0:0:0:
451,321,69703,5,8,0:1:0:0:
366,288,69861,1,8,0:0:0:0:
270,235,70019,1,8,0:1:0:0:
139,160,70177,2,0,P|110:141|83:108,1,52.5000020027161,8|0,0:0|0:0,0:0:0:0:
108,51,70335,2,0,B|40:-13|0:50|24:102,1,157.500006008148,8|0,0:3|0:0,0:0:0:0:
19,127,70651,2,0,B|108:215|164:127|131:58,1,210,12|0,0:3|0:0,0:0:0:0:
100,37,70967,2,0,B|32:-27|-8:36|16:88,1,157.500006008148,8|0,0:3|0:0,0:0:0:0:
104,142,71283,2,0,P|161:225|236:306,1,210,14|0,0:1|0:0,0:0:0:0:
246,296,71598,5,0,0:0:0:0:
149,336,71756,1,8,0:1:0:0:
0,373,71914,1,8,0:0:0:0:
0,373,71993,1,0,0:0:0:0:
0,373,72072,1,0,0:0:0:0:
318,338,72230,2,0,P|371:356|446:364,1,105.000004005432,14|8,0:1|0:0,0:0:0:0:
412,354,72467,1,0,0:0:0:0:
412,354,72546,2,0,P|464:333|537:282,1,140,2|8,0:0|0:0,0:0:0:0:
468,239,72783,1,0,0:0:0:0:
468,239,72862,2,0,P|491:188|516:52,1,175,14|0,0:1|0:0,0:0:0:0:
428,127,73099,1,0,0:0:0:0:
428,127,73178,2,0,P|396:80|294:-12,1,175,10|0,0:0|0:0,0:0:0:0:
277,82,73415,1,0,0:0:0:0:
277,82,73494,2,0,P|220:81|88:116,1,175,10|8,0:1|0:0,0:0:0:0:
116,112,73730,1,0,0:0:0:0:
123,120,73809,2,0,B|72:143|63:214|137:181|36:146|-12:153,1,157.500006008148,12|0,0:1|0:0,0:0:0:0:
207,171,74125,5,0,0:0:0:0:
38,71,74283,1,8,0:1:0:0:
38,71,74362,1,0,0:0:0:0:
38,71,74441,2,0,P|16:42|60:-10,1,105.000004005432,8|0,0:0|0:0,0:0:0:0:
76,0,74757,5,8,0:1:0:0:
300,18,74915,1,8,0:0:0:0:
211,76,75073,1,0,0:0:0:0:
327,200,75231,1,8,0:0:0:0:
327,200,75310,1,0,0:0:0:0:
327,200,75389,2,0,B|411:298|369:185|297:298|278:372,1,210,14|0,0:1|0:0,0:0:0:0:
243,243,75704,2,0,P|182:258|124:284,1,125.999996154785,8|0,0:0|0:0,0:0:0:0:
117,290,76020,1,10,0:1:0:0:
98,289,76099,1,0,0:0:0:0:
99,314,76178,1,2,0:0:0:0:
59,301,76257,1,0,0:0:0:0:
15,363,76336,2,0,P|70:333|130:313,1,125.999996154785,12|0,0:1|0:0,0:0:0:0:
6,224,76652,5,0,0:0:0:0:
43,128,76810,1,8,0:1:0:0:
233,19,76968,1,8,0:0:0:0:
233,19,77047,1,0,0:0:0:0:
233,19,77126,1,0,0:0:0:0:
357,5,77284,1,8,0:1:0:0:
474,0,77442,1,8,0:0:0:0:
464,11,77600,5,0,0:0:0:0:
488,20,77757,5,8,0:0:0:0:
497,185,77915,1,14,0:1:0:0:
497,185,77994,1,0,0:0:0:0:
497,185,78073,1,0,0:0:0:0:
512,365,78231,1,8,0:0:0:0:
512,365,78310,1,0,0:0:0:0:
512,365,78389,1,0,0:0:0:0:
275,251,78547,5,10,0:1:0:0:
280,241,78626,1,0,0:0:0:0:
299,218,78705,1,10,0:0:0:0:
342,221,78784,1,0,0:0:0:0:
371,290,78863,2,0,B|376:392|444:370|485:267|297:265|267:373,1,280,14|0,0:1|0:0,0:0:0:0:
258,357,79258,1,0,0:0:0:0:
250,372,79337,1,8,0:1:0:0:
164,337,79495,2,0,P|81:154|-18:140,1,280,8|8,0:0|0:1,0:0:0:0:
4,147,79889,5,0,0:0:0:0:
34,168,79968,1,8,0:0:0:0:
0,343,80126,1,0,0:0:0:0:
74,273,80284,1,8,0:0:0:0:
0,21,80442,1,8,0:1:0:0:
86,72,80600,1,0,0:0:0:0:
276,174,80758,2,0,P|371:217|471:250,1,210,12|0,0:3|0:0,0:0:0:0:
442,229,81074,2,0,P|364:219|288:201,1,157.500006008148,12|0,0:3|0:0,0:0:0:0:
325,225,81390,2,0,P|362:222|414:215,1,78.7500030040742,12|0,0:1|0:0,0:0:0:0:
428,203,81705,1,0,0:0:0:0:
483,136,81863,1,8,0:1:0:0:
512,0,82021,1,8,0:0:0:0:
512,0,82100,1,0,0:0:0:0:
512,0,82179,1,0,0:0:0:0:
473,0,82337,5,8,0:1:0:0:
459,6,82495,1,8,0:0:0:0:
422,24,82653,1,0,0:0:0:0:
379,43,82811,1,8,0:0:0:0:
316,107,82969,1,12,0:1:0:0:
278,220,83127,1,0,0:0:0:0:
246,383,83285,1,8,0:0:0:0:
246,383,83364,1,0,0:0:0:0:
246,383,83443,1,0,0:0:0:0:
273,303,83601,2,0,P|301:210|351:99,1,210,8|0,0:1|0:0,0:0:0:0:
364,116,83916,2,0,P|372:72|276:16,1,157.500006008148,12|0,0:1|0:0,0:0:0:0:
280,13,84232,1,0,0:0:0:0:
175,59,84390,1,8,0:1:0:0:
42,196,84548,1,8,0:0:0:0:
42,196,84627,1,0,0:0:0:0:
42,196,84706,1,0,0:0:0:0:
53,229,84864,5,8,0:1:0:0:
59,217,85022,1,8,0:0:0:0:
87,247,85180,1,0,0:0:0:0:
182,296,85338,1,8,0:0:0:0:
311,340,85496,2,0,P|377:359|518:382,1,210,12|0,0:1|0:0,0:0:0:0:
497,371,85811,1,8,0:0:0:0:
512,334,85890,1,0,0:0:0:0:
496,261,85969,2,0,P|484:209|461:156,2,105.000004005432,0|10|10,0:0|0:1|0:0,0:0:0:0:
497,384,86443,2,0,P|393:369|292:343,1,210,12|0,0:1|0:0,0:0:0:0:
174,294,86759,5,0,0:0:0:0:
168,303,86838,1,0,0:0:0:0:
198,326,86917,1,8,0:1:0:0:
176,354,86996,1,0,0:0:0:0:
219,383,87075,1,8,0:0:0:0:
17,363,87233,2,0,P|6:338|2:326,1,35
20,220,87391,2,0,P|6:166|-2:68,1,105.000004005432,8|8,0:1|0:0,0:0:0:0:
19,113,87628,1,0,0:0:0:0:
12,101,87707,1,0,0:0:0:0:
29,77,87785,1,0,0:0:0:0:
0,16,87864,1,8,0:0:0:0:
118,50,88022,6,0,P|130:100|138:152,1,105,12|0,0:1|0:0,0:0:0:0:
0,139,88338,2,0,P|8:192|21:337,1,168,8|0,0:0|0:0,0:0:0:0:
54,384,88654,1,10,0:1:0:0:
41,383,88733,1,0,0:0:0:0:
59,361,88812,1,10,0:0:0:0:
30,313,88891,1,0,0:0:0:0:
102,284,88970,2,0,P|149:238|130:193,1,112,12|0,0:1|0:0,0:0:0:0:
9,29,89286,5,0,0:0:0:0:
106,11,89444,1,8,0:1:0:0:
338,0,89602,1,8,0:0:0:0:
338,0,89681,1,0,0:0:0:0:
338,0,89760,1,0,0:0:0:0:
115,26,89917,5,8,0:1:0:0:
29,74,90075,1,8,0:0:0:0:
0,211,90233,2,0,P|0:263|51:285,1,105.000004005432,0|8,0:0|0:0,0:0:0:0:
115,355,90470,1,0,0:0:0:0:
115,355,90549,2,0,P|168:348|247:331,1,105,12|0,0:1|0:0,0:0:0:0:
238,366,90865,2,0,B|248:333|322:324|282:359|261:282|270:208,1,157.500006008148,8|0,0:0|0:0,0:0:0:0:
418,279,91181,2,0,P|411:303|402:328,1,52.5000020027161,10|0,0:0|0:0,0:0:0:0:
401,284,91339,2,0,P|394:308|385:333,1,52.5000020027161,10|0,0:0|0:0,0:0:0:0:
371,339,91497,2,0,P|406:226|420:116,1,210,12|0,0:1|0:0,0:0:0:0:
435,139,91813,2,0,P|399:80|366:51,1,105.000004005432,0|8,0:0|0:1,0:0:0:0:
370,48,92049,1,0,0:0:0:0:
369,40,92128,2,0,P|339:27|301:20,1,52.5000020027161,8|0,0:0|0:0,0:0:0:0:
217,6,92444,1,8,0:1:0:0:
33,0,92602,1,8,0:0:0:0:
22,14,92760,5,0,0:0:0:0:
106,51,92918,1,8,0:0:0:0:
4,236,93076,2,0,P|13:261|27:284,1,52.5000020027161,12|0,0:1|0:0,0:0:0:0:
263,368,93392,1,8,0:0:0:0:
263,368,93471,1,0,0:0:0:0:
263,368,93550,1,0,0:0:0:0:
482,284,93708,2,0,P|497:263|510:240,1,52.5000020027161,8|8,0:1|0:0,0:0:0:0:
511,105,94023,6,0,P|441:134|429:208,1,157.500006008148,12|0,0:1|0:0,0:0:0:0:
427,216,94339,2,0,P|407:232|384:245,1,52.5000020027161,0|8,0:0|0:1,0:0:0:0:
142,339,94655,1,8,0:0:0:0:
142,339,94734,1,0,0:0:0:0:
142,339,94813,1,0,0:0:0:0:
31,382,94971,5,8,0:1:0:0:
46,379,95129,1,8,0:0:0:0:
106,362,95287,1,0,0:0:0:0:
196,338,95445,1,8,0:0:0:0:
303,294,95603,1,12,0:1:0:0:
394,216,95761,1,0,0:0:0:0:
480,92,95918,1,8,0:0:0:0:
480,92,95997,1,0,0:0:0:0:
480,92,96076,2,0,P|487:60|490:25,1,52.5000020027161,0|10,0:0|0:1,0:0:0:0:
473,22,96313,1,0,0:0:0:0:
421,0,96392,1,10,0:0:0:0:
372,5,96471,1,0,0:0:0:0:
344,23,96550,2,0,P|338:49|334:75,3,52.5000020027161,12|0|0|8,0:1|0:0|0:0|0:1,0:0:0:0:
46,63,97182,6,0,P|148:39|252:24,1,210,8|0,0:0|0:0,0:0:0:0:
350,13,97498,1,8,0:1:0:0:
344,23,97656,2,0,P|338:49|334:75,2,52.5000020027161,8|0|0,0:0|0:0|0:0,0:0:0:0:
429,5,97971,1,8,0:0:0:0:
437,7,98129,2,0,P|443:33|447:59,1,52.5000020027161,14|0,0:1|0:0,0:0:0:0:
467,62,98445,2,0,B|482:153|405:76|380:171,1,157.500006008148,10|0,0:0|0:0,0:0:0:0:
379,279,98761,1,10,0:1:0:0:
461,367,98919,1,10,0:0:0:0:
461,367,98998,1,0,0:0:0:0:
461,367,99077,2,0,P|486:374|512:377,1,52.5000020027161,12|0,0:1|0:0,0:0:0:0:
489,203,99393,5,8,0:1:0:0:
374,263,99551,1,8,0:1:0:0:
264,374,99709,2,0,P|379:365|494:352,1,231.000007049561,8|0,0:0|0:0,0:0:0:0:
493,176,100024,5,8,0:1:0:0:
359,254,100182,1,8,0:3:0:0:
256,372,100340,2,0,P|140:363|26:350,1,231.000007049561,12|0,0:0|0:0,0:0:0:0:
31,342,100656,5,8,0:1:0:0:
44,327,100814,5,12,0:0:0:0:
94,266,100972,1,4,0:3:0:0:
178,183,101130,1,8,0:0:0:0:
298,111,101288,1,12,0:0:0:0:
461,75,101446,1,6,0:3:0:0:
512,216,101604,2,0,B|478:293|556:287|581:258|494:138|378:284|553:462|490:254|311:287,1,308.000009399414,12|0,0:1|0:0,0:0:0:0:
319,291,101998,1,0,0:0:0:0:
329,310,102077,1,8,0:1:0:0:
206,384,102235,2,0,P|219:305|246:223,1,154.000004699707,10|0,0:0|0:0,0:0:0:0:
17,349,102551,5,14,0:1:0:0:
22,341,102709,5,8,0:0:0:0:
36,323,102867,5,2,0:0:0:0:
93,254,103025,1,8,0:0:0:0:
184,162,103183,1,14,0:1:0:0:
321,80,103341,1,0,0:0:0:0:
510,37,103499,1,10,0:0:0:0:
510,37,103578,1,0,0:0:0:0:
510,37,103657,1,0,0:0:0:0:
470,52,103815,5,8,0:1:0:0:
503,157,103973,1,8,0:0:0:0:
440,368,104130,1,12,0:1:0:0:
451,368,104209,1,0,0:0:0:0:
472,350,104288,1,0,0:0:0:0:
340,295,104446,1,0,0:0:0:0:
146,347,104604,1,8,0:1:0:0:
146,347,104683,1,0,0:0:0:0:
146,347,104762,2,0,P|63:363|-20:372,1,157.500006008148,8|0,0:0|0:0,0:0:0:0:
0,362,105078,5,12,0:1:0:0:
22,370,105236,1,8,0:0:0:0:
48,335,105394,1,0,0:0:0:0:
164,355,105552,1,8,0:0:0:0:
342,298,105710,1,12,0:1:0:0:
459,185,105868,1,0,0:0:0:0:
512,9,106026,1,8,0:0:0:0:
512,9,106104,1,0,0:0:0:0:
512,9,106183,2,0,P|478:19|436:31,1,52.5000020027161
486,37,106341,2,0,P|419:80|348:113,1,157.500006008148,8|0,0:1|0:0,0:0:0:0:
328,18,106657,2,0,P|315:66|353:98,1,105.000004005432,12|0,0:1|0:0,0:0:0:0:
431,119,107052,1,0,0:0:0:0:
426,137,107131,1,8,0:1:0:0:
268,149,107289,6,0,P|194:178|117:198,1,157.500006008148,10|0,0:0|0:0,0:0:0:0:
134,208,107605,2,0,B|96:223|141:268|72:287,1,105,14|0,0:1|0:0,0:0:0:0:
34,215,107921,2,0,P|24:166|21:117,1,99.7499973363877,2|0,0:0|0:0,0:0:0:0:
14,213,108236,2,0,P|61:306|171:367,1,210,14|0,0:1|0:0,0:0:0:0:
498,212,108552,2,0,P|451:305|364:361,1,210,10|0,0:0|0:0,0:0:0:0:
207,237,108868,5,8,0:1:0:0:
284,121,109026,5,8,0:0:0:0:
241,37,109184,6,0,P|244:176|251:316,1,280,12|0,0:1|0:0,0:0:0:0:
240,326,109579,1,0,0:0:0:0:
269,355,109658,1,8,0:1:0:0:
276,126,109816,6,0,P|240:173|211:225,1,119.000002269745,8|0,0:0|0:0,0:0:0:0:
122,378,110131,5,12,0:1:0:0:
129,359,110289,1,8,0:0:0:0:
146,330,110447,1,8,0:3:0:0:
194,244,110605,1,8,0:0:0:0:
254,155,110763,1,12,0:1:0:0:
360,63,110921,1,4,0:3:0:0:
512,0,111079,1,8,0:0:0:0:
512,0,111158,1,0,0:0:0:0:
512,0,111237,1,8,0:1:0:0:
372,167,111395,2,0,P|445:199|481:127,1,178.500003404617,4|0,0:3|0:0,0:0:0:0:
221,22,111711,2,0,P|131:28|43:40,1,178.500003404617,12|0,0:1|0:0,0:0:0:0:
33,48,112027,5,0,0:0:0:0:
137,79,112184,1,8,0:1:0:0:
372,7,112342,1,10,0:0:0:0:
372,7,112421,1,0,0:0:0:0:
372,7,112500,1,0,0:0:0:0:
356,16,112658,5,14,0:1:0:0:
370,33,112816,5,8,0:0:0:0:
417,10,112974,5,2,0:0:0:0:
293,73,113132,1,8,0:0:0:0:
218,210,113290,1,14,0:1:0:0:
218,210,113369,1,0,0:0:0:0:
218,210,113448,1,0,0:0:0:0:
174,354,113606,1,10,0:0:0:0:
164,342,113764,5,0,0:0:0:0:
188,336,113922,5,8,0:1:0:0:
233,191,114080,1,8,0:0:0:0:
320,63,114237,2,0,P|400:39|497:21,1,178.500003404617,12|0,0:1|0:0,0:0:0:0:
499,32,114553,1,0,0:0:0:0:
428,132,114711,1,8,0:1:0:0:
512,310,114869,1,8,0:0:0:0:
512,310,114948,1,0,0:0:0:0:
512,310,115027,1,0,0:0:0:0:
501,322,115185,5,12,0:1:0:0:
487,285,115343,5,8,0:0:0:0:
416,346,115501,1,0,0:0:0:0:
314,265,115659,1,8,0:0:0:0:
25,367,115817,1,12,0:1:0:0:
19,359,115896,1,0,0:0:0:0:
4,328,115975,1,0,0:0:0:0:
21,291,116054,1,0,0:0:0:0:
93,255,116133,2,0,P|103:313|110:372,2,119.000002269745,8|0|8,0:0|0:0|0:1,0:0:0:0:
36,73,116606,1,8,0:0:0:0:
196,231,116764,2,0,P|203:290|213:348,1,119.000002269745,12|0,0:1|0:0,0:0:0:0:
0,327,117238,5,8,0:1:0:0:
11,290,117317,1,0,0:0:0:0:
23,278,117396,2,0,P|126:258|298:242,1,262.5,10|0,0:0|0:0,0:0:0:0:
274,233,117712,2,0,P|357:243|431:290,1,140,14|8,0:1|0:0,0:0:0:0:
424,264,117949,1,0,0:0:0:0:
424,264,118028,2,0,P|433:317|357:345,1,105.000004005432,2|8,0:0|0:0,0:0:0:0:
198,342,118264,1,0,0:0:0:0:
198,342,118343,2,0,P|187:283|181:224,1,115.50000352478,14|0,0:1|0:0,0:0:0:0:
207,125,118659,2,0,P|308:111|385:179,1,210,10|0,0:0|0:0,0:0:0:0:
387,191,118975,5,8,0:1:0:0:
368,203,119133,5,8,0:0:0:0:
512,384,119291,1,12,0:1:0:0:
512,384,119370,1,0,0:0:0:0:
512,384,119449,1,0,0:0:0:0:
486,363,119607,5,12,0:0:0:0:
446,295,119765,1,8,0:1:0:0:
485,103,119923,1,8,0:0:0:0:
485,103,120002,1,0,0:0:0:0:
485,103,120081,1,8,0:3:0:0:
454,79,120239,5,12,0:1:0:0:
412,60,120396,1,8,0:0:0:0:
311,31,120554,1,12,0:0:0:0:
166,11,120712,1,8,0:0:0:0:
0,0,120870,1,8,0:1:0:0:
9,11,121028,5,8,0:3:0:0:
172,27,121186,2,0,P|207:65|239:107,1,105.000004005432,12|8,0:0|0:1,0:0:0:0:
263,237,121502,2,0,P|295:195|331:157,1,105.000004005432,12|6,0:0|0:3,0:0:0:0:
512,200,121818,2,0,P|466:284|341:234,1,210,12|0,0:1|0:0,0:0:0:0:
337,151,122134,1,0,0:0:0:0:
397,90,122291,1,8,0:1:0:0:
512,11,122449,1,10,0:0:0:0:
512,11,122528,1,0,0:0:0:0:
512,11,122607,1,0,0:0:0:0:
479,10,122765,5,14,0:1:0:0:
492,32,122923,5,8,0:0:0:0:
414,72,123081,1,2,0:0:0:0:
346,137,123239,1,8,0:0:0:0:
271,257,123397,1,14,0:1:0:0:
271,257,123476,1,0,0:0:0:0:
271,257,123555,1,0,0:0:0:0:
227,384,123713,1,10,0:0:0:0:
227,384,123792,1,0,0:0:0:0:
227,384,123871,1,0,0:0:0:0:
0,318,124029,6,0,P|61:327|130:339,1,140,10|8,0:1|0:0,0:0:0:0:
308,366,124344,2,0,P|397:360|428:247,1,210.000008010865,12|0,0:1|0:0,0:0:0:0:
400,259,124739,1,0,0:0:0:0:
386,228,124818,1,8,0:1:0:0:
494,4,124976,1,8,0:0:0:0:
494,4,125055,1,0,0:0:0:0:
494,4,125134,1,0,0:0:0:0:
397,26,125292,1,12,0:1:0:0:
512,86,125450,1,8,0:0:0:0:
506,97,125608,5,0,0:0:0:0:
432,153,125766,1,8,0:0:0:0:
324,204,125924,1,12,0:1:0:0:
250,226,126003,1,0,0:0:0:0:
202,236,126082,1,0,0:0:0:0:
178,241,126161,1,0,0:0:0:0:
168,242,126240,2,0,P|94:251|4:258,1,140,8|8,0:0|0:1,0:0:0:0:
139,155,126555,6,0,P|69:149|0:140,1,140,8|8,0:0|0:1,0:0:0:0:
273,331,126871,2,0,P|465:252|427:143,1,367.500014019013,12|0,0:1|0:0,0:0:0:0:
441,142,127503,5,10,0:0:0:0:
430,125,127661,5,0,0:0:0:0:
405,99,127819,1,14,0:1:0:0:
359,68,127977,1,8,0:0:0:0:
279,23,128135,1,2,0:0:0:0:
178,2,128293,1,8,0:0:0:0:
0,0,128450,1,14,0:1:0:0:
0,0,128529,1,0,0:0:0:0:
0,0,128608,1,0,0:0:0:0:
46,74,128766,2,0,P|56:125|64:216,1,105.000004005432,10|0,0:0|0:0,0:0:0:0:
51,187,129003,5,0,0:0:0:0:
82,208,129082,1,8,0:1:0:0:
0,302,129240,1,8,0:0:0:0:
254,384,129398,1,12,0:1:0:0:
254,384,129477,1,0,0:0:0:0:
254,384,129556,1,0,0:0:0:0:
179,318,129714,1,0,0:0:0:0:
326,253,129872,1,8,0:1:0:0:
254,116,130030,2,0,P|251:61|251:-7,3,105.000004005432,8|0|12|8,0:0|0:0|0:1|0:0,0:0:0:0:
240,3,130661,5,8,0:3:0:0:
262,21,130819,5,8,0:0:0:0:
229,38,130977,5,12,0:1:0:0:
269,118,131135,1,4,0:3:0:0:
371,186,131293,2,0,P|462:201|541:209,1,157.500006008148,8|0,0:0|0:0,0:0:0:0:
453,164,131609,5,4,0:3:0:0:
383,372,131767,1,2,0:0:0:0:
383,372,131846,1,0,0:0:0:0:
383,372,131925,2,0,P|288:349|293:253,1,210,12|0,0:1|0:0,0:0:0:0:
479,335,132399,1,8,0:1:0:0:
501,315,132477,1,0,0:0:0:0:
505,301,132556,2,0,P|451:292|401:285,1,105.000004005432,10|0,0:0|0:0,0:0:0:0:
393,273,132872,5,14,0:1:0:0:
368,299,133030,5,8,0:0:0:0:
312,293,133188,5,2,0:0:0:0:
230,252,133346,1,8,0:0:0:0:
122,192,133504,1,14,0:1:0:0:
122,192,133583,1,0,0:0:0:0:
122,192,133662,1,0,0:0:0:0:
39,36,133820,1,10,0:0:0:0:
39,36,133899,1,0,0:0:0:0:
39,36,133978,1,0,0:0:0:0:
19,57,134136,5,8,0:1:0:0:
104,78,134294,1,10,0:0:0:0:
300,10,134451,1,12,0:1:0:0:
313,2,134530,1,0,0:0:0:0:
322,30,134609,1,0,0:0:0:0:
362,8,134688,1,0,0:0:0:0:
417,63,134767,1,0,0:0:0:0:
477,193,134925,1,8,0:1:0:0:
512,384,135083,1,8,0:0:0:0:
512,384,135162,1,0,0:0:0:0:
512,384,135241,1,0,0:0:0:0:
465,204,135399,1,12,0:1:0:0:
316,292,135557,2,0,P|341:356|401:321,1,157.500006008148,8|0,0:0|0:0,0:0:0:0:
367,301,135873,5,8,0:0:0:0:
367,301,135952,1,0,0:0:0:0:
367,301,136031,2,0,B|379:251|359:218|214:188,1,210,12|0,0:1|0:0,0:0:0:0:
221,207,136347,2,0,P|179:174|135:146,1,105.000004005432,8|0,0:0|0:0,0:0:0:0:
225,302,136662,1,8,0:1:0:0:
212,296,136820,1,8,0:0:0:0:
141,129,136978,2,0,P|168:21|234:111,1,280,12|0,0:1|0:0,0:0:0:0:
224,115,137373,1,0,0:0:0:0:
243,126,137452,1,8,0:1:0:0:
512,284,137610,1,10,0:0:0:0:
500,291,137768,5,0,0:0:0:0:
483,274,137926,5,14,0:1:0:0:
413,232,138084,1,8,0:0:0:0:
322,207,138242,1,2,0:0:0:0:
188,178,138400,1,8,0:0:0:0:
4,161,138557,2,0,P|6:216|21:314,1,140,14|0,0:1|0:0,0:0:0:0:
512,200,138873,2,0,P|510:145|494:36,1,157.500006008148,10|0,0:0|0:0,0:0:0:0:
485,37,139189,5,8,0:1:0:0:
403,131,139347,1,8,0:0:0:0:
253,2,139505,1,12,0:1:0:0:
253,2,139584,1,0,0:0:0:0:
253,2,139663,1,0,0:0:0:0:
248,113,139821,6,0,L|253:168,1,52.5000020027161,12|0,0:0|0:0,0:0:0:0:
139,174,139979,2,0,B|135:268|157:178|167:358,1,140,12|8,0:1|0:0,0:0:0:0:
262,164,140295,6,0,L|257:111,1,52.5000020027161,8|0,0:3|0:0,0:0:0:0:
372,152,140453,2,0,B|393:243|355:159|379:337,1,140,12|12,0:1|0:0,0:0:0:0:
279,332,140847,5,0,0:0:0:0:
281,344,140926,1,12,0:1:0:0:
450,245,141084,6,0,P|276:246|86:270,2,350,0|12|12,0:0|0:1|0:0,0:0:0:0:
505,184,141874,1,4,0:3:0:0:
437,139,142032,2,0,P|263:138|73:114,1,350,12|0,0:1|0:0,0:0:0:0:
74,120,142427,1,0,0:0:0:0:
25,159,142506,1,8,0:1:0:0:
0,365,142663,5,10,0:0:0:0:
0,365,142742,1,0,0:0:0:0:
0,365,142821,1,2,0:0:0:0:
19,360,142979,5,12,0:1:0:0:
71,343,143137,1,10,0:0:0:0:
155,363,143295,1,0,0:0:0:0:
293,332,143453,1,10,0:0:0:0:
470,364,143611,2,0,P|477:309|492:251,1,105.000004005432,12|0,0:1|0:0,0:0:0:0:
471,260,143927,2,0,P|460:219|376:219,1,125.999996154785,10|0,0:0|0:0,0:0:0:0:
222,277,144243,5,8,0:1:0:0:
296,344,144401,1,10,0:0:0:0:
383,307,144559,2,0,P|390:252|434:83,1,210.000008010865,12|0,0:1|0:0,0:0:0:0:
416,90,144953,5,0,0:0:0:0:
472,67,145032,1,10,0:1:0:0:
333,127,145190,2,0,P|288:68|310:31,1,105.000004005432,8|0,0:0|0:0,0:0:0:0:
308,237,145506,2,0,P|235:253|228:295,2,105.000004005432,8|10|0,0:1|0:0|0:0,0:0:0:0:
406,202,145980,5,10,0:0:0:0:
206,148,146138,2,0,P|107:128|-33:105,1,210,12|0,0:1|0:0,0:0:0:0:
5,121,146454,5,10,0:0:0:0:
131,108,146612,1,8,0:3:0:0:
197,160,146769,1,8,0:1:0:0:
231,154,146927,1,8,0:0:0:0:
236,160,147085,2,0,P|265:201|194:245,1,140,12|0,0:1|0:0,0:0:0:0:
39,313,147401,1,0,0:0:0:0:
124,353,147559,1,8,0:1:0:0:
124,353,147638,1,0,0:0:0:0:
124,353,147717,2,0,B|146:262|105:302|131:216,1,140,8|0,0:0|0:0,0:0:0:0:
372,26,148033,1,8,0:1:0:0:
372,26,148112,1,0,0:0:0:0:
372,26,148191,1,8,0:0:0:0:
342,32,148349,5,0,0:0:0:0:
505,140,148507,1,8,0:0:0:0:
398,279,148664,1,12,0:1:0:0:
398,279,148743,1,0,0:0:0:0:
398,279,148822,1,4,0:3:0:0:
248,164,148980,1,8,0:0:0:0:
375,148,149138,1,8,0:1:0:0:
164,114,149296,5,8,0:1:0:0:
145,114,149375,1,0,0:0:0:0:
152,78,149454,1,8,0:0:0:0:
75,79,149533,1,0,0:0:0:0:
9,19,149612,2,0,P|137:92|258:171,1,280,14|2,0:1|0:0,0:0:0:0:
360,135,150086,5,8,0:1:0:0:
139,210,150244,2,0,P|69:200|0:194,1,140,10|0,0:0|0:0,0:0:0:0:
1,213,150560,5,10,0:1:0:0:
24,188,150717,1,8,0:0:0:0:
55,226,150875,1,2,0:0:0:0:
257,161,151033,1,8,0:0:0:0:
337,295,151191,1,10,0:1:0:0:
343,303,151270,1,0,0:0:0:0:
328,314,151349,1,0,0:0:0:0:
313,336,151428,1,0,0:0:0:0:
237,321,151507,6,0,P|240:234|253:-24,2,322.000006141663,8|8|12,0:0|0:1|0:1,0:0:0:0:
222,344,152218,1,0,0:0:0:0:
164,377,152297,1,0,0:0:0:0:
1,280,152455,1,2,0:0:0:0:
14,273,152613,5,8,0:1:0:0:
1,248,152770,5,10,0:0:0:0:
41,177,152928,1,0,0:0:0:0:
0,79,153086,1,12,0:1:0:0:
86,27,153244,1,10,0:0:0:0:
271,10,153402,1,2,0:0:0:0:
262,19,153560,5,10,0:0:0:0:
502,0,153718,1,12,0:1:0:0:
489,9,154034,2,0,P|475:59|467:111,1,105.000004005432,8|0,0:0|0:0,0:0:0:0:
481,106,154350,1,8,0:1:0:0:
441,209,154508,1,8,0:0:0:0:
429,371,154666,1,14,0:1:0:0:
429,371,154744,1,0,0:0:0:0:
429,371,154823,1,8,0:0:0:0:
510,342,154981,5,0,0:0:0:0:
338,384,155139,1,8,0:1:0:0:
252,185,155297,1,10,0:0:0:0:
252,185,155376,1,0,0:0:0:0:
252,185,155455,1,0,0:0:0:0:
239,200,155613,5,8,0:1:0:0:
267,186,155771,5,10,0:0:0:0:
234,166,155929,5,2,0:0:0:0:
310,117,156087,1,8,0:0:0:0:
248,280,156245,1,14,0:1:0:0:
125,150,156403,1,8,0:0:0:0:
388,232,156561,1,10,0:0:0:0:
212,34,156719,1,4,0:3:0:0:
300,372,156876,1,8,0:1:0:0:
42,220,157034,1,0,0:0:0:0:
468,172,157192,1,14,0:1:0:0:
468,172,157271,1,0,0:0:0:0:
468,172,157350,1,0,0:0:0:0:
380,241,157508,5,2,0:0:0:0:
488,278,157666,1,8,0:0:0:0:
311,372,157824,1,2,0:0:0:0:
311,372,157903,1,0,0:0:0:0:
311,372,157982,1,8,0:1:0:0:
267,364,158140,5,8,0:0:0:0:
180,324,158298,1,0,0:0:0:0:
98,233,158456,1,2,0:0:0:0:
32,93,158614,1,8,0:0:0:0:
32,93,158693,1,0,0:0:0:0:
32,93,158772,2,0,P|19:57|6:8,2,70,10|8|10,0:1|0:1|0:0,0:0:0:0:
49,101,159245,5,0,0:0:0:0:
115,241,159403,1,8,0:0:0:0:
197,332,159561,1,8,0:1:0:0:
284,372,159719,1,14,0:1:0:0:
228,20,160035,1,2,0:0:0:0:
496,217,160351,1,10,0:0:0:0:
20,162,160667,1,10,0:1:0:0:
20,162,160746,1,0,0:0:0:0:
20,162,160824,1,8,0:0:0:0:
27,178,160982,5,2,0:0:0:0:
48,150,161140,1,8,0:0:0:0:
95,215,161298,1,10,0:1:0:0:
214,135,161456,1,0,0:0:0:0:
390,77,161614,1,10,0:0:0:0:
376,91,161772,5,8,0:3:0:0:
396,99,161930,1,6,0:3:0:0:
488,207,162088,1,8,0:3:0:0:
488,207,162167,1,0,0:0:0:0:
488,207,162246,2,0,P|500:255|515:325,1,105.000004005432,12|0,0:1|0:0,0:0:0:0:
259,367,162562,5,8,0:0:0:0:
247,354,162720,1,8,0:3:0:0:
280,339,162877,1,8,0:1:0:0:
426,329,163035,1,4,0:3:0:0:
423,320,163193,2,0,P|409:269|398:217,1,105.000004005432,8|0,0:0|0:0,0:0:0:0:
261,360,163509,5,8,0:0:0:0:
243,341,163667,1,8,0:0:0:0:
289,321,163825,1,4,0:3:0:0:
132,209,163983,1,8,0:3:0:0:
129,218,164141,2,0,P|118:269|105:320,1,105.000004005432,8|0,0:1|0:0,0:0:0:0:
48,200,164457,2,0,P|34:251|23:303,1,105.000004005432,8|0,0:0|0:0,0:0:0:0:
255,322,164773,5,12,0:1:0:0:
231,297,164930,1,0,0:0:0:0:
290,270,165088,1,8,0:3:0:0:
232,213,165246,1,8,0:0:0:0:
254,335,165404,5,10,0:1:0:0:
218,298,165562,1,4,0:3:0:0:
305,258,165720,1,8,0:0:0:0:
220,174,165878,1,8,0:3:0:0:
254,324,166036,5,10,0:1:0:0:
200,269,166194,1,4,0:3:0:0:
328,210,166352,1,8,0:0:0:0:
203,87,166510,1,8,0:3:0:0:
254,349,166668,5,10,0:1:0:0:
175,269,166826,1,4,0:3:0:0:
343,197,166983,1,8,0:0:0:0:
141,30,167141,1,8,0:3:0:0:
43,71,167299,2,0,P|23:187|8:325,1,251.999992309571,14|0,0:1|0:0,0:0:0:0:
2,330,167694,1,0,0:0:0:0:
20,343,167773,1,8,0:1:0:0:
37,233,167931,6,0,P|62:203|53:167,1,78.7500030040742,8|0,0:0|0:0,0:0:0:0:
150,161,168247,2,0,P|163:209|130:247,1,105,14|0,0:1|0:0,0:0:0:0:
219,276,168563,2,0,P|270:221|259:146,1,157.500006008148,2|0,0:0|0:0,0:0:0:0:
376,134,168879,2,0,P|385:236|314:308,1,210,14|0,0:1|0:0,0:0:0:0:
409,343,169194,2,0,P|499:239|465:107,1,262.5,10|0,0:0|0:0,0:0:0:0:
496,121,169510,2,0,P|457:70|376:37,1,140,10|12,0:1|0:1,0:0:0:0:
370,48,169905,1,0,0:0:0:0:
353,22,169984,1,0,0:0:0:0:
220,2,170142,1,0,0:0:0:0:
40,0,170300,1,8,0:1:0:0:
40,11,170458,2,0,P|26:78|10:174,1,161.000003070831,8|12,0:0|0:1,0:0:0:0:
0,179,170853,5,0,0:0:0:0:
26,203,170932,1,8,0:0:0:0:
0,292,171089,1,0,0:0:0:0:
50,371,171247,1,8,0:0:0:0:
274,353,171405,2,0,P|326:345|403:324,1,105.000004005432,14|0,0:1|0:0,0:0:0:0:
147,12,171721,2,0,P|199:20|250:33,1,105.000004005432,8|0,0:0|0:0,0:0:0:0:
246,46,172037,5,8,0:1:0:0:
283,31,172195,5,8,0:0:0:0:
503,0,172353,5,14,0:1:0:0:
503,0,172432,1,0,0:0:0:0:
503,0,172511,1,0,0:0:0:0:
432,60,172669,1,0,0:0:0:0:
508,120,172827,1,8,0:1:0:0:
501,133,172985,5,10,0:0:0:0:
471,160,173142,5,0,0:0:0:0:
429,183,173300,1,14,0:1:0:0:
360,215,173458,1,8,0:0:0:0:
270,244,173616,1,2,0:0:0:0:
159,268,173774,1,8,0:0:0:0:
0,291,173932,1,14,0:1:0:0:
0,291,174011,1,0,0:0:0:0:
0,291,174090,1,0,0:0:0:0:
73,83,174248,1,10,0:0:0:0:
73,83,174327,1,0,0:0:0:0:
73,83,174406,1,0,0:0:0:0:
265,17,174564,1,8,0:1:0:0:
435,78,174722,1,8,0:0:0:0:
512,288,174880,1,14,0:1:0:0:
512,288,174959,1,0,0:0:0:0:
512,288,175037,1,0,0:0:0:0:
480,302,175195,5,0,0:0:0:0:
419,235,175353,5,8,0:1:0:0:
259,370,175511,2,0,P|258:314|254:260,3,105.000004005432,8|0|12|8,0:0|0:0|0:1|0:0,0:0:0:0:
243,250,176143,5,8,0:3:0:0:
262,237,176301,5,8,0:0:0:0:
225,211,176459,5,12,0:1:0:0:
291,159,176617,1,4,0:3:0:0:
190,121,176775,1,8,0:0:0:0:
351,66,176933,1,8,0:1:0:0:
138,0,177090,1,6,0:3:0:0:
138,0,177169,1,0,0:0:0:0:
138,0,177248,1,0,0:0:0:0:
28,174,177406,2,0,P|34:223|82:235,1,105.000004005432,12|0,0:1|0:0,0:0:0:0:
99,239,177722,5,0,0:0:0:0:
184,137,177880,1,8,0:1:0:0:
331,360,178038,1,8,0:0:0:0:
316,357,178196,5,0,0:0:0:0:
339,350,178354,5,14,0:1:0:0:
405,310,178512,1,8,0:0:0:0:
467,245,178670,1,2,0:0:0:0:
498,144,178828,1,8,0:0:0:0:
512,0,178986,1,14,0:1:0:0:
512,0,179065,1,0,0:0:0:0:
512,0,179143,1,0,0:0:0:0:
366,34,179301,2,0,B|360:161|445:66|225:162,1,210,10|0,0:0|0:0,0:0:0:0:
253,130,179617,2,0,P|193:82|289:60,1,210,10|0,0:1|0:0,0:0:0:0:
243,238,179933,2,0,P|237:290|234:399,1,140,12|0,0:1|0:0,0:0:0:0:
220,365,180249,5,0,0:0:0:0:
334,296,180407,5,8,0:1:0:0:
155,189,180565,1,8,0:0:0:0:
155,189,180644,1,0,0:0:0:0:
155,189,180723,1,0,0:0:0:0:
76,119,180881,1,12,0:1:0:0:
22,0,181039,1,8,0:0:0:0:
15,17,181196,5,0,0:0:0:0:
40,27,181354,5,8,0:0:0:0:
140,185,181512,2,0,P|196:231|273:284,1,140,14|0,0:1|0:0,0:0:0:0:
486,358,181828,1,8,0:0:0:0:
486,358,181907,1,0,0:0:0:0:
486,358,181986,1,0,0:0:0:0:
332,347,182144,1,8,0:1:0:0:
139,330,182302,1,8,0:0:0:0:
139,330,182381,1,0,0:0:0:0:
138,330,182460,2,0,P|68:320|0:304,3,140,14|0|0|8,0:1|0:0|0:0|0:1,0:0:0:0:
0,289,183092,5,10,0:0:0:0:
17,312,183249,5,0,0:0:0:0:
45,325,183407,5,14,0:1:0:0:
123,344,183565,1,8,0:0:0:0:
226,358,183723,1,2,0:0:0:0:
353,370,183881,1,8,0:0:0:0:
512,381,184039,1,14,0:1:0:0:
512,381,184118,1,0,0:0:0:0:
512,381,184197,1,0,0:0:0:0:
492,336,184355,5,10,0:0:0:0:
492,336,184434,1,0,0:0:0:0:
492,336,184513,1,0,0:0:0:0:
393,284,184671,1,8,0:1:0:0:
510,187,184829,1,8,0:0:0:0:
299,112,184987,1,14,0:1:0:0:
299,112,185066,1,0,0:0:0:0:
299,112,185145,1,0,0:0:0:0:
389,73,185302,1,12,0:0:0:0:
474,18,185460,1,8,0:1:0:0:
479,26,185618,2,0,P|486:114|506:198,1,175,8|8,0:0|0:3,0:0:0:0:
512,212,185934,5,12,0:1:0:0:
490,192,186092,1,8,0:0:0:0:
444,264,186250,1,12,0:0:0:0:
355,176,186408,1,8,0:0:0:0:
215,90,186566,1,10,0:1:0:0:
215,90,186645,1,0,0:0:0:0:
215,90,186724,1,8,0:3:0:0:
13,10,186882,1,12,0:0:0:0:
13,10,186961,1,0,0:0:0:0:
13,10,187040,1,8,0:1:0:0:
23,22,187197,5,14,0:0:0:0:
203,104,187355,1,6,0:3:0:0:
342,190,187513,1,12,0:1:0:0:
433,271,187671,1,0,0:0:0:0:
483,347,187829,1,0,0:0:0:0:
491,358,187987,5,8,0:1:0:0:
358,320,188145,2,0,B|194:300|329:285|123:270,1,210,10|0,0:0|0:0,0:0:0:0:
146,290,188461,2,0,L|81:269,1,52.5000020027161,14|8,0:1|0:0,0:0:0:0:
90,193,188698,1,0,0:0:0:0:
90,193,188777,2,0,L|-3:133,1,87.5,2|8,0:0|0:0,0:0:0:0:
71,85,189014,1,0,0:0:0:0:
71,85,189093,2,0,L|2:-13,1,105.000004005432,14|0,0:1|0:0,0:0:0:0:
430,241,189408,2,0,L|339:398,1,140,10|0,0:0|0:0,0:0:0:0:
476,129,189724,6,0,L|215:160,1,262.5,10|0,0:1|0:0,0:0:0:0:
297,267,190040,2,0,L|41:208,1,262.5,14|0,0:1|0:0,0:0:0:0:
29,202,190356,5,0,0:0:0:0:
40,189,190514,5,8,0:1:0:0:
48,218,190672,5,8,0:0:0:0:
106,104,190830,1,0,0:0:0:0:
170,240,190988,1,12,0:1:0:0:
170,240,191067,1,0,0:0:0:0:
170,240,191146,1,8,0:0:0:0:
349,142,191303,1,0,0:0:0:0:
342,150,191461,5,8,0:0:0:0:
360,160,191619,2,0,P|394:192|442:247,1,105.000004005432,14|0,0:1|0:0,0:0:0:0:
295,348,191935,2,0,P|304:296|318:245,1,105.000004005432,8|0,0:0|0:0,0:0:0:0:
311,230,192251,5,8,0:1:0:0:
362,125,192409,1,8,0:0:0:0:
474,0,192567,1,14,0:1:0:0:
474,0,192646,1,0,0:0:0:0:
474,0,192725,1,0,0:0:0:0:
443,14,192883,5,0,0:0:0:0:
475,25,193041,5,8,0:1:0:0:
504,3,193199,5,10,0:0:0:0:
423,64,193356,1,0,0:0:0:0:
354,138,193514,1,14,0:1:0:0:
298,244,193672,1,8,0:0:0:0:
249,374,193830,1,2,0:0:0:0:
249,374,193909,1,0,0:0:0:0:
249,374,193988,1,8,0:0:0:0:
161,186,194146,6,0,P|186:232|209:278,1,105.000004005432,14|0,0:1|0:0,0:0:0:0:
0,286,194462,2,0,P|75:308|135:333,1,140,10|0,0:0|0:0,0:0:0:0:
133,344,194778,5,8,0:1:0:0:
220,277,194936,1,8,0:0:0:0:
381,253,195094,2,0,B|466:189|517:287|475:380|229:389|401:212,1,350,14|0,0:1|0:0,0:0:0:0:
409,136,195567,1,8,0:1:0:0:
494,10,195725,1,8,0:0:0:0:
494,10,195804,1,0,0:0:0:0:
494,10,195883,1,0,0:0:0:0:
472,9,196041,5,12,0:1:0:0:
499,25,196199,5,8,0:0:0:0:
473,30,196357,5,8,0:3:0:0:
452,58,196515,1,8,0:0:0:0:
408,125,196673,1,12,0:1:0:0:
361,220,196831,1,4,0:3:0:0:
310,354,196989,2,0,P|283:287|270:253,1,105.000004005432,12|8,0:3|0:1,0:0:0:0:
410,294,197305,2,0,P|366:323|321:348,1,105,12|0,0:3|0:0,0:0:0:0:
210,335,197620,2,0,P|110:338|29:176,1,280,14|0,0:1|0:0,0:0:0:0:
17,186,198015,5,0,0:0:0:0:
31,176,198094,1,8,0:1:0:0:
10,146,198252,2,0,P|22:77|45:6,1,140,8|0,0:0|0:0,0:0:0:0:
28,9,198568,5,14,0:1:0:0:
53,3,198726,5,8,0:0:0:0:
70,84,198884,5,2,0:0:0:0:
0,154,199042,1,8,0:0:0:0:
106,247,199200,1,14,0:1:0:0:
106,247,199279,1,0,0:0:0:0:
106,247,199358,1,0,0:0:0:0:
0,380,199515,1,10,0:0:0:0:
0,380,199594,1,0,0:0:0:0:
0,380,199673,1,0,0:0:0:0:
88,371,199831,1,10,0:1:0:0:
214,361,199989,1,8,0:0:0:0:
376,340,200147,2,0,P|437:329|520:308,2,140,14|0|0,0:1|0:0|0:0,0:0:0:0:
218,356,200621,1,8,0:1:0:0:
96,367,200779,1,8,0:0:0:0:
4,373,200937,1,0,0:0:0:0:
14,364,201095,5,12,0:1:0:0:
3,353,201253,5,8,0:0:0:0:
23,333,201410,1,0,0:0:0:0:
2,259,201568,1,8,0:0:0:0:
82,194,201726,2,0,P|150:182|241:173,1,140,14|0,0:1|0:0,0:0:0:0:
277,248,201963,1,0,0:0:0:0:
277,248,202042,2,0,B|399:184|328:254|285:69,1,210,8|0,0:0|0:0,0:0:0:0:
240,0,202358,5,8,0:1:0:0:
300,97,202516,1,8,0:0:0:0:
224,164,202674,1,14,0:1:0:0:
283,240,202832,1,0,0:0:0:0:
224,295,202990,1,0,0:0:0:0:
250,316,203148,1,8,0:1:0:0:
236,335,203306,5,10,0:0:0:0:
255,349,203463,5,0,0:0:0:0:
247,360,203621,5,14,0:1:0:0:
250,336,203779,1,8,0:0:0:0:
206,313,203937,1,2,0:0:0:0:
324,259,204095,1,8,0:0:0:0:
165,184,204253,1,14,0:1:0:0:
364,115,204411,1,0,0:0:0:0:
137,4,204569,1,10,0:0:0:0:
137,4,204648,1,0,0:0:0:0:
137,4,204727,1,0,0:0:0:0:
122,17,204885,5,8,0:1:0:0:
158,32,205043,1,8,0:0:0:0:
37,138,205201,2,0,P|27:190|22:242,1,105.000004005432,12|0,0:1|0:0,0:0:0:0:
246,193,205516,1,12,0:0:0:0:
258,187,205674,5,8,0:1:0:0:
224,155,205832,5,8,0:3:0:0:
280,221,205990,1,8,0:3:0:0:
488,142,206148,2,0,P|483:194|475:246,1,105.000004005432,12|8,0:1|0:0,0:0:0:0:
240,353,206464,5,12,0:0:0:0:
258,187,206622,5,8,0:0:0:0:
37,246,206780,2,0,P|27:194|22:142,1,105.000004005432,8|8,0:1|0:3,0:0:0:0:
488,242,207096,2,0,P|483:190|475:138,1,105.000004005432,12|0,0:3|0:0,0:0:0:0:
505,383,207412,5,8,0:1:0:0:
501,367,207490,1,0,0:0:0:0:
453,338,207569,1,8,0:3:0:0:
411,299,207648,1,0,0:0:0:0:
385,223,207727,2,0,P|377:171|355:-2,1,210,12|0,0:3|0:0,0:0:0:0:
343,6,208043,5,8,0:1:0:0:
180,64,208201,1,8,0:3:0:0:
163,162,208359,2,0,P|155:213|133:387,1,210,12|0,0:1|0:0,0:0:0:0:
129,362,208675,5,12,0:3:0:0:
195,302,208833,1,0,0:0:0:0:
92,98,208991,1,12,0:1:0:0:
92,98,209070,1,0,0:0:0:0:
92,98,209149,1,8,0:0:0:0:
394,150,209307,6,0,P|441:159|510:168,1,105.000004005432,10|4,0:1|0:3,0:0:0:0:
295,262,209622,2,0,P|346:251|396:237,1,105.000004005432,12|0,0:3|0:0,0:0:0:0:
405,246,209938,1,8,0:1:0:0:
396,263,210017,1,0,0:0:0:0:
431,278,210096,1,4,0:3:0:0:
0,171,210254,70,0,B|54:216|135:115|202:206|202:206|273:168|152:279|358:311|273:168|346:180|346:180|437:227|422:322|422:322|437:227|536:210|536:210|447:163|462:69|462:69|447:163|346:180|346:180|273:168|398:59|192:26|273:168|217:111|217:111|125:178|79:58|10:87,1,1548.40003780274,12|0,0:1|0:0,0:0:0:0:
