osu file format v14

[General]
AudioFilename: 04._Summerhead.ogg
AudioLeadIn: 0
PreviewTime: 86897
Countdown: 0
SampleSet: Soft
StackLeniency: 0.7
Mode: 0
LetterboxInBreaks: 0
WidescreenStoryboard: 1

[Editor]
DistanceSpacing: 3.9
BeatDivisor: 4
GridSize: 32
TimelineZoom: 2.7

[Metadata]
Title:Summerhead
TitleUnicode:Summerhead
Artist:Cocteau Twins
ArtistUnicode:Cocteau Twins
Creator:app
Version:Venix's expert
Source:
Tags:posydomojka Elizabeth Fraser dtm katayama mapping cancer sentrimaro koue venix aishiteiru- giyokon aeong dreampop dream pop ethereal rock english four-calendar café four calendar cafe
BeatmapID:4349039
BeatmapSetID:2066422

[Difficulty]
HPDrainRate:6
CircleSize:4
OverallDifficulty:8.4
ApproachRate:9
SliderMultiplier:1.8
SliderTickRate:1

[Events]
//Background and Video events
0,0,"350449.jpg",0,0
//Break Periods
//Storyboard Layer 0 (Background)
//Storyboard Layer 1 (Fail)
//Storyboard Layer 2 (Pass)
//Storyboard Layer 3 (Foreground)
//Storyboard Layer 4 (Overlay)
//Storyboard Sound Samples

[TimingPoints]
215,319.148936170213,4,2,1,40,1,0
534,315.844330857465,4,2,2,50,1,0
612,-100,4,2,1,50,0,0
12220,-125,4,2,1,50,0,0
12536,-100,4,2,1,50,0,0
20748,-117.647058823529,4,2,2,50,0,0
20826,-117.647058823529,4,2,1,50,0,0
21695,-133.333333333333,4,2,1,50,0,0
23274,-125,4,2,1,50,0,0
24222,-133.333333333333,4,2,1,50,0,0
30223,-125,4,2,1,50,0,0
30855,-133.333333333333,4,2,2,50,0,0
30934,-133.333333333333,4,2,1,50,0,0
35908,-125,4,2,1,50,0,0
36856,-133.333333333333,4,2,1,50,0,0
40962,-90.9090909090909,4,2,2,60,0,0
41041,-90.9090909090909,4,2,1,60,0,0
42225,-100,4,2,1,60,0,0
43488,-90.9090909090909,4,2,2,60,0,0
43567,-90.9090909090909,4,2,1,60,0,0
46015,-83.3333333333333,4,2,2,60,0,0
46094,-83.3333333333333,4,2,1,60,0,0
47121,-90.9090909090909,4,2,1,60,0,0
47910,-100,4,2,1,60,0,0
48226,-83.3333333333333,4,2,1,60,0,0
48542,-83.3333333333333,4,2,2,60,0,0
48621,-83.3333333333333,4,2,1,60,0,0
49016,-90.9090909090909,4,2,1,60,0,0
49963,-100,4,2,1,60,0,0
50437,-83.3333333333333,4,2,1,60,0,0
51069,-83.3333333333333,4,2,2,60,0,0
51148,-83.3333333333333,4,2,1,60,0,0
52332,-100,4,2,1,60,0,0
52648,-83.3333333333333,4,2,1,60,0,0
53595,-83.3333333333333,4,2,2,60,0,0
53674,-83.3333333333333,4,2,1,60,0,0
53990,-90.9090909090909,4,2,1,60,0,0
55175,-100,4,2,1,60,0,0
55806,-90.9090909090909,4,2,1,60,0,0
56122,-90.9090909090909,4,2,2,60,0,0
56201,-90.9090909090909,4,2,1,60,0,0
57070,-100,4,2,1,60,0,0
57701,-90.9090909090909,4,2,1,60,0,0
58017,-83.3333333333333,4,2,1,60,0,0
58333,-100,4,2,1,60,0,0
58570,-90.9090909090909,4,2,1,60,0,0
58649,-90.9090909090909,4,2,2,60,0,0
58728,-90.9090909090909,4,2,1,60,0,0
59596,-83.3333333333333,4,2,1,60,0,0
60386,-80,4,2,1,60,0,0
61176,-100,4,2,2,50,0,0
61255,-100,4,2,1,50,0,0
62755,-111.111111111111,4,2,1,50,0,0
63071,-100,4,2,1,50,0,0
70335,-125,4,2,1,50,0,0
70651,-83.3333333333333,4,2,2,50,0,0
70730,-83.3333333333333,4,2,1,50,0,0
71283,-100,4,2,1,50,0,0
72862,-125,4,2,1,50,0,0
73178,-100,4,2,1,50,0,0
80758,-90.9090909090909,4,2,2,50,0,0
80837,-90.9090909090909,4,2,1,50,0,0
81074,-90.9090909090909,4,2,2,50,0,0
81153,-90.9090909090909,4,2,1,50,0,0
81390,-125,4,2,2,50,0,0
81469,-125,4,2,1,50,0,0
84548,-125,4,2,1,50,0,0
86443,-117.647058823529,4,2,1,50,0,0
88338,-125,4,2,1,50,0,0
91497,-117.647058823529,4,2,2,50,0,0
91576,-117.647058823529,4,2,1,50,0,0
92128,-125,4,2,1,50,0,0
96550,-125,4,2,1,50,0,0
99077,-111.111111111111,4,2,1,50,0,0
100340,-100,4,2,1,50,0,0
101604,-80,4,2,2,60,0,0
101683,-80,4,2,1,60,0,0
102235,-86.9565217391304,4,2,1,60,0,0
102867,-95.2380952380952,4,2,1,60,0,0
104130,-86.9565217391304,4,2,2,60,0,0
104209,-86.9565217391304,4,2,1,60,0,0
104762,-100,4,2,1,60,0,0
105710,-95.2380952380952,4,2,1,60,0,0
106657,-95.2380952380952,4,2,2,60,0,0
106736,-95.2380952380952,4,2,1,60,0,0
107289,-86.9565217391304,4,2,1,60,0,0
108868,-80,4,2,1,60,0,0
109184,-86.9565217391304,4,2,2,60,0,0
109263,-86.9565217391304,4,2,1,60,0,0
109816,-95.2380952380952,4,2,1,60,0,0
110289,-105.263157894737,4,2,1,60,0,0
110605,-105.263157894737,4,2,1,60,0,0
111079,-95.2380952380954,4,2,1,60,0,0
111395,-80,4,2,1,60,0,0
111711,-80,4,2,2,60,0,0
111790,-80,4,2,1,60,0,0
112974,-90.9090909090909,4,2,1,60,0,0
113606,-85.4700854700855,4,2,1,60,0,0
113922,-80,4,2,1,60,0,0
114237,-83.3333333333333,4,2,2,60,0,0
114316,-83.3333333333333,4,2,1,60,0,0
114632,-80,4,2,1,60,0,0
115343,-86.9565217391304,4,2,1,60,0,0
115817,-95.2380952380952,4,2,1,60,0,0
116448,-86.9565217391304,4,2,1,60,0,0
116764,-86.9565217391304,4,2,2,60,0,0
116843,-86.9565217391304,4,2,1,60,0,0
118028,-95.2380952380952,4,2,1,60,0,0
118343,-80,4,2,1,60,0,0
118659,-86.9565217391304,4,2,1,60,0,0
119291,-86.9565217391304,4,2,2,60,0,0
119370,-86.9565217391304,4,2,1,60,0,0
119923,-80,4,2,1,60,0,0
121818,-80,4,2,2,60,0,0
121897,-80,4,2,1,60,0,0
123081,-95.2380952380952,4,2,1,60,0,0
124344,-80,4,2,2,60,0,0
124423,-80,4,2,1,60,0,0
125450,-95.2380952380952,4,2,1,60,0,0
126871,-95.2380952380952,4,2,2,60,0,0
126950,-95.2380952380952,4,2,1,60,0,0
127503,-80,4,2,1,60,0,0
128135,-95.2380952380952,4,2,1,60,0,0
129082,-80,4,2,1,60,0,0
129398,-80,4,2,2,60,0,0
129477,-80,4,2,1,60,0,0
130030,-86.9565217391304,4,2,1,60,0,0
130819,-95.2380952380952,4,2,1,60,0,0
131609,-95.2380952380952,4,2,1,60,0,0
131925,-80,4,2,2,60,0,0
132004,-80,4,2,1,60,0,0
132556,-80,4,2,1,60,0,0
133504,-86.9565217391304,4,2,1,60,0,0
134451,-80,4,2,2,60,0,0
134530,-80,4,2,1,60,0,0
135557,-86.9565217391304,4,2,1,60,0,0
136662,-80,4,2,1,60,0,0
136978,-80,4,2,2,60,0,0
137057,-80,4,2,1,60,0,0
138557,-86.9565217391304,4,2,1,60,0,0
138873,-80,4,2,1,60,0,0
139505,-80,4,2,2,60,0,0
139584,-80,4,2,1,60,0,0
139979,-80,4,2,2,60,0,0
140058,-80,4,2,1,60,0,0
140453,-80,4,2,2,60,0,0
140531,-80,4,2,1,60,0,0
140926,-95.2380952380952,4,2,2,60,0,0
141005,-95.2380952380952,4,2,1,60,0,0
141400,-86.9565217391304,4,2,2,60,0,0
141479,-86.9565217391304,4,2,1,60,0,0
142032,-90.9090909090909,4,2,2,50,0,1
142111,-90.9090909090909,4,2,1,50,0,1
142663,-83.3333333333333,4,2,1,50,0,1
143295,-76.9230769230769,4,2,1,50,0,1
143611,-66.6666666666667,4,2,1,50,0,1
143927,-100,4,2,1,50,0,1
144243,-83.3333333333333,4,2,1,50,0,1
144559,-76.9230769230769,4,2,2,50,0,1
144637,-76.9230769230769,4,2,1,50,0,1
145190,-76.9230769230769,4,2,1,50,0,0
145664,-90.9090909090909,4,2,1,50,0,0
146138,-86.9565217391304,4,2,1,50,0,0
147085,-100,4,2,2,50,0,0
147164,-100,4,2,1,50,0,0
149612,-86.9565217391304,4,2,2,50,0,0
149691,-86.9565217391304,4,2,1,50,0,0
150244,-95.2380952380952,4,2,1,50,0,0
151507,-86.9565217391304,4,2,1,50,0,0
152139,-100,4,2,2,50,0,0
152218,-100,4,2,1,50,0,0
154666,-100,4,2,2,50,0,0
154744,-100,4,2,1,50,0,0
157192,-100,4,2,2,50,0,0
157271,-100,4,2,1,50,0,0
159719,-100,4,2,2,50,0,0
159798,-100,4,2,1,50,0,0
162246,-100,4,2,2,50,0,0
162325,-100,4,2,1,50,0,0
164773,-83.3333333333333,4,2,2,50,0,0
164852,-83.3333333333333,4,2,1,50,0,0
165088,-100,4,2,1,50,0,1
166668,-100,4,2,1,55,0,1
167220,-100,4,2,1,55,0,0
167299,-71.4285714285714,4,2,2,60,0,1
167378,-71.4285714285714,4,2,1,60,0,1
168563,-83.3333333333333,4,2,1,60,0,1
168800,-80,4,2,1,60,0,1
168879,-76.9230769230769,4,2,1,60,0,1
169194,-74.0740740740741,4,2,1,60,0,1
169826,-90.9090909090909,4,2,2,60,0,1
169905,-90.9090909090909,4,2,1,60,0,1
170458,-100,4,2,1,60,0,1
170932,-76.9230769230769,4,2,1,60,0,1
171405,-90.9090909090909,4,2,1,60,0,1
171721,-76.9230769230769,4,2,1,60,0,1
172353,-76.9230769230769,4,2,2,60,0,1
172432,-76.9230769230769,4,2,1,60,0,1
173616,-90.9090909090909,4,2,1,60,0,1
173932,-90.9090909090909,4,2,1,60,0,1
174564,-90.9090909090909,4,2,1,60,0,1
174880,-76.9230769230769,4,2,2,60,0,1
174959,-76.9230769230769,4,2,1,60,0,1
175511,-83.3333333333333,4,2,1,60,0,1
176775,-76.9230769230769,4,2,1,60,0,1
177406,-71.4285714285714,4,2,2,60,0,1
177485,-71.4285714285714,4,2,1,60,0,1
178986,-90.9090909090909,4,2,1,60,0,1
179301,-76.9230769230769,4,2,1,60,0,1
179933,-71.4285714285714,4,2,2,60,0,1
180012,-71.4285714285714,4,2,1,60,0,1
181039,-90.9090909090909,4,2,1,60,0,1
181828,-83.3333333333333,4,2,1,60,0,1
182144,-76.9230769230769,4,2,1,60,0,1
182460,-71.4285714285714,4,2,2,60,0,1
182539,-71.4285714285714,4,2,1,60,0,1
184039,-83.3333333333333,4,2,1,60,0,1
184987,-76.9230769230769,4,2,2,60,0,1
185066,-76.9230769230769,4,2,1,60,0,1
185618,-71.4285714285714,4,2,1,60,0,1
185934,-83.3333333333333,4,2,1,60,0,1
187434,-76.9230769230769,4,2,1,60,0,0
187513,-66.6666666666667,4,2,2,60,0,1
187592,-66.6666666666667,4,2,1,60,0,1
188777,-76.9230769230769,4,2,1,60,0,1
189408,-74.0740740740741,4,2,1,60,0,1
189724,-71.4285714285714,4,2,1,60,0,1
190040,-83.3333333333333,4,2,2,60,0,1
190119,-83.3333333333333,4,2,1,60,0,1
191146,-76.9230769230769,4,2,1,60,0,1
191619,-90.9090909090909,4,2,1,60,0,1
191935,-83.3333333333333,4,2,1,60,0,1
192251,-76.9230769230769,4,2,1,60,0,1
192567,-76.9230769230769,4,2,2,60,0,1
192646,-76.9230769230769,4,2,1,60,0,1
193199,-83.3333333333333,4,2,1,60,0,1
194146,-83.3333333333333,4,2,1,60,0,1
195094,-76.9230769230769,4,2,2,60,0,1
195173,-90.9090909090909,4,2,1,60,0,1
195725,-83.3333333333333,4,2,1,60,0,1
196989,-83.3333333333333,4,2,2,60,0,1
197068,-83.3333333333333,4,2,1,60,0,1
197305,-71.4285714285714,4,2,1,60,0,1
197620,-71.4285714285714,4,2,2,60,0,1
197699,-66.6666666666667,4,2,1,60,0,1
199200,-76.9230769230769,4,2,1,60,0,1
199515,-71.4285714285714,4,2,1,60,0,1
200147,-76.9230769230769,4,2,2,60,0,1
200226,-76.9230769230769,4,2,1,60,0,1
201253,-90.9090909090909,4,2,1,60,0,1
201726,-83.3333333333333,4,2,1,60,0,1
202042,-80,4,2,1,60,0,1
202674,-74.0740740740741,4,2,2,60,0,1
202753,-74.0740740740741,4,2,1,60,0,1
203937,-86.9565217391304,4,2,1,60,0,1
204569,-80,4,2,1,60,0,1
205201,-83.3333333333333,4,2,2,60,0,1
205280,-83.3333333333333,4,2,1,60,0,1
206148,-76.9230769230769,4,2,2,60,0,1
206227,-76.9230769230769,4,2,1,60,0,1
206780,-90.9090909090909,4,2,1,60,0,1
207096,-90.9090909090909,4,2,2,60,0,1
207175,-90.9090909090909,4,2,1,60,0,1
207727,-83.3333333333333,4,2,2,60,0,1
207806,-83.3333333333333,4,2,1,60,0,1
208359,-86.9565217391304,4,2,1,60,0,1
208675,-86.9565217391304,4,2,2,60,0,1
208754,-86.9565217391304,4,2,1,60,0,1
209622,-80,4,2,2,60,0,1
209701,-80,4,2,1,60,0,1
210254,-76.9230769230769,4,2,2,60,0,0
210333,-76.9230769230769,4,2,1,60,0,0
210886,-133.333333333333,4,2,1,50,0,0
211518,-133.333333333333,4,2,1,40,0,0
212149,-133.333333333333,4,2,1,30,0,0
212781,-133.333333333333,4,2,1,20,0,0
213413,-133.333333333333,4,2,1,10,0,0
214044,-133.333333333333,4,2,1,5,0,0

[Colours]
Combo1 : 203,151,255
Combo2 : 0,255,255
Combo3 : 0,255,128

[HitObjects]
0,88,534,6,0,B|47:18|47:18|139:78,1,180,12|0,0:1|0:0,0:0:0:0:
367,45,1007,1,8,0:1:0:0:
241,64,1165,2,0,L|352:87,1,90.0156342943774,8|0,0:0|0:0,0:0:0:0:
379,141,1481,5,12,0:1:0:0:
180,131,1639,2,0,B|284:120|210:79|377:59,1,180.031268588755,8|8,0:0|0:0,0:0:0:0:
411,26,2034,1,0,0:0:0:0:
450,21,2113,2,0,P|496:36|462:75,1,90.0156342943774,12|0,0:1|0:0,0:0:0:0:
366,233,2429,2,0,P|365:278|278:268,1,135.023451441566,8|0,0:0|0:0,0:0:0:0:
213,272,2744,2,0,P|195:238|203:213,1,45.0078171471887,8|0,0:1|0:0,0:0:0:0:
295,126,2902,2,0,L|288:187,1,45.0078171471887,8|0,0:0|0:0,0:0:0:0:
236,350,3060,6,0,B|282:191|154:253|203:61,1,270.046902883132,12|8,0:1|0:1,0:0:0:0:
457,29,3692,2,0,B|496:46|496:46|375:75,1,135.023451441566,8|0,0:0|0:0,0:0:0:0:
357,32,4008,5,8,0:1:0:0:
327,302,4166,2,0,B|401:235|333:217|412:145,1,180.031268588755,8|8,0:0|0:0,0:0:0:0:
174,47,4639,2,0,P|182:77|243:90,1,90.0156342943774,12|0,0:1|0:0,0:0:0:0:
277,28,4876,1,0,0:0:0:0:
235,5,4955,2,0,L|78:18,1,135.023451441566,8|0,0:0|0:0,0:0:0:0:
12,6,5271,5,10,0:1:0:0:
318,52,5429,1,10,0:0:0:0:
12,6,5587,6,0,P|61:7|52:113,1,180,12|0,0:1|0:0,0:0:0:0:
33,340,6061,1,8,0:1:0:0:
58,110,6219,6,0,P|23:133|43:170,1,90.0156342943774,8|0,0:0|0:0,0:0:0:0:
193,223,6535,2,0,P|150:259|142:254,1,45.0078171471887,8|0,0:1|0:0,0:0:0:0:
28,258,6692,6,0,B|137:230|114:273|213:244,1,180.031268588755,8|8,0:0|0:0,0:0:0:0:
485,187,7166,2,0,L|337:195,1,135.023451441566,12|0,0:1|0:0,0:0:0:0:
282,158,7482,2,0,P|259:107|281:89,1,90.0156342943774,8|0,0:0|0:0,0:0:0:0:
440,309,7798,2,0,P|404:351|384:341,1,45.0078171471887,10|0,0:1|0:0,0:0:0:0:
349,333,7956,1,10,0:0:0:0:
470,9,8114,6,0,B|422:87|422:87|480:124|480:124|462:236,1,270.046902883132,12|8,0:1|0:1,0:0:0:0:
172,294,8745,2,0,P|122:303|194:351,1,180.031268588755,8|8,0:0|0:1,0:0:0:0:
172,294,9219,2,0,L|160:199,1,90.0156342943774,8|0,0:0|0:0,0:0:0:0:
129,14,9535,2,0,P|74:41|86:77,1,90.0156342943774,8|8,0:0|0:3,0:0:0:0:
185,166,9851,5,4,0:3:0:0:
370,204,10009,1,8,0:0:0:0:
476,222,10167,1,0,0:0:0:0:
330,173,10325,1,10,0:3:0:0:
164,120,10483,1,6,0:3:0:0:
476,222,10641,2,0,B|378:238|378:238|355:322,1,180.031268588755,12|0,0:1|0:0,0:0:0:0:
158,354,11114,1,8,0:1:0:0:
80,343,11272,2,0,P|48:305|58:254,1,90.0156342943774,8|0,0:0|0:0,0:0:0:0:
130,106,11509,1,0,0:0:0:0:
130,106,11588,5,12,0:1:0:0:
70,357,11746,2,0,B|55:258|136:296|121:177,1,180.031268588755,8|8,0:0|0:0,0:0:0:0:
27,24,12220,2,0,L|40:153,1,108.018761153253,12|0,0:1|0:0,0:0:0:0:
96,83,12536,2,0,L|76:182,1,90.0156342943774,8|0,0:0|0:0,0:0:0:0:
0,0,12851,1,8,0:1:0:0:
16,262,13009,1,8,0:0:0:0:
96,83,13167,6,0,P|59:105|50:99,1,45.0078171471887,12|0,0:1|0:0,0:0:0:0:
9,222,13325,2,0,B|161:165|100:371|272:309,1,270.046902883132,8|8,0:0|0:0,0:0:0:0:
488,168,14115,5,8,0:1:0:0:
424,182,14273,5,8,0:0:0:0:
301,204,14431,5,0,0:0:0:0:
131,232,14589,5,8,0:0:0:0:
301,204,14746,2,0,L|417:227,1,90.0156342943774,12|0,0:1|0:0,0:0:0:0:
173,26,15062,2,0,P|86:35|150:82,1,180.031268588755,8|10,0:0|0:1,0:0:0:0:
319,237,15536,2,0,L|310:174,1,45.0078171471887,2|0,0:0|0:0,0:0:0:0:
300,101,15694,2,0,B|273:205|320:184|293:295,1,180.031268588755,12|0,0:1|0:0,0:0:0:0:
388,78,16168,1,8,0:1:0:0:
388,78,16326,2,0,L|376:-7,1,45.0078171471887,8|0,0:0|0:0,0:0:0:0:
441,291,16642,2,0,L|428:341,1,45.0078171471887,8|0,0:1|0:0,0:0:0:0:
503,90,16799,2,0,B|496:0|496:0|477:86,1,180.031268588755,8|8,0:0|0:0,0:0:0:0:
116,313,17273,6,0,P|159:310|131:277,1,90.0156342943774,12|0,0:1|0:0,0:0:0:0:
369,198,17589,2,0,L|224:214,1,135.023451441566,8|0,0:0|0:0,0:0:0:0:
162,155,17905,2,0,L|168:107,1,45.0078171471887,10|0,0:1|0:0,0:0:0:0:
386,238,18063,5,10,0:0:0:0:
386,238,18142,1,0,0:0:0:0:
386,238,18221,2,0,B|223:242|309:168|109:181,1,270.046902883132,12|8,0:1|0:1,0:0:0:0:
471,315,18852,2,0,B|364:321|396:372|292:375,1,180.031268588755,8|8,0:0|0:1,0:0:0:0:
371,59,19326,2,0,P|411:86|401:109,1,45.0078171471887,8|0,0:0|0:0,0:0:0:0:
384,153,19484,5,8,0:3:0:0:
280,191,19642,1,4,0:3:0:0:
138,174,19800,1,8,0:1:0:0:
10,83,19958,1,8,0:3:0:0:
166,133,20116,5,8,0:0:0:0:
14,195,20274,1,8,0:1:0:0:
184,278,20432,1,6,0:3:0:0:
57,354,20590,1,6,0:3:0:0:
57,354,20669,1,0,0:0:0:0:
57,354,20748,6,0,P|52:270|155:354,1,306.053156600884,12|8,0:1|0:0,0:0:0:0:
484,237,21695,1,8,0:1:0:0:
409,210,21853,2,0,L|397:133,1,67.5117257207832,8|0,0:0|0:0,0:0:0:0:
360,273,22169,2,0,L|349:339,1,67.5117257207832,8|12,0:0|0:1,0:0:0:0:
484,237,22485,2,0,L|496:160,1,67.5117257207832,0|8,0:0|0:0,0:0:0:0:
0,192,22958,2,0,P|5:223|52:189,1,101.267588581175,8|0,0:1|0:0,0:0:0:0:
135,142,23274,6,0,P|144:91|203:187,1,288.050029742008,12|8,0:1|0:0,0:0:0:0:
506,117,24222,2,0,L|424:111,1,67.5117257207832,8|8,0:1|0:0,0:0:0:0:
402,203,24538,2,0,L|484:197,1,67.5117257207832,0|8,0:0|0:0,0:0:0:0:
495,321,24854,2,0,L|413:315,1,67.5117257207832,12|0,0:1|0:0,0:0:0:0:
207,377,25169,2,0,L|352:366,1,135.023451441566,8|10,0:0|0:1,0:0:0:0:
35,329,25643,2,0,P|22:315|-12:320,1,33.7558628603916,10|0,0:0|0:0,0:0:0:0:
28,265,25801,6,0,P|66:252|16:198,1,135.023451441566,12|0,0:1|0:0,0:0:0:0:
178,103,26275,5,8,0:1:0:0:
27,193,26433,2,0,P|57:219|79:149,1,135.023451441566,8|8,0:0|0:1,0:0:0:0:
22,3,26907,2,0,L|11:70,1,67.5117257207832,8|0,0:0|0:0,0:0:0:0:
227,114,27222,1,8,0:0:0:0:
177,177,27380,2,0,L|187:244,1,67.5117257207832,12|0,0:1|0:0,0:0:0:0:
455,146,27696,2,0,L|429:300,1,135.023451441566,8|10,0:0|0:1,0:0:0:0:
352,137,28170,1,8,0:0:0:0:
352,137,28249,1,0,0:0:0:0:
352,137,28328,5,12,0:1:0:0:
405,78,28486,2,0,B|421:48|421:48|390:22,1,67.5117257207832
442,177,28802,2,0,L|523:169,1,67.5117257207832,8|8,0:1|0:0,0:0:0:0:
343,215,29117,2,0,L|262:207,1,67.5117257207832,0|8,0:0|0:1,0:0:0:0:
390,320,29433,2,0,B|444:280|444:280|475:364,1,135.023451441566,8|8,0:0|0:0,0:0:0:0:
149,333,29907,1,12,0:1:0:0:
285,311,30065,5,0,0:0:0:0:
285,311,30144,1,0,0:0:0:0:
285,311,30223,2,0,L|165:295,1,108.018761153253,8|0,0:0|0:0,0:0:0:0:
67,360,30539,2,0,L|59:299,1,36.006253717751,10|0,0:0|0:0,0:0:0:0:
9,104,30697,1,10,0:0:0:0:
9,104,30776,1,0,0:0:0:0:
9,104,30855,2,0,P|51:25|70:138,1,270.046902883133,12|8,0:1|0:0,0:0:0:0:
183,169,31644,6,0,P|208:202|233:172,1,67.5117257207832,0|8,0:0|0:1,0:0:0:0:
408,110,31960,1,8,0:0:0:0:
317,70,32118,2,0,L|329:162,1,67.5117257207832,0|8,0:0|0:0,0:0:0:0:
151,30,32434,2,0,L|139:122,1,67.5117257207832,12|0,0:1|0:0,0:0:0:0:
142,174,32671,1,0,0:0:0:0:
142,174,32750,2,0,B|112:215|112:215|108:149,1,101.267588581175,8|0,0:0|0:0,0:0:0:0:
108,164,33065,5,8,0:1:0:0:
85,307,33223,1,8,0:0:0:0:
8,236,33381,2,0,B|135:229|82:306|203:303,1,202.53517716235,12|8,0:1|0:1,0:0:0:0:
262,330,33934,5,0,0:0:0:0:
262,330,34013,2,0,P|240:266|218:293,1,135.023451441566,8|8,0:0|0:1,0:0:0:0:
384,371,34487,2,0,L|473:361,1,67.5117257207832,8|0,0:0|0:0,0:0:0:0:
220,284,34803,1,8,0:0:0:0:
451,363,34961,2,0,L|348:351,1,101.267588581175,12|0,0:1|0:0,0:0:0:0:
300,293,35276,6,0,P|295:264|319:265,1,33.7558628603916,8|0,0:0|0:0,0:0:0:0:
341,180,35434,5,0,0:0:0:0:
471,130,35592,5,10,0:1:0:0:
214,119,35750,1,10,0:0:0:0:
214,119,35829,1,0,0:0:0:0:
214,119,35908,2,0,P|262:167|233:61,1,288.050029742008,12|8,0:1|0:0,0:0:0:0:
225,371,36856,1,8,0:1:0:0:
148,268,37014,2,0,L|162:352,1,67.5117257207832,8|0,0:0|0:0,0:0:0:0:
65,200,37329,6,0,L|59:233,1,33.7558628603916,8|0,0:0|0:0,0:0:0:0:
254,212,37487,2,0,L|242:280,1,67.5117257207832,14|0,0:1|0:0,0:0:0:0:
4,154,37803,6,0,P|56:156|29:118,1,101.267588581175,10|0,0:0|0:0,0:0:0:0:
91,49,38119,6,0,P|132:61|138:49,1,33.7558628603916,10|0,0:1|0:0,0:0:0:0:
196,123,38277,2,0,P|226:93|219:82,1,33.7558628603916,10|0,0:0|0:0,0:0:0:0:
347,50,38435,6,0,L|503:41,1,135.023451441566,12|8,0:1|0:1,0:0:0:0:
134,20,39067,2,0,L|-22:11,1,135.023451441566,8|8,0:0|0:1,0:0:0:0:
347,50,39540,2,0,L|414:53,1,67.5117257207832,8|8,0:3|0:0,0:0:0:0:
348,233,39856,1,4,0:3:0:0:
456,160,40014,2,0,L|388:163,1,67.5117257207832,12|8,0:1|0:0,0:0:0:0:
138,87,40330,2,0,L|133:11,1,67.5117257207832
262,232,40646,6,0,L|228:230,1,33.7558628603916,10|0,0:0|0:0,0:0:0:0:
73,164,40804,1,10,0:1:0:0:
73,164,40883,1,0,0:0:0:0:
73,164,40962,6,0,P|151:128|96:260,1,346.560192033353,12|0,0:1|0:0,0:0:0:0:
31,364,41593,2,0,B|18:291|18:291|56:365,1,148.525796585723,10|0,0:0|0:0,0:0:0:0:
303,297,41909,1,14,0:1:0:0:
106,269,42067,1,8,0:0:0:0:
106,269,42146,1,0,0:0:0:0:
106,269,42225,6,0,L|204:299,1,90.0156342943774,2|8,0:0|0:0,0:0:0:0:
347,162,42541,2,0,L|446:227,1,90.0156342943774,14|0,0:1|0:0,0:0:0:0:
106,269,42857,6,0,L|150:371,1,90.0156342943774,10|0,0:0|0:0,0:0:0:0:
434,45,43172,2,0,L|478:147,1,90.0156342943774,8|8,0:1|0:0,0:0:0:0:
42,177,43488,6,0,L|242:201,1,198.03439544763,12|0,0:1|0:0,0:0:0:0:
512,287,43962,2,0,P|465:281|469:264,1,49.5085988619076,8|0,0:1|0:0,0:0:0:0:
350,239,44120,6,0,P|390:259|371:300,1,99.0171977238152,8|0,0:0|0:0,0:0:0:0:
42,177,44436,1,12,0:1:0:0:
298,172,44594,6,0,B|231:157|231:157|148:213|148:213|102:195,1,198.03439544763,8|8,0:0|0:0,0:0:0:0:
337,96,45068,2,0,B|398:53|398:53|360:142,1,148.525796585723,12|0,0:1|0:0,0:0:0:0:
450,175,45383,2,0,L|497:161,1,49.5085988619076,8|0,0:0|0:0,0:0:0:0:
0,124,45699,2,0,L|47:138,1,49.5085988619076,8|0,0:1|0:0,0:0:0:0:
117,325,45857,1,8,0:0:0:0:
117,325,45936,1,0,0:0:0:0:
117,325,46015,6,0,B|63:167|185:193|128:4,1,324.056283459759,12|8,0:1|0:1,0:0:0:0:
271,267,46647,2,0,P|281:327|210:307,1,162.028141729879,10|0,0:0|0:0,0:0:0:0:
210,307,46963,1,14,0:1:0:0:
454,183,47121,6,0,P|449:255|386:182,1,198.03439544763,8|8,0:0|0:0,0:0:0:0:
366,112,47515,1,0,0:0:0:0:
366,112,47594,6,0,P|400:103|369:123,1,99.0171977238152,14|0,0:1|0:0,0:0:0:0:
7,90,47910,2,0,L|180:102,1,135.023451441566,10|0,0:0|0:0,0:0:0:0:
207,54,48226,6,0,L|206:0,1,54.0093805766265,8|0,0:1|0:0,0:0:0:0:
285,5,48384,2,0,L|283:58,1,54.0093805766265,8|0,0:0|0:0,0:0:0:0:
7,90,48542,2,0,L|127:81,2,108.018761153253,12|0|0,0:1|0:0|0:0,0:0:0:0:
185,233,49016,1,8,0:1:0:0:
185,233,49174,2,0,P|155:273|123:229,1,99.0171977238152,8|0,0:0|0:0,0:0:0:0:
265,166,49489,5,12,0:1:0:0:
295,304,49647,2,0,B|284:353|284:353|268:307,1,99.0171977238152,8|0,0:0|0:0,0:0:0:0:
437,303,49963,5,8,0:0:0:0:
397,110,50121,2,0,B|411:43|411:43|433:105,1,135.023451441566,12|0,0:1|0:0,0:0:0:0:
386,156,50437,6,0,P|364:164|345:138,1,54.0093805766265,8|0,0:0|0:0,0:0:0:0:
212,183,50595,1,8,0:1:0:0:
0,85,50753,5,4,0:3:0:0:
237,161,50911,1,2,0:0:0:0:
237,161,50990,1,0,0:0:0:0:
237,161,51069,2,0,B|141:161|141:161|104:314|104:314|49:264,1,324.056283459759,12|8,0:1|0:1,0:0:0:0:
68,45,51700,2,0,P|121:14|130:74,1,108.018761153253,10|0,0:0|0:0,0:0:0:0:
213,284,52016,5,14,0:1:0:0:
402,196,52174,1,8,0:0:0:0:
402,196,52253,1,0,0:0:0:0:
402,196,52332,2,0,P|356:236|347:199,1,90.0156342943774,2|8,0:0|0:0,0:0:0:0:
458,0,52648,2,0,P|421:37|521:63,1,216.037522306506,14|10,0:1|0:0,0:0:0:0:
512,58,53280,5,8,0:1:0:0:
184,140,53437,1,8,0:0:0:0:
493,107,53595,2,0,B|369:99|410:47|288:46,1,216.037522306506,12|0,0:1|0:0,0:0:0:0:
234,19,53990,1,0,0:0:0:0:
234,19,54069,2,0,P|180:32|195:65,1,99.0171977238152,8|8,0:1|0:0,0:0:0:0:
61,206,54385,1,0,0:0:0:0:
104,35,54543,6,0,P|89:69|111:70,1,49.5085988619076,12|0,0:1|0:0,0:0:0:0:
130,254,54701,2,0,B|303:234|303:234|334:180,1,198.03439544763,8|8,0:0|0:0,0:0:0:0:
490,317,55175,2,0,B|365:302|365:302|344:338|344:338|381:345,1,180.031268588755,12|8,0:1|0:0,0:0:0:0:
22,350,55806,6,0,B|44:359|44:359|63:316,1,49.5085988619076,8|0,0:1|0:0,0:0:0:0:
130,254,55964,6,0,B|152:263|152:263|171:220,1,49.5085988619076,8|0,0:0|0:0,0:0:0:0:
354,192,56122,2,0,P|381:121|237:138,1,297.051593171446,12|8,0:1|0:1,0:0:0:0:
115,88,56675,1,0,0:0:0:0:
115,88,56754,2,0,B|155:149|155:149|147:62,1,148.525796585723,10|0,0:0|0:0,0:0:0:0:
311,24,57070,2,0,L|202:39,1,90.0156342943774,14|8,0:1|0:0,0:0:0:0:
0,0,57385,1,2,0:0:0:0:
0,0,57543,1,8,0:0:0:0:
53,309,57701,6,0,B|63:292|63:292|39:209|39:209|57:145,1,148.50000453186,14|0,0:1|0:0,0:0:0:0:
155,144,58017,6,0,B|209:100|209:100|163:52|163:52|141:84,1,161.999995056153,10|0,0:0|0:0,0:0:0:0:
213,235,58333,6,0,L|329:261,1,90.0156342943774,8|8,0:1|0:0,0:0:0:0:
396,234,58570,1,0,0:0:0:0:
396,234,58649,2,0,P|427:173|353:189,1,148.525796585723,12|0,0:1|0:0,0:0:0:0:
281,148,58965,5,12,0:0:0:0:
396,73,59123,2,0,P|406:21|371:34,1,99.0171977238152,8|8,0:1|0:0,0:0:0:0:
242,23,59438,5,8,0:3:0:0:
218,242,59596,2,0,P|262:224|233:185,1,108.018761153253,12|8,0:1|0:0,0:0:0:0:
88,54,59912,5,12,0:0:0:0:
146,275,60070,1,8,0:0:0:0:
60,187,60228,5,8,0:1:0:0:
29,383,60386,2,0,B|73:261|-20:289|32:124,1,225.039085735944,8|8,0:3|0:1,0:0:0:0:
408,354,60860,5,12,0:0:0:0:
221,334,61018,1,6,0:3:0:0:
221,334,61097,1,0,0:0:0:0:
221,334,61176,6,0,B|250:318|250:318|360:334|360:334|404:312,1,180.031268588755,14|0,0:1|0:0,0:0:0:0:
459,74,61649,1,8,0:1:0:0:
443,196,61807,2,0,L|420:87,1,90.0156342943774,8|0,0:0|0:0,0:0:0:0:
497,340,62123,2,0,L|490:390,1,45.0078171471887,14|0,0:1|0:0,0:0:0:0:
409,241,62281,6,0,B|399:142|472:180|457:52,1,180.031268588755,8|8,0:0|0:0,0:0:0:0:
251,14,62755,2,0,B|198:18|198:18|300:37,1,121.52110629741,14|0,0:1|0:0,0:0:0:0:
308,68,63071,6,0,L|166:83,1,135.023451441566,10|0,0:0|0:0,0:0:0:0:
94,71,63387,6,0,P|58:42|62:30,1,45.0078171471887,10|0,0:1|0:0,0:0:0:0:
272,152,63544,2,0,L|331:159,1,45.0078171471887,8|0,0:0|0:0,0:0:0:0:
135,357,63702,6,0,B|93:202|215:256|179:64,1,270.046902883132,12|8,0:1|0:1,0:0:0:0:
382,264,64334,2,0,P|363:321|334:269,1,135.023451441566,8|0,0:0|0:0,0:0:0:0:
328,283,64650,1,8,0:1:0:0:
24,230,64808,2,0,L|225:216,1,180.031268588755,8|8,0:0|0:0,0:0:0:0:
483,62,65282,6,0,B|471:19|471:19|467:64,1,90.0156342943774,14|0,0:1|0:0,0:0:0:0:
391,88,65518,1,0,0:0:0:0:
354,119,65597,2,0,P|335:172|417:159,1,135.023451441566,8|0,0:0|0:0,0:0:0:0:
469,199,65913,6,0,P|451:192|442:221,1,45.0078171471887,10|0,0:1|0:0,0:0:0:0:
129,108,66071,1,10,0:0:0:0:
129,108,66150,1,0,0:0:0:0:
129,108,66229,2,0,B|141:42|141:42|249:53|249:53|232:165,1,270.046902883132,12|8,0:1|0:1,0:0:0:0:
185,365,66861,2,0,B|144:349|144:349|159:232,1,135.023451441566,8|0,0:0|0:0,0:0:0:0:
155,258,67177,1,8,0:1:0:0:
18,94,67335,6,0,B|127:99|69:161|177:186,1,180.031268588755,8|8,0:0|0:0,0:0:0:0:
410,98,67808,2,0,B|428:63|428:63|382:34|382:34|351:88,1,135.023451441566,14|0,0:1|0:0,0:0:0:0:
307,122,68124,6,0,P|273:108|291:89,1,45.0078171471887,8|0,0:0|0:0,0:0:0:0:
206,68,68282,1,0,0:0:0:0:
512,70,68440,1,10,0:1:0:0:
512,70,68519,1,0,0:0:0:0:
512,70,68598,1,10,0:0:0:0:
364,326,68756,2,0,B|364:243|364:243|345:218|345:218|410:175|410:175|410:72,1,270.046902883132,14|8,0:1|0:1,0:0:0:0:
445,365,69388,2,0,B|502:365|502:365|502:233,1,180.031268588755,8|8,0:0|0:1,0:0:0:0:
55,376,69861,5,8,0:0:0:0:
176,352,70019,1,8,0:1:0:0:
340,324,70177,1,8,0:0:0:0:
55,376,70335,2,0,B|48:298|48:298|13:268,1,108.018761153253,8|0,0:3|0:0,0:0:0:0:
194,232,70651,6,0,B|212:195|212:195|205:117|205:117|234:58,1,162.028141729879,12|0,0:3|0:0,0:0:0:0:
343,291,70967,6,0,L|358:344,1,54.0093805766265,8|0,0:3|0:0,0:0:0:0:
422,268,71125,6,0,L|437:321,1,54.0093805766265,4|0,0:3|0:0,0:0:0:0:
91,184,71283,6,0,B|250:143|193:279|345:241,1,270.046902883132,14|8,0:1|0:1,0:0:0:0:
449,85,71914,2,0,P|445:32|409:82,1,135.023451441566,8|0,0:0|0:0,0:0:0:0:
393,86,72230,5,14,0:1:0:0:
322,96,72388,5,8,0:0:0:0:
186,113,72546,1,2,0:0:0:0:
24,132,72704,1,8,0:0:0:0:
322,96,72862,6,0,B|331:135|331:135|256:155,1,108.018761153253,14|0,0:1|0:0,0:0:0:0:
186,113,73178,2,0,L|203:10,1,90.0156342943774,10|0,0:0|0:0,0:0:0:0:
156,243,73494,1,10,0:1:0:0:
156,243,73651,1,8,0:0:0:0:
96,27,73809,2,0,L|106:96,1,45.0078171471887,12|0,0:1|0:0,0:0:0:0:
62,246,73967,6,0,B|172:226|131:299|250:278,1,180.031268588755,8|8,0:0|0:1,0:0:0:0:
384,60,74441,2,0,L|359:209,1,135.023451441566,8|0,0:0|0:0,0:0:0:0:
361,193,74757,1,8,0:1:0:0:
59,274,74915,2,0,B|95:261|95:261|198:266|198:266|239:251,1,180.031268588755,8|8,0:0|0:0,0:0:0:0:
304,292,75310,1,0,0:0:0:0:
304,292,75389,2,0,P|360:284|310:327,1,135.023451441566,14|0,0:1|0:0,0:0:0:0:
411,378,75704,2,0,L|466:387,1,45.0078171471887,8|0,0:0|0:0,0:0:0:0:
70,177,76020,2,0,L|125:168,1,45.0078171471887,10|0,0:1|0:0,0:0:0:0:
197,62,76178,1,2,0:0:0:0:
197,62,76257,1,0,0:0:0:0:
197,62,76336,6,0,B|164:223|265:165|196:361,1,270.046902883132,12|8,0:1|0:1,0:0:0:0:
374,162,76968,2,0,B|358:95|358:95|338:185,1,135.023451441566,8|0,0:0|0:0,0:0:0:0:
343,159,77284,1,8,0:1:0:0:
470,359,77442,2,0,L|370:338,1,90.0156342943774,8|0,0:0|0:0,0:0:0:0:
49,315,77757,2,0,L|123:302,1,45.0078171471887,8|0,0:0|0:0,0:0:0:0:
161,272,77915,2,0,P|170:242|112:245,1,90.0156342943774,14|0,0:1|0:0,0:0:0:0:
58,45,78231,6,0,P|36:87|95:73,1,135.023451441566,8|0,0:0|0:0,0:0:0:0:
94,78,78547,1,10,0:1:0:0:
369,70,78705,1,10,0:0:0:0:
369,70,78784,1,0,0:0:0:0:
369,70,78863,2,0,B|262:64|292:113|192:117,1,180.031268588755,14|0,0:1|0:0,0:0:0:0:
372,213,79337,1,8,0:1:0:0:
372,213,79416,1,0,0:0:0:0:
372,213,79495,6,0,B|418:216|418:216|420:161,1,90.0156342943774,8|0,0:0|0:0,0:0:0:0:
199,367,79810,2,0,L|190:322,1,45.0078171471887,8|0,0:1|0:0,0:0:0:0:
39,261,79968,2,0,B|70:175|70:175|160:210,1,180.031268588755,8|8,0:0|0:0,0:0:0:0:
415,301,80442,2,0,P|406:357|349:328,1,135.023451441566,8|0,0:1|0:0,0:0:0:0:
276,215,80758,6,0,B|267:127|293:159|286:51,1,148.525796585723,12|0,0:3|0:0,0:0:0:0:
246,30,81074,5,12,0:3:0:0:
413,192,81232,1,10,0:0:0:0:
52,344,81390,6,0,P|94:364|114:348,1,72.0125074355019,12|0,0:1|0:0,0:0:0:0:
223,287,81705,2,0,P|265:307|285:291,1,72.0125074355019,0|8,0:0|0:1,0:0:0:0:
105,227,82021,5,8,0:0:0:0:
281,295,82179,2,0,L|189:306,1,72.0125074355019,0|8,0:0|0:1,0:0:0:0:
153,151,82495,2,0,L|321:161,1,144.025014871004,8|8,0:0|0:0,0:0:0:0:
237,2,82969,2,0,L|228:73,1,72.0125074355019,12|0,0:1|0:0,0:0:0:0:
452,37,83285,1,8,0:0:0:0:
64,33,83601,1,8,0:1:0:0:
64,33,83758,1,8,0:0:0:0:
22,167,83916,5,12,0:1:0:0:
101,183,84074,2,0,L|89:100,1,72.0125074355019
258,198,84390,5,8,0:1:0:0:
135,135,84548,2,0,L|112:287,1,144.025014871004,8|8,0:0|0:1,0:0:0:0:
222,367,85022,2,0,P|252:338|225:308,2,72.0125074355019,8|0|8,0:0|0:0|0:0,0:0:0:0:
37,312,85496,2,0,L|177:295,1,108.018761153253,12|0,0:1|0:0,0:0:0:0:
144,298,85811,1,8,0:0:0:0:
307,174,85969,2,0,B|320:104|320:104|339:180,1,144.025014871004,0|10,0:0|0:0,0:0:0:0:
327,275,86364,1,0,0:0:0:0:
342,293,86443,6,0,P|385:244|273:240,1,229.539867450663,12|8,0:1|0:1,0:0:0:0:
38,120,87075,2,0,P|75:157|114:107,1,114.769933725332,8|0,0:0|0:0,0:0:0:0:
115,123,87391,1,8,0:1:0:0:
133,357,87549,2,0,B|125:268|184:307|179:185,1,153.026578300442,8|8,0:0|0:0,0:0:0:0:
366,129,88022,2,0,B|423:140|423:140|342:168,1,114.769933725332,12|0,0:1|0:0,0:0:0:0:
404,240,88338,2,0,L|480:249,1,72.0125074355019,8|0,0:0|0:0,0:0:0:0:
178,215,88654,2,0,L|102:224,1,72.0125074355019,10|10,0:1|0:0,0:0:0:0:
44,196,88891,1,0,0:0:0:0:
44,196,88970,6,0,L|31:52,1,144.025014871004,12|0,0:1|0:0,0:0:0:0:
480,52,89602,2,0,L|468:181,1,108.018761153253,8|0,0:0|0:0,0:0:0:0:
427,223,89917,2,0,P|400:199|404:187,1,36.006253717751,8|0,0:1|0:0,0:0:0:0:
330,255,90075,2,0,P|374:265|325:321,1,144.025014871004,8|8,0:0|0:0,0:0:0:0:
98,344,90549,2,0,L|221:335,1,108.018761153253,12|0,0:1|0:0,0:0:0:0:
239,266,90865,2,0,B|227:209|227:209|219:236,1,72.0125074355019,8|0,0:0|0:0,0:0:0:0:
184,35,91181,2,0,L|192:-13,1,36.006253717751,10|0,0:0|0:0,0:0:0:0:
14,115,91339,1,10,0:0:0:0:
14,115,91418,1,0,0:0:0:0:
14,115,91497,6,0,B|170:74|131:172|293:133,1,267.796512025774,12|0,0:1|0:0,0:0:0:0:
317,119,92128,2,0,B|347:138|347:138|329:176,1,72.0125074355019,8|0,0:0|0:0,0:0:0:0:
334,345,92444,1,8,0:1:0:0:
388,258,92602,2,0,L|472:269,1,72.0125074355019,8|0,0:0|0:0,0:0:0:0:
422,140,92918,2,0,L|493:130,1,72.0125074355019,8|12,0:0|0:1,0:0:0:0:
375,19,93234,1,0,0:0:0:0:
375,19,93392,1,8,0:0:0:0:
493,149,93550,2,0,L|421:139,1,72.0125074355019,0|8,0:0|0:1,0:0:0:0:
202,186,93865,1,8,0:0:0:0:
202,186,93944,1,0,0:0:0:0:
202,186,94023,6,0,B|216:78|216:78|228:125,1,144.025014871004,12|0,0:1|0:0,0:0:0:0:
172,53,94497,1,8,0:1:0:0:
128,238,94655,1,8,0:0:0:0:
46,137,94813,2,0,L|58:230,1,72.0125074355019,0|8,0:0|0:1,0:0:0:0:
319,155,95129,1,8,0:0:0:0:
319,155,95208,1,0,0:0:0:0:
323,159,95287,1,0,0:0:0:0:
215,125,95445,1,8,0:0:0:0:
429,58,95603,2,0,L|304:68,1,108.018761153253,12|0,0:1|0:0,0:0:0:0:
273,37,95918,5,8,0:0:0:0:
409,43,96076,5,0,0:0:0:0:
504,158,96234,5,10,0:1:0:0:
434,299,96392,1,10,0:0:0:0:
434,299,96471,1,0,0:0:0:0:
434,299,96550,6,0,P|407:266|424:256,1,72.0125074355019,12|0,0:1|0:0,0:0:0:0:
511,86,96866,2,0,L|501:179,1,72.0125074355019,0|8,0:0|0:1,0:0:0:0:
227,210,97182,1,8,0:0:0:0:
325,260,97340,2,0,L|317:188,1,72.0125074355019,0|8,0:0|0:1,0:0:0:0:
19,164,97656,1,8,0:0:0:0:
90,146,97814,1,0,0:0:0:0:
111,216,97971,1,8,0:0:0:0:
242,66,98129,2,0,L|224:231,1,144.025014871004,14|10,0:1|0:0,0:0:0:0:
491,265,98761,5,10,0:1:0:0:
317,354,98919,1,10,0:0:0:0:
317,354,98998,1,0,0:0:0:0:
317,354,99077,2,0,B|429:332|372:361|487:341,1,162.028141729879,12|8,0:1|0:1,0:0:0:0:
234,262,99551,1,8,0:1:0:0:
397,233,99709,6,0,P|387:249|371:240,1,40.5070354324699,8|0,0:0|0:0,0:0:0:0:
148,355,99867,2,0,L|258:345,1,81.0140708649397,0|8,0:0|0:1,0:0:0:0:
459,142,100182,6,0,P|458:160|440:161,1,40.5070354324699,8|0,0:3|0:0,0:0:0:0:
234,262,100340,2,0,B|247:220|247:220|272:295,1,90.0156342943774,12|4,0:0|0:3,0:0:0:0:
261,263,100577,1,0,0:0:0:0:
261,263,100656,1,8,0:1:0:0:
467,32,100814,6,0,P|475:48|460:57,1,45.0078171471887,12|0,0:0|0:0,0:0:0:0:
292,152,100972,1,4,0:3:0:0:
150,82,101130,5,8,0:0:0:0:
55,215,101288,1,12,0:0:0:0:
0,33,101446,1,6,0:3:0:0:
0,33,101525,1,0,0:0:0:0:
0,33,101604,2,0,B|321:33|321:33|216:76,1,393.818400037901,12|0,0:1|0:0,0:0:0:0:
292,152,102235,2,0,P|345:184|350:111,1,155.276969157801,10|0,0:0|0:0,0:0:0:0:
506,198,102551,1,14,0:1:0:0:
292,152,102709,1,8,0:0:0:0:
512,0,102867,6,0,P|471:34|510:60,1,94.5164160090963,2|8,0:0|0:0,0:0:0:0:
480,284,103183,2,0,P|427:275|448:233,1,94.5164160090963,14|0,0:1|0:0,0:0:0:0:
326,0,103499,2,0,L|316:102,1,94.5164160090963,10|0,0:0|0:0,0:0:0:0:
272,383,103815,2,0,L|262:288,1,94.5164160090963,8|8,0:1|0:0,0:0:0:0:
18,176,104130,6,0,B|148:154|101:224|223:203,1,207.035958877068,12|0,0:1|0:0,0:0:0:0:
289,177,104525,1,0,0:0:0:0:
309,156,104604,2,0,P|306:129|280:131,1,51.758989719267,8|0,0:1|0:0,0:0:0:0:
403,367,104762,6,0,B|411:299|411:299|374:361,1,135,8|0,0:0|0:0,0:0:0:0:
376,356,105078,1,12,0:1:0:0:
507,104,105236,2,0,P|502:42|443:114,1,180.031268588755,8|8,0:0|0:0,0:0:0:0:
151,69,105710,2,0,L|299:56,1,141.774624013644,12|0,0:1|0:0,0:0:0:0:
384,83,106026,6,0,P|335:116|320:84,1,94.5164160090963,8|0,0:0|0:0,0:0:0:0:
65,45,106341,1,8,0:1:0:0:
384,83,106499,6,0,P|345:57|357:44,1,47.2582080045482,8|0,0:0|0:0,0:0:0:0:
48,197,106657,2,0,P|20:124|114:193,1,283.549248027289,12|8,0:1|0:1,0:0:0:0:
421,317,107289,2,0,B|390:304|390:304|306:314|306:314|260:293,1,155.276969157801,10|0,0:0|0:0,0:0:0:0:
272,298,107605,5,14,0:1:0:0:
431,234,107763,1,8,0:0:0:0:
124,326,107921,2,0,P|183:303|149:263,1,103.517979438534,2|8,0:0|0:0,0:0:0:0:
206,29,108236,2,0,P|196:91|248:82,1,103.517979438534,14|0,0:1|0:0,0:0:0:0:
431,234,108552,2,0,P|381:194|363:243,1,103.517979438534,10|0,0:0|0:0,0:0:0:0:
43,215,108868,6,0,P|72:199|62:182,1,56.2597714339859,8|0,0:1|0:0,0:0:0:0:
143,189,109026,2,0,P|172:173|162:156,1,56.2597714339859,8|0,0:0|0:0,0:0:0:0:
373,359,109184,2,0,L|238:354,2,103.517979438534,12|0|0,0:1|0:0|0:0,0:0:0:0:
300,94,109658,5,8,0:1:0:0:
225,294,109816,2,0,L|90:289,1,94.5164160090963,8|0,0:0|0:0,0:0:0:0:
238,0,110131,5,12,0:1:0:0:
315,221,110289,2,0,L|232:217,1,42.7574262898292,8|0,0:0|0:0,0:0:0:0:
443,141,110447,5,8,0:3:0:0:
175,141,110605,2,0,P|160:185|198:157,1,85.5148525796584,8|12,0:0|0:1,0:0:0:0:
407,21,110921,5,4,0:3:0:0:
107,21,111079,2,0,P|92:65|130:37,1,94.5164160090961,8|8,0:0|0:1,0:0:0:0:
445,305,111395,6,0,P|446:262|411:305,1,112.5,4|2,0:3|0:0,0:0:0:0:
289,359,111632,1,0,0:0:0:0:
289,359,111711,2,0,B|222:146|363:241|295:-2,1,337.5,12|8,0:1|0:1,0:0:0:0:
84,308,112342,2,0,B|46:324|46:324|145:348,1,112.5,10|0,0:0|0:0,0:0:0:0:
175,275,112579,5,0,0:0:0:0:
175,275,112658,1,14,0:1:0:0:
136,119,112816,1,8,0:0:0:0:
394,60,112974,1,2,0:0:0:0:
348,286,113132,1,8,0:0:0:0:
258,170,113290,6,0,P|260:109|320:138,1,148.50000453186,14|0,0:1|0:0,0:0:0:0:
165,85,113606,2,0,L|48:76,1,105.300000401688,10|0,0:0|0:0,0:0:0:0:
195,262,113922,5,8,0:1:0:0:
512,221,114080,1,8,0:0:0:0:
225,384,114237,6,0,P|184:310|275:326,1,215.999993408203,12|0,0:1|0:0,0:0:0:0:
379,347,114632,1,0,0:0:0:0:
379,347,114711,2,0,P|346:332|361:320,1,56.25,8|0,0:1|0:0,0:0:0:0:
364,105,114869,1,8,0:0:0:0:
364,105,115027,1,0,0:0:0:0:
116,257,115185,5,12,0:1:0:0:
328,7,115343,2,0,B|307:48|307:48|335:173|335:173|310:219,1,207.035958877068,8|8,0:0|0:0,0:0:0:0:
75,122,115817,2,0,B|9:83|9:83|103:52|103:52|109:87,1,188.999994232178,12|8,0:1|0:0,0:0:0:0:
0,371,116448,6,0,P|20:378|17:353,1,51.758989719267,8|0,0:1|0:0,0:0:0:0:
108,333,116606,6,0,P|128:340|125:315,1,51.758989719267,8|0,0:0|0:0,0:0:0:0:
324,264,116764,2,0,B|346:196|252:8|142:234|240:300,1,310.553938315602,12|8,0:1|0:1,0:0:0:0:
64,231,117317,1,0,0:0:0:0:
64,231,117396,2,0,P|128:222|99:169,1,103.517979438534,10|0,0:0|0:0,0:0:0:0:
389,160,117712,1,14,0:1:0:0:
389,160,117870,1,8,0:0:0:0:
144,16,118028,5,2,0:0:0:0:
144,16,118107,1,0,0:0:0:0:
144,16,118186,1,8,0:0:0:0:
319,114,118343,2,0,B|286:106|286:106|249:72|249:72|206:101|206:101|174:101,1,168.779314301958,14|0,0:1|0:0,0:0:0:0:
86,177,118659,6,0,L|195:195,1,103.517979438534,10|0,0:0|0:0,0:0:0:0:
232,258,118896,1,0,0:0:0:0:
232,258,118975,1,8,0:1:0:0:
86,177,119133,1,8,0:0:0:0:
388,40,119291,5,12,0:1:0:0:
406,228,119449,2,0,P|345:226|386:191,1,103.517979438534,0|12,0:0|0:0,0:0:0:0:
512,45,119765,5,8,0:1:0:0:
472,330,119923,2,0,P|460:282|509:282,1,112.519542867972,8|8,0:0|0:3,0:0:0:0:
199,313,120239,5,12,0:1:0:0:
199,313,120396,1,8,0:0:0:0:
199,313,120554,1,12,0:0:0:0:
150,207,120712,5,8,0:0:0:0:
282,187,120870,1,8,0:1:0:0:
270,380,121028,1,8,0:3:0:0:
118,337,121186,2,0,L|295:341,1,168.779314301958,12|0,0:0|0:0,0:0:0:0:
409,368,121502,2,0,B|449:364|449:364|405:339,1,56.2597714339859,12|0,0:0|0:0,0:0:0:0:
429,139,121660,1,6,0:3:0:0:
429,139,121739,1,0,0:0:0:0:
429,139,121818,6,0,P|474:83|329:115,1,393.818400037901,12|0,0:1|0:0,0:0:0:0:
184,177,122449,2,0,P|232:206|223:123,1,168.779314301958,10|0,0:0|0:0,0:0:0:0:
390,233,122765,1,14,0:1:0:0:
184,177,122923,1,8,0:0:0:0:
464,8,123081,6,0,P|421:54|433:75,1,94.5164160090963,2|8,0:0|0:0,0:0:0:0:
184,1,123397,2,0,P|141:47|153:68,1,94.5164160090963,14|0,0:1|0:0,0:0:0:0:
420,157,123713,2,0,L|521:138,1,94.5164160090963,10|0,0:0|0:0,0:0:0:0:
117,135,124029,2,0,L|16:116,1,94.5164160090963,10|8,0:1|0:0,0:0:0:0:
226,361,124344,6,0,B|188:239|306:274|262:134,1,225.039085735944,12|0,0:1|0:0,0:0:0:0:
322,98,124739,1,0,0:0:0:0:
340,69,124818,2,0,P|337:42|311:44,1,56.2597714339859,8|0,0:1|0:0,0:0:0:0:
369,252,124976,2,0,P|412:304|427:226,1,168.779314301958,8|0,0:0|0:0,0:0:0:0:
440,236,125292,1,12,0:1:0:0:
118,195,125450,2,0,L|309:187,1,189.032832018193,8|8,0:0|0:0,0:0:0:0:
47,142,125924,1,12,0:1:0:0:
47,142,126003,1,0,0:0:0:0:
47,142,126082,1,0,0:0:0:0:
233,91,126240,5,8,0:0:0:0:
169,340,126397,1,8,0:1:0:0:
133,86,126555,1,8,0:0:0:0:
244,293,126713,1,8,0:1:0:0:
244,293,126792,1,0,0:0:0:0:
244,293,126871,2,0,P|171:294|266:243,1,283.549248027289,12|8,0:1|0:1,0:0:0:0:
449,110,127503,2,0,B|491:83|491:83|370:101,1,168.75,10|0,0:0|0:0,0:0:0:0:
373,100,127819,1,14,0:1:0:0:
502,7,127977,1,8,0:0:0:0:
179,355,128135,6,0,L|284:342,1,94.499997116089,2|8,0:0|0:0,0:0:0:0:
179,28,128450,2,0,L|284:41,1,94.499997116089,14|0,0:1|0:0,0:0:0:0:
485,192,128766,2,0,L|392:204,1,94.5164160090963,10|0,0:0|0:0,0:0:0:0:
27,192,129082,6,0,B|39:217|39:217|54:189,1,56.25,8|0,0:1|0:0,0:0:0:0:
328,300,129240,1,8,0:0:0:0:
328,300,129319,1,0,0:0:0:0:
328,300,129398,2,0,B|291:255|291:255|244:289,2,112.5,12|0|0,0:1|0:0|0:0,0:0:0:0:
117,318,129872,5,8,0:1:0:0:
375,142,130030,2,0,P|343:189|328:171,1,103.517979438534,8|0,0:0|0:0,0:0:0:0:
101,182,130346,5,12,0:1:0:0:
298,45,130503,2,0,L|292:95,1,51.758989719267,8|0,0:0|0:0,0:0:0:0:
0,87,130661,5,8,0:3:0:0:
212,179,130819,2,0,B|201:162|201:162|186:17|186:17|164:-8,1,189.032832018193,8|4,0:0|0:3,0:0:0:0:
368,247,131293,2,0,B|351:281|351:281|277:264|277:264|308:196,1,189.032832018193,8|4,0:0|0:3,0:0:0:0:
0,383,131767,1,2,0:0:0:0:
0,383,131846,1,0,0:0:0:0:
0,383,131925,6,0,B|167:246|133:429|316:361,1,337.558628603915,12|8,0:1|0:1,0:0:0:0:
470,312,132477,1,0,0:0:0:0:
470,312,132556,2,0,L|358:295,1,112.519542867972,10|0,0:0|0:0,0:0:0:0:
159,377,132872,5,14,0:1:0:0:
223,164,133030,1,8,0:0:0:0:
223,164,133109,1,0,0:0:0:0:
223,164,133188,1,2,0:0:0:0:
89,67,133346,1,8,0:0:0:0:
43,286,133504,2,0,B|159:306|115:224|266:253,1,207.000003948212,14|10,0:1|0:0,0:0:0:0:
258,270,134136,5,8,0:1:0:0:
28,256,134294,1,10,0:0:0:0:
357,310,134451,2,0,P|293:310|360:235,1,225.039085735944,12|0,0:1|0:0,0:0:0:0:
440,158,134846,1,0,0:0:0:0:
440,158,134925,2,0,L|430:218,1,56.2597714339859,8|0,0:1|0:0,0:0:0:0:
198,12,135083,2,0,L|217:131,1,112.519542867972,8|0,0:0|0:0,0:0:0:0:
38,262,135399,5,12,0:1:0:0:
355,231,135557,2,0,B|285:193|285:193|200:236|200:236|151:231,1,207.035958877068,8|8,0:0|0:0,0:0:0:0:
316,9,136031,2,0,B|407:-8|407:-8|367:33|367:33|382:114,1,207.035958877068,12|8,0:1|0:0,0:0:0:0:
17,20,136662,6,0,B|41:28|41:28|23:65,1,56.2597714339859,8|0,0:1|0:0,0:0:0:0:
106,126,136820,6,0,B|130:134|130:134|112:171,1,56.2597714339859,8|0,0:0|0:0,0:0:0:0:
208,345,136978,2,0,B|296:268|520:366|327:167|229:259,1,337.558628603915,12|8,0:1|0:1,0:0:0:0:
75,251,137531,1,0,0:0:0:0:
75,251,137610,2,0,P|129:282|138:230,1,112.519542867972,10|0,0:0|0:0,0:0:0:0:
348,156,137926,1,14,0:1:0:0:
348,156,138084,1,8,0:0:0:0:
90,98,138242,5,2,0:0:0:0:
90,98,138321,1,0,0:0:0:0:
90,98,138400,1,8,0:0:0:0:
231,6,138557,2,0,B|217:46|217:46|229:123|229:123|206:175,1,155.276969157801,14|0,0:1|0:0,0:0:0:0:
370,244,138873,6,0,L|382:355,1,112.519542867972,10|0,0:0|0:0,0:0:0:0:
470,109,139189,6,0,L|454:182,1,56.2597714339859,8|0,0:1|0:0,0:0:0:0:
389,84,139347,2,0,L|373:157,1,56.2597714339859,8|0,0:0|0:0,0:0:0:0:
260,256,139505,6,0,B|139:218|157:315|31:298,1,225.039085735944,12|12,0:1|0:0,0:0:0:0:
47,299,139900,1,0,0:0:0:0:
47,299,139979,1,12,0:1:0:0:
470,291,140137,5,8,0:0:0:0:
447,364,140295,1,8,0:3:0:0:
381,290,140453,1,12,0:1:0:0:
501,249,140610,1,8,0:0:0:0:
244,210,140768,5,12,0:0:0:0:
460,162,140926,2,0,B|419:187|419:187|377:141,1,94.5164160090963,12|0,0:1|0:0,0:0:0:0:
153,71,141242,5,8,0:3:0:0:
400,17,141400,2,0,P|415:63|366:43,1,103.517979438534,12|0,0:1|0:0,0:0:0:0:
71,271,141716,5,12,0:0:0:0:
71,271,141874,1,4,0:3:0:0:
0,15,142032,2,0,P|1:82|45:10,1,198.03439544763,12|0,0:1|0:0,0:0:0:0:
374,64,142506,1,8,0:1:0:0:
91,163,142663,6,0,B|75:252|122:294|195:245|149:120,1,216.037522306506,10|12,0:0|0:1,0:0:0:0:
446,100,143137,1,10,0:0:0:0:
225,277,143295,6,0,B|296:306|241:375|276:416|325:376|265:308|336:276,1,234.040649165381,0|12,0:0|0:1,0:0:0:0:
337,276,143769,1,0,0:0:0:0:
0,384,143927,2,0,L|138:369,1,135.023451441566,10|0,0:0|0:0,0:0:0:0:
148,293,144243,6,0,L|78:279,1,54.0093805766265,8|0,0:1|0:0,0:0:0:0:
96,92,144401,2,0,L|148:81,1,54.0093805766265,10|0,0:0|0:0,0:0:0:0:
348,205,144559,2,0,B|228:243|245:144|106:193,2,234.040649165381,12|0|8,0:1|0:0|0:0,0:0:0:0:
23,216,145506,5,8,0:1:0:0:
96,367,145664,2,0,P|128:326|98:268,1,99.0171977238152,10|0,0:0|0:0,0:0:0:0:
506,13,145980,5,10,0:0:0:0:
433,164,146138,2,0,P|399:127|446:74,1,103.517979438534,12|0,0:1|0:0,0:0:0:0:
124,150,146454,5,10,0:0:0:0:
301,82,146612,1,8,0:3:0:0:
302,280,146769,1,8,0:1:0:0:
302,280,146927,1,8,0:0:0:0:
52,116,147085,6,0,B|88:108|88:108|185:150|185:150|257:139,1,180.031268588755,12|0,0:1|0:0,0:0:0:0:
432,306,147559,1,8,0:1:0:0:
432,306,147717,2,0,B|397:210|457:222|430:111,1,180.031268588755,8|8,0:0|0:1,0:0:0:0:
250,265,148191,5,8,0:0:0:0:
381,69,148349,2,0,P|379:126|331:119,1,90.0156342943774,0|8,0:0|0:0,0:0:0:0:
381,381,148664,2,0,P|379:324|331:331,1,90.0156342943774,12|4,0:1|0:3,0:0:0:0:
88,350,148980,2,0,L|244:334,1,135.023451441566,8|0,0:0|0:0,0:0:0:0:
294,276,149296,6,0,P|281:259|278:285,1,45.0078171471887,8|0,0:1|0:0,0:0:0:0:
392,226,149454,6,0,P|379:209|376:235,1,45.0078171471887,8|0,0:0|0:0,0:0:0:0:
149,261,149612,6,0,B|160:181|160:181|111:152|111:152|104:90|104:90|146:74|146:74|161:7,1,310.553938315602,14|8,0:1|0:1,0:0:0:0:
422,131,150244,2,0,B|293:102|293:102|286:79,1,141.774624013644,10|0,0:0|0:0,0:0:0:0:
290,92,150560,1,10,0:1:0:0:
370,345,150717,1,8,0:0:0:0:
370,345,150875,1,2,0:0:0:0:
370,345,151033,1,8,0:0:0:0:
154,245,151191,6,0,P|216:198|209:255,1,141.774624013644,10|0,0:1|0:0,0:0:0:0:
144,321,151507,2,0,B|59:303|59:303|97:284,1,103.517979438534,8|0,0:0|0:0,0:0:0:0:
390,359,151823,2,0,B|475:341|475:341|437:322,1,103.517979438534,8|8,0:1|0:0,0:0:0:0:
254,67,152139,6,0,B|194:223|318:185|259:334,1,270.046902883132,12|8,0:1|0:1,0:0:0:0:
63,110,152770,2,0,B|43:63|43:63|95:44|95:44|116:103,1,135.023451441566,10|0,0:0|0:0,0:0:0:0:
104,70,153086,1,12,0:1:0:0:
310,185,153244,6,0,L|110:167,1,180.031268588755,10|10,0:0|0:0,0:0:0:0:
422,88,153718,2,0,B|392:197|451:159|417:269,1,180,12|8,0:1|0:0,0:0:0:0:
26,135,154350,1,8,0:1:0:0:
26,135,154508,1,8,0:0:0:0:
121,79,154666,6,0,L|131:175,1,90.0156342943774,14|8,0:1|0:0,0:0:0:0:
262,271,154981,2,0,L|252:367,1,90.0156342943774,0|8,0:0|0:1,0:0:0:0:
419,75,155297,2,0,L|429:171,1,90.0156342943774,10|0,0:0|0:0,0:0:0:0:
273,103,155613,5,8,0:1:0:0:
428,164,155771,2,0,P|467:120|380:126,1,180.031268588755,10|8,0:0|0:0,0:0:0:0:
372,359,156245,1,14,0:1:0:0:
372,359,156403,1,8,0:0:0:0:
455,290,156561,5,10,0:0:0:0:
292,317,156719,1,4,0:3:0:0:
476,242,156876,5,8,0:1:0:0:
220,229,157034,1,0,0:0:0:0:
455,290,157192,6,0,B|467:97,1,180.031268588755,14|2,0:1|0:0,0:0:0:0:
286,44,157666,1,8,0:0:0:0:
307,149,157824,2,0,P|359:149|355:116,1,90.0156342943774,2|8,0:0|0:1,0:0:0:0:
220,229,158140,2,0,L|114:211,1,90.0156342943774,8|0,0:0|0:0,0:0:0:0:
314,376,158456,1,2,0:0:0:0:
314,376,158614,2,0,B|332:236|332:236|287:305,1,180.031268588755,8|8,0:0|0:1,0:0:0:0:
470,86,159087,5,10,0:0:0:0:
338,33,159245,1,0,0:0:0:0:
279,162,159403,1,8,0:0:0:0:
404,142,159561,1,8,0:1:0:0:
232,259,159719,6,0,B|203:155|258:180|231:75,2,180.031268588755,14|2|10,0:1|0:0|0:0,0:0:0:0:
363,354,160509,2,0,P|308:351|322:323,1,90.0156342943774,0|10,0:0|0:1,0:0:0:0:
473,327,160824,1,8,0:0:0:0:
213,382,160982,2,0,L|223:293,1,90.0156342943774,2|8,0:0|0:0,0:0:0:0:
108,341,161298,2,0,L|98:252,1,90.0156342943774,10|0,0:1|0:0,0:0:0:0:
350,253,161614,2,0,L|360:164,1,90.0156342943774,10|8,0:0|0:3,0:0:0:0:
28,175,161930,2,0,L|18:86,1,90.0156342943774,6|8,0:3|0:3,0:0:0:0:
373,42,162246,6,0,P|309:84|304:10,1,180.031268588755,12|8,0:1|0:0,0:0:0:0:
373,42,162720,1,8,0:3:0:0:
232,58,162877,1,8,0:1:0:0:
91,74,163035,1,4,0:3:0:0:
257,95,163193,1,8,0:0:0:0:
423,116,163351,1,0,0:0:0:0:
156,145,163509,1,8,0:0:0:0:
156,145,163667,1,8,0:0:0:0:
404,176,163825,1,4,0:3:0:0:
404,176,163983,1,8,0:3:0:0:
145,204,164141,6,0,L|18:214,1,90.0156342943774,8|0,0:1|0:0,0:0:0:0:
417,256,164457,2,0,L|544:266,1,90.0156342943774,8|0,0:0|0:0,0:0:0:0:
135,351,164773,6,0,P|203:370|178:298,1,162.028141729879,12|0,0:1|0:0,0:0:0:0:
139,219,165088,5,8,0:3:0:0:
169,286,165246,1,8,0:0:0:0:
293,192,165404,5,10,0:1:0:0:
290,267,165562,1,4,0:3:0:0:
105,229,165720,5,8,0:0:0:0:
102,304,165878,1,8,0:3:0:0:
322,218,166036,5,10,0:1:0:0:
342,295,166194,1,4,0:3:0:0:
49,214,166352,5,8,0:0:0:0:
67,288,166510,1,8,0:3:0:0:
392,191,166668,5,10,0:1:0:0:
381,287,166826,1,4,0:3:0:0:
23,190,166983,5,8,0:0:0:0:
11,296,167141,1,8,0:3:0:0:
430,306,167299,6,0,B|315:378|199:317|143:276|222:226|309:204|384:291,1,441.076608042449,14|0,0:1|0:0,0:0:0:0:
154,368,167931,2,0,P|111:310|84:345,1,126.021888012128,8|0,0:0|0:0,0:0:0:0:
327,173,168247,1,14,0:1:0:0:
327,173,168326,1,0,0:0:0:0:
327,173,168405,1,8,0:0:0:0:
2,84,168563,6,0,P|40:125|16:72,1,161.999995056153,2|0,0:0|0:0,0:0:0:0:
135,267,168879,6,0,P|144:205|114:259,1,175.499991966248,14|0,0:1|0:0,0:0:0:0:
280,66,169194,6,0,P|270:130|301:74,1,182.250000695229,10|0,0:0|0:0,0:0:0:0:
360,352,169510,6,0,P|329:299|329:360,1,121.500000463486,10|8,0:1|0:0,0:0:0:0:
307,327,169747,1,0,0:0:0:0:
307,327,169826,6,0,B|434:310|380:358|509:351,1,198.03439544763,12|0,0:1|0:0,0:0:0:0:
216,360,170300,1,8,0:1:0:0:
49,335,170458,2,0,B|61:270|61:270|91:347,1,135.023451441566,8|0,0:0|0:0,0:0:0:0:
86,334,170774,1,12,0:1:0:0:
201,109,170932,2,0,P|139:40|134:131,1,234.040649165381,8|8,0:0|0:0,0:0:0:0:
319,183,171405,6,0,B|313:133|313:133|343:69|343:69|326:19,1,148.525796585723,14|0,0:1|0:0,0:0:0:0:
402,235,171721,2,0,B|374:296|374:296|393:330|393:330|426:266,1,175.530486874036,8|0,0:0|0:0,0:0:0:0:
485,179,172037,5,8,0:1:0:0:
137,194,172195,1,8,0:0:0:0:
137,194,172274,1,0,0:0:0:0:
137,194,172353,6,0,B|87:27|87:27|198:34|198:34|216:99,1,351.060973748072,14|8,0:1|0:1,0:0:0:0:
40,252,172985,2,0,B|23:352|23:352|47:359,1,117.020324582691,10|0,0:0|0:0,0:0:0:0:
291,340,173300,1,14,0:1:0:0:
132,328,173458,1,8,0:0:0:0:
135,106,173616,2,0,B|121:188|121:188|135:192,1,99.0171977238152,2|8,0:0|0:0,0:0:0:0:
423,190,173932,6,0,P|393:142|349:205,1,148.525796585723,14|0,0:1|0:0,0:0:0:0:
414,110,174248,2,0,P|451:57|493:106,1,148.525796585723,10|0,0:0|0:0,0:0:0:0:
411,19,174564,6,0,L|356:31,1,49.5085988619076,8|0,0:1|0:0,0:0:0:0:
102,75,174722,1,8,0:0:0:0:
102,75,174801,1,0,0:0:0:0:
102,75,174880,2,0,P|159:36|165:157,1,234.040649165381,14|0,0:1|0:0,0:0:0:0:
199,352,175353,1,8,0:1:0:0:
187,150,175511,2,0,P|167:217|185:226,1,108.018761153253,8|0,0:0|0:0,0:0:0:0:
370,288,175827,5,12,0:1:0:0:
370,288,175985,1,8,0:0:0:0:
495,221,176143,1,8,0:3:0:0:
119,310,176301,2,0,B|251:310|251:310|268:266,1,162.028141729879,8|0,0:0|0:0,0:0:0:0:
325,368,176617,5,4,0:3:0:0:
27,186,176775,2,0,B|172:186|172:186|190:137,1,175.530486874036,8|0,0:0|0:0,0:0:0:0:
130,89,177090,6,0,L|152:35,1,58.5101622913453,6|0,0:3|0:0,0:0:0:0:
0,34,177248,6,0,L|21:89,1,58.5101622913453
230,150,177406,6,0,B|353:108|383:175|467:225|512:-22|291:109,1,378.065664036385,12|8,0:1|0:1,0:0:0:0:
330,254,177959,1,0,0:0:0:0:
330,254,178038,2,0,P|401:265|354:301,1,126.021888012128,8|0,0:0|0:0,0:0:0:0:
10,303,178354,2,0,P|19:316|41:285,1,63.0109440060642,14|0,0:1|0:0,0:0:0:0:
129,366,178512,6,0,P|138:379|160:348,1,63.0109440060642,8|0,0:0|0:0,0:0:0:0:
238,258,178670,5,2,0:0:0:0:
238,26,178828,1,8,0:0:0:0:
131,251,178986,6,0,P|113:193|167:220,1,148.525796585723,14|0,0:1|0:0,0:0:0:0:
279,138,179301,2,0,B|320:132|320:132|403:172|403:172|451:168,1,175.530486874036,10|0,0:0|0:0,0:0:0:0:
444,168,179617,1,10,0:1:0:0:
101,114,179775,1,8,0:0:0:0:
412,289,179933,6,0,B|360:154|483:186|426:28,1,252.043776024257,12|0,0:1|0:0,0:0:0:0:
368,17,180328,1,0,0:0:0:0:
327,13,180407,2,0,P|304:46|318:62,1,63.0109440060642,8|0,0:1|0:0,0:0:0:0:
69,33,180565,1,8,0:0:0:0:
69,33,180644,1,0,0:0:0:0:
69,33,180723,5,0,0:0:0:0:
225,113,180881,1,12,0:1:0:0:
381,194,181039,2,0,L|172:220,1,198.03439544763,8|8,0:0|0:0,0:0:0:0:
14,354,181512,6,0,B|38:295|38:295|25:239|25:239|40:187,1,148.525796585723,14|0,0:1|0:0,0:0:0:0:
175,355,181828,2,0,B|188:324|188:324|278:360|278:360|302:311,1,162.028141729879,8|0,0:0|0:0,0:0:0:0:
451,292,182144,6,0,P|470:277|489:304,1,58.5101622913453,8|0,0:1|0:0,0:0:0:0:
289,254,182302,2,0,P|308:239|327:266,1,58.5101622913453,8|0,0:0|0:0,0:0:0:0:
492,371,182460,6,0,P|512:249|389:357,1,378.065664036385,14|8,0:1|0:1,0:0:0:0:
207,245,183013,1,0,0:0:0:0:
207,245,183092,2,0,P|144:223|187:172,1,126.021888012128,10|0,0:0|0:0,0:0:0:0:
424,139,183407,1,14,0:1:0:0:
424,139,183486,1,0,0:0:0:0:
424,139,183565,1,8,0:0:0:0:
120,60,183723,5,2,0:0:0:0:
120,60,183881,1,8,0:0:0:0:
342,89,184039,2,0,B|312:14|312:14|302:104,1,162.028141729879,14|0,0:1|0:0,0:0:0:0:
63,182,184355,2,0,B|68:198|68:198|188:174,1,108.018761153253,10|0,0:0|0:0,0:0:0:0:
314,322,184592,5,0,0:0:0:0:
314,322,184671,1,8,0:1:0:0:
206,306,184829,5,8,0:0:0:0:
0,276,184987,2,0,B|-35:245|-1:142|125:205|70:313,1,234.040649165381,14|12,0:1|0:0,0:0:0:0:
374,186,185460,1,8,0:1:0:0:
374,186,185539,1,0,0:0:0:0:
374,186,185618,2,0,B|384:87|384:87|312:81|312:81|307:138,1,189.032832018193,8|0,0:0|0:0,0:0:0:0:
205,71,185934,2,0,L|200:4,2,54.0093805766265,12|0|8,0:1|0:0|0:0,0:0:0:0:
138,363,186250,5,12,0:0:0:0:
98,208,186408,1,8,0:0:0:0:
287,174,186566,1,10,0:1:0:0:
256,300,186724,1,8,0:3:0:0:
13,198,186882,5,12,0:0:0:0:
13,198,187040,1,8,0:1:0:0:
339,252,187197,1,14,0:0:0:0:
170,288,187355,1,6,0:3:0:0:
496,342,187513,6,0,B|432:181|582:-115|559:143|428:161|316:98,1,472.582080045481,12|0,0:1|0:0,0:0:0:0:
252,298,188145,2,0,P|291:353|277:292,1,135.023451441566,10|0,0:0|0:0,0:0:0:0:
49,300,188461,1,14,0:1:0:0:
49,300,188540,1,0,0:0:0:0:
49,300,188619,1,8,0:0:0:0:
393,206,188777,6,0,L|199:214,1,175.530486874036,2|0,0:0|0:0,0:0:0:0:
57,188,189093,6,0,P|58:144|86:180,1,117.020324582691,14|0,0:1|0:0,0:0:0:0:
209,76,189329,1,0,0:0:0:0:
209,76,189408,6,0,P|239:41|237:89,1,121.521106297409,10|0,0:0|0:0,0:0:0:0:
453,13,189645,1,0,0:0:0:0:
453,13,189724,6,0,P|500:5|467:42,1,126.021888012128,10|8,0:1|0:0,0:0:0:0:
15,48,190040,6,0,L|123:66,2,107.999996704102,14|0|0,0:1|0:0|0:0,0:0:0:0:
345,35,190514,1,8,0:1:0:0:
111,204,190672,2,0,P|150:179|87:179,1,161.999995056153,8|0,0:0|0:0,0:0:0:0:
86,176,190988,1,12,0:1:0:0:
439,330,191146,2,0,B|371:359|371:359|387:253,1,175.499991966248,8|0,0:0|0:0,0:0:0:0:
297,293,191461,2,0,L|271:219,1,58.4999973220826,8|0,0:0|0:0,0:0:0:0:
453,48,191619,6,0,B|468:4|468:4|386:28|386:28|424:43,1,148.525796585723,14|0,0:1|0:0,0:0:0:0:
297,160,191935,2,0,B|249:103|249:103|183:152|183:152|220:190,1,162.028141729879,8|0,0:0|0:0,0:0:0:0:
63,97,192251,6,0,B|94:117|94:117|90:82,1,58.5101622913453,8|0,0:1|0:0,0:0:0:0:
512,135,192409,1,8,0:0:0:0:
512,135,192488,1,0,0:0:0:0:
512,135,192567,2,0,P|487:271|444:115,1,409.499981254578,14|0,0:1|0:0,0:0:0:0:
314,47,193199,2,0,B|247:2|247:2|292:79,1,161.999995056153,10|0,0:0|0:0,0:0:0:0:
214,149,193514,5,14,0:1:0:0:
25,118,193672,1,8,0:0:0:0:
24,370,193830,1,2,0:0:0:0:
217,330,193988,1,8,0:0:0:0:
105,128,194146,6,0,B|53:150|53:150|66:205|66:205|131:176,1,161.999995056153,14|0,0:1|0:0,0:0:0:0:
139,315,194462,2,0,B|87:293|87:293|100:238|100:238|165:267,1,161.999995056153,10|0,0:0|0:0,0:0:0:0:
24,370,194778,6,0,P|47:378|49:352,1,53.9999983520508,8|0,0:1|0:0,0:0:0:0:
310,347,194936,1,8,0:0:0:0:
310,347,195015,1,0,0:0:0:0:
310,347,195094,2,0,P|356:277|251:296,1,233.999989288331,14|0,0:1|0:0,0:0:0:0:
448,213,195567,1,8,0:1:0:0:
153,135,195725,2,0,P|194:150|175:112,1,107.999996704102,8|0,0:0|0:0,0:0:0:0:
0,383,196041,5,12,0:1:0:0:
253,280,196199,2,0,B|144:261|144:261|140:317,1,161.999995056153,8|0,0:0|0:0,0:0:0:0:
140,312,196515,1,8,0:0:0:0:
448,213,196673,2,0,B|451:173|451:173|379:162|379:162|375:218,1,161.999995056153,12|0,0:1|0:0,0:0:0:0:
412,287,196989,6,0,B|492:273|492:273|435:244,1,107.999996704102,12|8,0:3|0:1,0:0:0:0:
13,133,197305,2,0,B|62:124|62:124|27:106,1,62.9999980773926,12|0,0:3|0:0,0:0:0:0:
160,335,197462,5,2,0:0:0:0:
160,335,197541,1,0,0:0:0:0:
160,335,197620,2,0,B|224:180|48:282|92:-57|311:235|235:-51|155:-12,1,377.999988464356,14|8,0:1|0:1,0:0:0:0:
244,193,198173,1,0,0:0:0:0:
244,193,198252,2,0,P|279:211|255:154,1,135.000005149842,8|0,0:0|0:0,0:0:0:0:
8,69,198568,6,0,P|5:99|30:74,1,67.5000025749208,14|0,0:1|0:0,0:0:0:0:
40,177,198726,6,0,P|37:207|62:182,1,67.5000025749208,8|0,0:0|0:0,0:0:0:0:
104,305,198884,5,2,0:0:0:0:
104,19,199042,1,8,0:0:0:0:
77,376,199200,6,0,P|94:314|41:358,1,175.499991966248,14|0,0:1|0:0,0:0:0:0:
188,282,199515,2,0,B|173:229|173:229|266:282|266:282|304:230,1,188.999994232178,10|0,0:0|0:0,0:0:0:0:
281,260,199831,5,10,0:1:0:0:
35,214,199989,1,8,0:0:0:0:
315,371,200147,6,0,B|248:266|419:259|317:141,1,233.999989288331,14|0,0:1|0:0,0:0:0:0:
284,96,200542,1,0,0:0:0:0:
311,51,200621,2,0,P|340:48|312:63,1,58.5101622913453,8|0,0:1|0:0,0:0:0:0:
162,0,200779,1,8,0:0:0:0:
162,0,200858,1,2,0:0:0:0:
162,0,200937,1,0,0:0:0:0:
256,169,201095,5,12,0:1:0:0:
507,118,201253,2,0,B|457:68|457:68|391:117|391:117|432:165,1,198.000006042481,8|8,0:0|0:0,0:0:0:0:
89,384,201726,6,0,B|99:326|99:326|57:268|57:268|68:207,1,161.999995056153,14|0,0:1|0:0,0:0:0:0:
222,183,202042,2,0,B|233:120|233:120|195:67|195:67|288:60,1,168.75,8|0,0:0|0:0,0:0:0:0:
16,170,202358,6,0,B|59:158|59:158|31:157,1,56.25,8|0,0:1|0:0,0:0:0:0:
301,294,202516,2,0,B|344:282|344:282|316:281,1,56.25,8|0,0:0|0:0,0:0:0:0:
147,219,202674,6,0,B|183:191|247:181|343:203|268:318|371:365|450:328,1,364.500001390457,14|8,0:1|0:1,0:0:0:0:
512,247,203227,1,0,0:0:0:0:
512,247,203306,2,0,P|519:205|485:246,1,121.500000463486,10|0,0:0|0:0,0:0:0:0:
221,314,203621,1,14,0:1:0:0:
221,314,203779,1,8,0:0:0:0:
422,44,203937,5,2,0:0:0:0:
422,44,204016,1,0,0:0:0:0:
422,44,204095,1,8,0:0:0:0:
448,328,204253,2,0,B|421:368|421:368|356:330|356:330|393:269,1,155.250002961159,14|0,0:1|0:0,0:0:0:0:
305,126,204569,2,0,B|315:71|315:71|333:143,1,112.5,10|0,0:0|0:0,0:0:0:0:
372,218,204806,1,0,0:0:0:0:
372,218,204885,1,8,0:1:0:0:
90,209,205043,5,8,0:0:0:0:
372,218,205201,2,0,P|352:285|306:231,1,161.999995056153,12|0,0:1|0:0,0:0:0:0:
303,240,205516,5,12,0:0:0:0:
234,0,205674,2,0,P|217:34|224:31,1,107.999996704102,8|8,0:1|0:3,0:0:0:0:
166,329,205990,6,0,P|157:351|184:330,1,53.9999983520508,8|0,0:1|0:0,0:0:0:0:
188,107,206148,2,0,P|203:141|205:134,1,116.999994644165,12|0,0:1|0:0,0:0:0:0:
505,74,206464,5,12,0:0:0:0:
505,74,206622,1,8,0:0:0:0:
358,250,206780,2,0,B|338:147|338:147|374:172,1,148.50000453186,8|0,0:1|0:0,0:0:0:0:
316,29,207096,2,0,B|296:132|296:132|332:106,1,148.50000453186,12|0,0:3|0:0,0:0:0:0:
331,106,207412,1,8,0:1:0:0:
10,64,207569,1,8,0:3:0:0:
10,64,207648,1,0,0:0:0:0:
10,64,207727,6,0,L|254:44,1,216.037522306506,12|8,0:3|0:1,0:0:0:0:
442,240,208201,1,8,0:3:0:0:
442,240,208359,2,0,B|419:196|419:196|449:92|449:92|419:33,1,207.035958877068,12|12,0:1|0:3,0:0:0:0:
230,278,208833,1,0,0:0:0:0:
353,238,208991,1,12,0:1:0:0:
275,98,209149,1,8,0:0:0:0:
143,321,209307,2,0,P|201:353|174:302,1,155.250002961159,10|0,0:1|0:0,0:0:0:0:
65,273,209622,6,0,L|248:283,1,168.75,12|0,0:3|0:0,0:0:0:0:
65,273,209938,5,8,0:1:0:0:
460,141,210096,1,4,0:3:0:0:
487,184,210175,1,0,0:0:0:0:
470,235,210254,1,12,0:1:0:0:
256,192,210333,12,0,214676,0:0:0:0:
