osu file format v14

[General]
AudioFilename: 04._Summerhead.ogg
AudioLeadIn: 0
PreviewTime: 86897
Countdown: 0
SampleSet: Soft
StackLeniency: 0.5
Mode: 0
LetterboxInBreaks: 0
WidescreenStoryboard: 1

[Editor]
DistanceSpacing: 1
BeatDivisor: 4
GridSize: 32
TimelineZoom: 3.799999

[Metadata]
Title:Summerhead
TitleUnicode:Summerhead
Artist:Cocteau Twins
ArtistUnicode:Cocteau Twins
Creator:app
Version:Light insane
Source:
Tags:posydomojka Elizabeth Fraser dtm katayama mapping cancer sentrimaro koue venix aishiteiru- giyokon aeong dreampop dream pop ethereal rock english four-calendar café four calendar cafe
BeatmapID:4332034
BeatmapSetID:2066422

[Difficulty]
HPDrainRate:4.8
CircleSize:4
OverallDifficulty:8
ApproachRate:8.4
SliderMultiplier:1.5
SliderTickRate:2

[Events]
//Background and Video events
0,0,"350449.jpg",0,0
//Break Periods
//Storyboard Layer 0 (Background)
//Storyboard Layer 1 (Fail)
//Storyboard Layer 2 (Pass)
//Storyboard Layer 3 (Foreground)
//Storyboard Layer 4 (Overlay)
//Storyboard Sound Samples

[TimingPoints]
215,319.148936170213,4,2,1,40,1,0
534,315.844330857465,4,2,2,50,1,0
612,-100,4,2,1,50,0,0
20748,-100,4,2,2,50,0,0
20826,-100,4,2,1,50,0,0
30855,-100,4,2,2,50,0,0
30934,-100,4,2,1,50,0,0
40962,-80,4,2,2,60,0,0
41041,-80,4,2,1,60,0,0
43488,-80,4,2,2,60,0,0
43567,-80,4,2,1,60,0,0
46015,-80,4,2,2,60,0,0
46094,-80,4,2,1,60,0,0
48542,-80,4,2,2,60,0,0
48621,-80,4,2,1,60,0,0
51069,-80,4,2,2,60,0,0
51148,-80,4,2,1,60,0,0
53595,-80,4,2,2,60,0,0
53674,-80,4,2,1,60,0,0
56122,-80,4,2,2,60,0,0
56201,-80,4,2,1,60,0,0
58649,-80,4,2,2,60,0,0
58728,-80,4,2,1,60,0,0
61176,-100,4,2,2,50,0,0
61255,-100,4,2,1,50,0,0
70651,-100,4,2,2,50,0,0
70730,-100,4,2,1,50,0,0
80758,-100,4,2,2,50,0,0
80837,-100,4,2,1,50,0,0
81074,-100,4,2,2,50,0,0
81153,-100,4,2,1,50,0,0
81390,-100,4,2,2,50,0,0
81469,-100,4,2,1,50,0,0
91497,-100,4,2,2,50,0,0
91576,-100,4,2,1,50,0,0
101604,-80,4,2,2,60,0,0
101683,-80,4,2,1,60,0,0
104130,-80,4,2,2,60,0,0
104209,-80,4,2,1,60,0,0
106657,-80,4,2,2,60,0,0
106736,-80,4,2,1,60,0,0
109184,-80,4,2,2,60,0,0
109263,-80,4,2,1,60,0,0
111711,-80,4,2,2,60,0,0
111790,-80,4,2,1,60,0,0
114237,-80,4,2,2,60,0,0
114316,-80,4,2,1,60,0,0
116764,-80,4,2,2,60,0,0
116843,-80,4,2,1,60,0,0
119291,-80,4,2,2,60,0,0
119370,-80,4,2,1,60,0,0
121818,-80,4,2,2,60,0,0
121897,-80,4,2,1,60,0,0
124344,-80,4,2,2,60,0,0
124423,-80,4,2,1,60,0,0
126871,-80,4,2,2,60,0,0
126950,-80,4,2,1,60,0,0
129398,-80,4,2,2,60,0,0
129477,-80,4,2,1,60,0,0
131925,-80,4,2,2,60,0,0
132004,-80,4,2,1,60,0,0
134451,-80,4,2,2,60,0,0
134530,-80,4,2,1,60,0,0
136978,-80,4,2,2,60,0,0
137057,-80,4,2,1,60,0,0
139505,-80,4,2,2,60,0,0
139584,-80,4,2,1,60,0,0
139979,-80,4,2,2,60,0,0
140058,-80,4,2,1,60,0,0
140453,-80,4,2,2,60,0,0
140531,-80,4,2,1,60,0,0
140926,-80,4,2,2,60,0,0
141005,-80,4,2,1,60,0,0
141400,-80,4,2,2,60,0,0
141479,-80,4,2,1,60,0,0
142032,-100,4,2,2,50,0,0
142111,-100,4,2,1,50,0,0
144559,-100,4,2,2,50,0,0
144637,-100,4,2,1,50,0,0
147085,-100,4,2,2,50,0,0
147164,-100,4,2,1,50,0,0
149612,-100,4,2,2,50,0,0
149691,-100,4,2,1,50,0,0
152139,-100,4,2,2,50,0,0
152218,-100,4,2,1,50,0,0
154666,-100,4,2,2,50,0,0
154744,-100,4,2,1,50,0,0
157192,-100,4,2,2,50,0,0
157271,-100,4,2,1,50,0,0
159719,-100,4,2,2,50,0,0
159798,-100,4,2,1,50,0,0
162246,-100,4,2,2,50,0,0
162325,-100,4,2,1,50,0,0
164773,-100,4,2,2,50,0,0
164852,-100,4,2,1,50,0,0
166668,-100,4,2,1,55,0,0
167299,-75.187969924812,4,2,2,60,0,0
167378,-75.187969924812,4,2,1,60,0,0
169826,-75.187969924812,4,2,2,60,0,0
169905,-75.187969924812,4,2,1,60,0,0
172353,-75.187969924812,4,2,2,60,0,0
172432,-75.187969924812,4,2,1,60,0,0
174880,-75.187969924812,4,2,2,60,0,0
174959,-75.187969924812,4,2,1,60,0,0
177406,-75.187969924812,4,2,2,60,0,0
177485,-75.187969924812,4,2,1,60,0,0
179933,-75.187969924812,4,2,2,60,0,0
180012,-75.187969924812,4,2,1,60,0,0
182460,-75.187969924812,4,2,2,60,0,0
182539,-75.187969924812,4,2,1,60,0,0
184987,-75.187969924812,4,2,2,60,0,0
185066,-75.187969924812,4,2,1,60,0,0
187513,-75.187969924812,4,2,2,60,0,0
187592,-75.187969924812,4,2,1,60,0,0
190040,-75.187969924812,4,2,2,60,0,0
190119,-75.187969924812,4,2,1,60,0,0
192567,-75.187969924812,4,2,2,60,0,0
192646,-75.187969924812,4,2,1,60,0,0
195094,-75.187969924812,4,2,2,60,0,0
195173,-75.187969924812,4,2,1,60,0,0
196989,-75.187969924812,4,2,2,60,0,0
197068,-75.187969924812,4,2,1,60,0,0
197620,-75.187969924812,4,2,2,60,0,0
197699,-75.187969924812,4,2,1,60,0,0
200147,-75.187969924812,4,2,2,60,0,0
200226,-75.187969924812,4,2,1,60,0,0
202674,-75.187969924812,4,2,2,60,0,0
202753,-75.187969924812,4,2,1,60,0,0
205201,-75.187969924812,4,2,2,60,0,0
205280,-75.187969924812,4,2,1,60,0,0
206148,-75.187969924812,4,2,2,60,0,0
206227,-75.187969924812,4,2,1,60,0,0
207096,-75.187969924812,4,2,2,60,0,0
207175,-75.187969924812,4,2,1,60,0,0
207727,-75.187969924812,4,2,2,60,0,0
207806,-75.187969924812,4,2,1,60,0,0
208675,-75.187969924812,4,2,2,60,0,0
208754,-75.187969924812,4,2,1,60,0,0
209622,-75.187969924812,4,2,2,60,0,0
209701,-75.187969924812,4,2,1,60,0,0
210254,-75.187969924812,4,2,2,60,0,1
217203,-75.187969924812,4,2,1,5,0,0

[Colours]
Combo1 : 203,151,255
Combo2 : 0,255,255
Combo3 : 0,255,128

[HitObjects]
18,201,215,6,0,L|171:185,1,150,2|12,0:0|0:1,0:0:0:0:
185,154,692,1,0,0:0:0:0:
150,199,850,2,0,P|116:191|66:177,1,75,0|8,0:0|0:1,0:0:0:0:
5,217,1166,1,8,0:0:0:0:
5,217,1482,6,0,P|65:240|141:191,1,150,12|0,0:1|0:0,0:0:0:0:
180,146,1956,1,8,0:0:0:0:
240,192,2114,2,0,B|283:208|262:220|331:240,1,75,12|0,0:1|0:0,0:0:0:0:
376,263,2430,2,0,B|446:194|340:143,1,150,8|8,0:0|0:1,0:0:0:0:
272,95,2903,1,8,0:0:0:0:
340,42,3061,6,0,B|364:48|439:65|345:148,1,150,12|0,0:1|0:0,0:0:0:0:
264,111,3535,1,8,0:1:0:0:
171,139,3693,2,0,P|134:152|79:164,1,75,8|0,0:0|0:0,0:0:0:0:
242,195,4009,1,8,0:1:0:0:
351,171,4167,1,8,0:0:0:0:
434,232,4325,2,0,B|465:253|507:266,1,75,0|8,0:0|0:0,0:0:0:0:
490,347,4640,6,0,B|393:298|434:375|323:357,1,150,12|8,0:1|0:0,0:0:0:0:
222,331,5272,2,0,L|261:370,1,37.5,10|0,0:1|0:0,0:0:0:0:
171,340,5430,2,0,L|186:386,1,37.5,10|0,0:0|0:0,0:0:0:0:
149,299,5588,2,0,L|-4:289,2,150,12|0|8,0:1|0:0|0:0,0:0:0:0:
292,379,6536,5,8,0:1:0:0:
319,346,6693,2,0,B|242:308|319:214,1,150,8|8,0:0|0:0,0:0:0:0:
367,171,7167,1,12,0:1:0:0:
303,124,7325,1,0,0:0:0:0:
236,170,7483,2,0,P|162:145|103:159,1,112.5,8|0,0:0|0:0,0:0:0:0:
103,173,7799,6,0,L|118:242,1,37.5,10|0,0:1|0:0,0:0:0:0:
58,186,7957,2,0,L|35:247,1,37.5,10|0,0:0|0:0,0:0:0:0:
23,140,8115,2,0,L|185:110,2,150,12|0|8,0:1|0:0|0:0,0:0:0:0:
73,105,9062,1,8,0:1:0:0:
121,148,9220,2,0,P|167:170|268:153,1,150,8|8,0:0|0:0,0:0:0:0:
326,113,9694,6,0,B|341:73|295:50,1,75,8|4,0:3|0:3,0:0:0:0:
192,47,10010,1,8,0:0:0:0:
262,2,10168,1,0,0:0:0:0:
341,17,10326,1,10,0:3:0:0:
398,78,10484,1,6,0:3:0:0:
476,52,10641,5,12,0:1:0:0:
476,52,10957,2,0,P|467:110|466:142,1,75,0|8,0:0|0:1,0:0:0:0:
464,200,11273,1,8,0:0:0:0:
503,343,11589,6,0,P|502:292|495:259,1,75,12|8,0:1|0:0,0:0:0:0:
392,220,11905,2,0,P|393:271|400:304,1,75,0|8,0:0|0:0,0:0:0:0:
512,102,12221,2,0,B|497:147|443:176|374:135,1,150,12|8,0:1|0:0,0:0:0:0:
321,106,12694,1,0,0:0:0:0:
239,168,12852,1,8,0:1:0:0:
150,137,13010,1,8,0:0:0:0:
221,91,13168,5,12,0:1:0:0:
304,132,13326,1,8,0:0:0:0:
228,180,13484,2,0,P|182:172|135:166,1,75,0|8,0:0|0:1,0:0:0:0:
6,218,13800,6,0,B|82:211|64:259|159:273,1,150,8|8,0:0|0:1,0:0:0:0:
192,324,14274,2,0,B|261:283|341:325,1,150,8|8,0:0|0:0,0:0:0:0:
412,348,14747,1,12,0:1:0:0:
492,377,14905,1,0,0:0:0:0:
434,336,15063,1,8,0:0:0:0:
439,261,15221,1,0,0:0:0:0:
363,202,15379,6,0,L|371:257,1,37.5,10|0,0:1|0:0,0:0:0:0:
330,182,15537,2,0,L|319:242,1,37.5,2|0,0:0|0:0,0:0:0:0:
291,209,15695,2,0,L|121:263,2,150,12|0|8,0:1|0:0|0:0,0:0:0:0:
500,105,16643,5,8,0:1:0:0:
500,105,16800,2,0,L|444:173,1,75,8|0,0:0|0:0,0:0:0:0:
415,85,17116,1,8,0:0:0:0:
382,17,17274,2,0,B|347:68|272:61|236:99,1,150,12|8,0:1|0:0,0:0:0:0:
53,111,17906,6,0,L|40:161,1,37.5,10|0,0:1|0:0,0:0:0:0:
81,134,18064,2,0,L|81:180,1,37.5,10|0,0:0|0:0,0:0:0:0:
114,156,18222,2,0,L|256:217,2,150,12|0|8,0:1|0:0|0:0,0:0:0:0:
173,201,19169,2,0,L|254:178,1,75,8|8,0:1|0:0,0:0:0:0:
322,200,19485,5,8,0:3:0:0:
408,210,19643,1,4,0:3:0:0:
493,220,19801,1,8,0:1:0:0:
351,229,19959,5,8,0:3:0:0:
456,180,20117,1,8,0:0:0:0:
366,116,20275,1,8,0:1:0:0:
330,239,20433,2,0,L|314:288,1,37.5,6|0,0:3|0:0,0:0:0:0:
363,268,20591,2,0,L|348:326,1,37.5,6|0,0:3|0:0,0:0:0:0:
404,287,20748,6,0,B|473:314|496:264|518:202,1,150,12|0,0:1|0:0,0:0:0:0:
383,137,21222,1,8,0:1:0:0:
445,76,21380,2,0,P|452:38|485:4,1,75,8|0,0:0|0:0,0:0:0:0:
391,145,21696,1,8,0:1:0:0:
311,127,21854,6,0,P|268:116|240:95,1,75,8|0,0:0|0:0,0:0:0:0:
431,210,22170,2,0,P|442:243|437:288,1,75,8|12,0:0|0:1,0:0:0:0:
261,295,22486,1,0,0:0:0:0:
345,343,22644,2,0,P|271:341|219:288,1,150,8|8,0:0|0:1,0:0:0:0:
305,205,23117,1,8,0:0:0:0:
187,151,23275,6,0,P|121:181|40:60,1,225,12|8,0:1|0:1,0:0:0:0:
134,58,23907,2,0,P|139:133|138:213,1,150,8|8,0:0|0:1,0:0:0:0:
71,250,24381,1,8,0:0:0:0:
148,282,24539,1,0,0:0:0:0:
223,244,24697,1,8,0:0:0:0:
249,166,24854,2,0,B|244:168|248:166|247:104|320:110|285:7,1,150,12|8,0:1|0:0,0:0:0:0:
249,166,25486,6,0,P|242:138|224:119,1,37.5,10|0,0:1|0:0,0:0:0:0:
296,155,25644,2,0,P|296:138|295:104,1,37.5,10|0,0:0|0:0,0:0:0:0:
341,157,25802,2,0,P|354:77|420:1,1,150,12|0,0:1|0:0,0:0:0:0:
394,140,26276,2,0,P|409:172|423:232,1,75,8|8,0:1|0:0,0:0:0:0:
388,229,26750,5,8,0:1:0:0:
290,185,26907,2,0,P|284:231|264:279,1,75,8|0,0:0|0:0,0:0:0:0:
209,299,27223,1,8,0:0:0:0:
313,343,27381,2,0,P|387:352|468:388,2,150,12|8|10,0:1|0:0|0:1,0:0:0:0:
220,384,28171,1,8,0:0:0:0:
116,302,28329,5,12,0:1:0:0:
186,250,28487,2,0,P|200:297|189:362,1,112.5
163,377,28803,2,0,P|109:385|80:384,1,75,8|8,0:1|0:0,0:0:0:0:
13,276,29118,2,0,P|67:284|96:283,1,75,0|8,0:0|0:1,0:0:0:0:
257,198,29434,6,0,B|340:182|317:242|402:221,1,150,8|8,0:0|0:0,0:0:0:0:
485,211,29908,1,12,0:1:0:0:
398,184,30066,1,0,0:0:0:0:
438,266,30224,5,8,0:0:0:0:
507,192,30382,1,0,0:0:0:0:
512,113,30540,1,10,0:0:0:0:
487,57,30698,1,10,0:0:0:0:
455,23,30856,1,12,0:1:0:0:
455,23,31487,5,8,0:0:0:0:
512,83,31645,2,0,P|489:116|472:163,1,75,0|8,0:0|0:1,0:0:0:0:
381,109,31961,2,0,P|314:114|274:117,1,75,8|0,0:0|0:0,0:0:0:0:
238,158,32277,1,8,0:0:0:0:
171,105,32435,1,12,0:1:0:0:
95,147,32593,6,0,P|138:142|183:131,1,75,0|8,0:0|0:0,0:0:0:0:
256,53,32909,1,0,0:0:0:0:
121,35,33066,1,8,0:1:0:0:
106,162,33224,1,8,0:0:0:0:
246,180,33382,2,0,P|318:190|398:206,1,150,12|0,0:1|0:0,0:0:0:0:
481,222,33856,1,8,0:1:0:0:
440,286,34014,6,0,P|410:322|313:319,1,150,8|8,0:0|0:1,0:0:0:0:
247,279,34488,2,0,P|211:300|152:298,1,75,8|0,0:0|0:0,0:0:0:0:
107,307,34804,1,8,0:0:0:0:
36,359,34961,2,0,B|-6:337|27:283,1,75,12|0,0:1|0:0,0:0:0:0:
155,208,35277,2,0,P|149:154|143:123,1,75,8|0,0:0|0:0,0:0:0:0:
24,90,35593,2,0,B|-6:66|2:38|21:6,1,75,10|10,0:1|0:0,0:0:0:0:
36,207,35909,6,0,P|76:276|218:253,1,225,12|8,0:1|0:1,0:0:0:0:
325,208,36541,2,0,B|361:229|364:314|266:250|274:218,1,150,8|8,0:0|0:1,0:0:0:0:
185,160,37014,2,0,P|147:159|112:172,1,75,8|0,0:0|0:0,0:0:0:0:
239,48,37330,1,8,0:0:0:0:
327,113,37488,2,0,P|391:134|484:146,1,150,14|10,0:1|0:0,0:0:0:0:
492,4,37962,6,0,B|528:119|418:82|401:194,1,225,0|12,0:0|0:1,0:0:0:0:
489,321,38752,1,8,0:1:0:0:
511,283,38910,1,8,0:1:0:0:
426,259,39067,2,0,P|429:297|451:333,1,75,8|0,0:0|0:0,0:0:0:0:
512,363,39383,5,8,0:1:0:0:
390,384,39541,1,8,0:3:0:0:
316,291,39699,2,0,P|329:251|358:217,1,75,8|4,0:0|0:3,0:0:0:0:
439,172,40015,1,12,0:1:0:0:
306,91,40173,2,0,P|335:132|369:158,1,75,8|0,0:0|0:0,0:0:0:0:
237,199,40489,1,0,0:0:0:0:
148,189,40647,6,0,P|62:181|-11:170,1,150,10|12,0:0|0:1,0:0:0:0:
282,123,41278,1,0,0:0:0:0:
512,90,41594,1,10,0:0:0:0:
512,90,41910,2,0,P|460:79|413:73,1,93.75,14|8,0:1|0:0,0:0:0:0:
276,166,42226,2,0,P|315:174|369:184,2,93.75,2|8|14,0:0|0:0|0:1,0:0:0:0:
269,179,42858,6,0,P|217:120|261:18,1,187.5,10|8,0:0|0:1,0:0:0:0:
192,144,43331,1,8,0:0:0:0:
135,207,43489,2,0,P|120:227|141:275,6,46.875,12|0|0|0|0|0|8,0:1|0:0|0:0|0:0|0:0|0:0|0:1,0:0:0:0:
47,221,44121,2,0,P|19:173|7:105,1,93.75,8|0,0:0|0:0,0:0:0:0:
163,29,44437,6,0,P|136:76|141:221,1,187.5,12|0,0:1|0:0,0:0:0:0:
238,271,44911,1,8,0:0:0:0:
273,128,45069,2,0,P|230:169|213:204,1,93.75,12|0,0:1|0:0,0:0:0:0:
317,282,45384,2,0,P|397:271|511:264,1,187.5,8|8,0:0|0:1,0:0:0:0:
503,264,45858,6,0,B|521:222|521:222|479:185,1,93.75,8|12,0:0|0:1,0:0:0:0:
220,266,46332,1,0,0:0:0:0:
8,329,46648,1,10,0:0:0:0:
36,348,46806,1,0,0:0:0:0:
90,296,46964,5,14,0:1:0:0:
132,326,47121,1,8,0:0:0:0:
184,261,47279,1,2,0:0:0:0:
241,303,47437,1,8,0:0:0:0:
296,211,47595,2,0,B|351:283|254:306|251:383,1,187.5,14|10,0:1|0:0,0:0:0:0:
212,154,48227,6,0,P|186:123|215:61,1,93.75,8|8,0:1|0:0,0:0:0:0:
266,33,48543,1,12,0:1:0:0:
350,65,48701,1,0,0:0:0:0:
419,33,48859,1,0,0:0:0:0:
385,2,49017,1,8,0:1:0:0:
338,47,49174,2,0,P|332:121|331:162,1,93.75,8|0,0:0|0:0,0:0:0:0:
422,197,49490,5,12,0:1:0:0:
422,197,49569,1,0,0:0:0:0:
422,197,49648,2,0,B|326:294|272:134|154:239,1,281.25,8|12,0:0|0:1,0:0:0:0:
108,207,50280,1,0,0:0:0:0:
179,185,50438,1,8,0:0:0:0:
141,128,50596,1,8,0:1:0:0:
45,158,50754,2,0,L|14:173,1,23.4375,4|0,0:3|0:0,0:0:0:0:
0,265,51070,6,0,P|47:215|341:214,1,375,12|10,0:1|0:0,0:0:0:0:
346,278,52017,2,0,L|327:335,1,46.875,14|0,0:1|0:0,0:0:0:0:
405,354,52175,2,0,L|386:297,1,46.875,8|0,0:0|0:0,0:0:0:0:
450,301,52333,2,0,L|473:201,1,93.75,2|8,0:0|0:0,0:0:0:0:
360,8,52649,2,0,B|327:100|310:158|386:173,1,187.5,14|10,0:1|0:0,0:0:0:0:
255,47,53123,1,0,0:0:0:0:
183,70,53280,6,0,P|103:54|-6:29,1,187.5,8|12,0:1|0:1,0:0:0:0:
222,135,53912,1,0,0:0:0:0:
407,221,54228,1,8,0:0:0:0:
246,315,54544,2,0,L|254:385,6,46.875,12|0|8|0|0|0|8,0:1|0:0|0:0|0:0|0:0|0:0|0:0,0:0:0:0:
331,366,55176,2,0,P|407:369|459:326,1,140.625,12|0,0:1|0:0,0:0:0:0:
437,306,55491,5,8,0:0:0:0:
349,262,55649,1,0,0:0:0:0:
411,221,55807,2,0,L|416:193,1,23.4375,8|0,0:1|0:0,0:0:0:0:
355,159,55965,2,0,L|360:132,1,23.4375,8|0,0:0|0:0,0:0:0:0:
458,129,56123,6,0,L|62:40,1,375,12|10,0:1|0:0,0:0:0:0:
46,121,56913,1,0,0:0:0:0:
177,139,57071,2,0,L|276:174,1,93.75,14|8,0:1|0:0,0:0:0:0:
70,175,57386,2,0,L|31:262,1,93.75,2|8,0:0|0:0,0:0:0:0:
0,59,57702,2,0,B|111:20|111:20|57:78,1,187.5,14|10,0:1|0:0,0:0:0:0:
0,59,58176,5,0,0:0:0:0:
93,77,58334,2,0,L|311:126,1,187.5,8|12,0:1|0:1,0:0:0:0:
506,12,58966,1,12,0:0:0:0:
506,12,59124,1,8,0:1:0:0:
506,12,59282,1,8,0:0:0:0:
429,57,59439,5,8,0:3:0:0:
429,57,59597,1,12,0:1:0:0:
429,57,59755,1,8,0:0:0:0:
483,115,59913,5,12,0:0:0:0:
456,192,60071,1,8,0:0:0:0:
377,221,60229,1,8,0:1:0:0:
302,174,60387,1,8,0:3:0:0:
227,127,60545,1,12,0:0:0:0:
137,156,60703,1,8,0:1:0:0:
79,211,60861,1,12,0:0:0:0:
81,227,61019,1,6,0:3:0:0:
91,216,61177,6,0,P|79:138|44:-10,1,225,14|8,0:1|0:1,0:0:0:0:
36,76,61808,1,8,0:0:0:0:
233,96,62124,2,0,P|219:149|212:175,1,75,14|8,0:1|0:0,0:0:0:0:
273,224,62440,2,0,P|311:221|336:166,1,75,2|8,0:0|0:0,0:0:0:0:
356,15,62756,6,0,P|376:78|467:58,1,150,14|10,0:1|0:0,0:0:0:0:
450,78,63387,1,10,0:1:0:0:
494,12,63545,1,8,0:0:0:0:
450,57,63703,5,12,0:1:0:0:
497,111,63861,1,0,0:0:0:0:
436,178,64019,2,0,B|363:164|366:235|283:232,1,150,0|8,0:0|0:0,0:0:0:0:
93,202,64651,1,8,0:1:0:0:
19,233,64809,2,0,P|7:176|9:74,1,150,8|8,0:0|0:0,0:0:0:0:
105,209,65283,6,0,P|99:265|95:306,1,75,14|0,0:1|0:0,0:0:0:0:
11,347,65598,1,8,0:0:0:0:
89,368,65756,1,0,0:0:0:0:
167,338,65914,2,0,L|185:380,1,37.5,10|0,0:1|0:0,0:0:0:0:
236,318,66072,2,0,L|244:362,1,37.5,10|0,0:0|0:0,0:0:0:0:
313,337,66230,6,0,L|465:362,2,150,12|0|8,0:1|0:0|0:0,0:0:0:0:
463,315,67178,1,8,0:1:0:0:
361,367,67336,2,0,P|374:298|430:215,1,150,8|8,0:0|0:0,0:0:0:0:
294,121,67809,2,0,P|324:139|391:160,1,75,14|0,0:1|0:0,0:0:0:0:
265,218,68125,1,8,0:0:0:0:
211,184,68283,1,0,0:0:0:0:
142,209,68441,6,0,L|148:269,1,37.5,10|0,0:1|0:0,0:0:0:0:
82,199,68599,2,0,L|61:261,1,37.5,10|0,0:0|0:0,0:0:0:0:
16,163,68757,2,0,L|197:201,2,150,14|0|8,0:1|0:0|0:0,0:0:0:0:
203,96,69704,1,8,0:1:0:0:
285,157,69862,1,8,0:0:0:0:
285,157,70178,6,0,P|290:107|296:68,1,75,8|8,0:0|0:3,0:0:0:0:
242,32,70494,1,4,0:3:0:0:
259,184,70652,2,0,P|216:262|246:332,1,150,12|8,0:3|0:3,0:0:0:0:
96,356,71126,2,0,L|58:349,1,37.5,4|0,0:3|0:0,0:0:0:0:
116,309,71284,6,0,B|173:312|179:258|259:298,1,150,14|0,0:1|0:0,0:0:0:0:
296,370,71757,1,8,0:1:0:0:
377,372,71915,2,0,P|420:380|472:384,1,75,8|0,0:0|0:0,0:0:0:0:
494,246,72231,6,0,P|496:289|504:318,1,75,14|8,0:1|0:0,0:0:0:0:
345,197,72547,2,0,P|372:233|400:252,1,75,2|8,0:0|0:0,0:0:0:0:
244,168,72863,2,0,P|238:110|237:79,1,75,14|0,0:1|0:0,0:0:0:0:
250,7,73179,1,10,0:0:0:0:
250,7,73337,1,0,0:0:0:0:
316,39,73495,2,0,P|357:58|414:69,1,75,10|8,0:1|0:0,0:0:0:0:
184,51,73810,6,0,P|87:80|42:125,2,150,12|0|8,0:1|0:0|0:0,0:0:0:0:
363,152,74758,1,8,0:1:0:0:
398,172,74916,2,0,P|480:172|511:103,1,150,8|8,0:0|0:0,0:0:0:0:
444,56,75390,2,0,L|368:61,1,75,14|0,0:1|0:0,0:0:0:0:
243,113,75705,1,8,0:0:0:0:
162,133,75863,1,0,0:0:0:0:
235,147,76021,6,0,L|221:216,1,37.5,10|0,0:1|0:0,0:0:0:0:
301,142,76179,2,0,L|305:206,1,37.5,2|0,0:0|0:0,0:0:0:0:
372,160,76337,2,0,L|379:323,2,150,12|0|8,0:1|0:0|0:0,0:0:0:0:
255,70,77285,1,8,0:1:0:0:
255,70,77443,2,0,P|176:86|100:111,1,150,8|8,0:0|0:0,0:0:0:0:
161,62,77916,5,14,0:1:0:0:
223,104,78074,1,0,0:0:0:0:
172,159,78232,2,0,P|178:196|180:243,1,75,8|0,0:0|0:0,0:0:0:0:
76,307,78548,2,0,L|26:285,1,37.5,10|0,0:1|0:0,0:0:0:0:
106,345,78706,2,0,L|56:353,1,37.5,10|0,0:0|0:0,0:0:0:0:
151,362,78864,6,0,L|309:386,2,150,14|0|8,0:1|0:0|0:0,0:0:0:0:
391,323,79811,1,8,0:1:0:0:
421,342,79969,1,8,0:0:0:0:
481,316,80127,1,0,0:0:0:0:
459,247,80285,1,8,0:0:0:0:
387,253,80443,1,8,0:1:0:0:
219,373,80759,6,0,B|205:267|202:339|241:210,1,150,12|12,0:3|0:3,0:0:0:0:
256,153,81233,5,10,0:0:0:0:
256,153,81312,1,0,0:0:0:0:
256,153,81391,1,12,0:1:0:0:
382,78,81706,1,0,0:0:0:0:
481,142,82022,1,8,0:0:0:0:
481,142,82180,1,0,0:0:0:0:
268,110,82496,5,8,0:0:0:0:
92,184,82812,1,8,0:0:0:0:
26,148,82970,1,12,0:1:0:0:
69,116,83128,1,0,0:0:0:0:
61,158,83286,1,8,0:0:0:0:
260,185,83602,6,0,L|319:204,1,37.5,8|0,0:1|0:0,0:0:0:0:
332,149,83759,2,0,L|300:169,1,37.5,8|0,0:0|0:0,0:0:0:0:
331,232,83917,1,12,0:1:0:0:
372,213,84075,2,0,P|426:223|473:126,1,150,0|8,0:0|0:1,0:0:0:0:
484,242,84549,2,0,P|492:294|503:328,1,75,8|0,0:0|0:0,0:0:0:0:
493,364,84865,5,8,0:1:0:0:
493,364,85023,1,8,0:0:0:0:
412,345,85181,1,0,0:0:0:0:
341,372,85339,1,8,0:0:0:0:
382,301,85497,2,0,P|314:250|169:373,1,300,12|10,0:1|0:1,0:0:0:0:
185,368,86286,6,0,P|211:348|186:314,1,75,10|12,0:0|0:1,0:0:0:0:
5,282,86760,1,0,0:0:0:0:
35,252,86918,2,0,P|61:272|36:306,2,75,8|8|0,0:1|0:0|0:0,0:0:0:0:
114,204,87392,1,8,0:1:0:0:
209,193,87550,2,0,P|233:152|159:104,1,150,8|8,0:0|0:0,0:0:0:0:
240,223,88023,2,0,P|266:243|241:277,1,75,12|0,0:1|0:0,0:0:0:0:
353,191,88339,6,0,P|405:173|376:82,1,150,8|10,0:0|0:1,0:0:0:0:
389,230,88813,1,10,0:0:0:0:
444,319,88971,1,12,0:1:0:0:
316,317,89287,1,0,0:0:0:0:
327,195,89603,1,8,0:0:0:0:
372,236,89760,2,0,P|432:216|383:87,1,225
414,47,90550,6,0,P|429:79|393:85,1,75,12|0,0:1|0:0,0:0:0:0:
340,44,90866,1,8,0:0:0:0:
279,26,91024,1,0,0:0:0:0:
214,52,91182,6,0,L|223:111,1,37.5,10|0,0:0|0:0,0:0:0:0:
189,123,91340,2,0,L|201:184,1,37.5,10|0,0:0|0:0,0:0:0:0:
235,190,91498,2,0,P|340:254|238:381,1,300,12|8,0:1|0:0,0:0:0:0:
211,335,92445,5,8,0:1:0:0:
275,373,92603,2,0,P|340:363|380:357,1,75,8|0,0:0|0:0,0:0:0:0:
411,316,92919,2,0,P|402:265|394:222,1,75,8|12,0:0|0:1,0:0:0:0:
323,202,93235,1,0,0:0:0:0:
264,248,93393,1,8,0:0:0:0:
202,220,93551,1,0,0:0:0:0:
146,271,93709,6,0,P|96:283|-7:305,1,150,8|12,0:1|0:1,0:0:0:0:
267,45,94340,1,0,0:0:0:0:
137,286,94656,2,0,P|80:273|44:267,1,75,8|0,0:0|0:0,0:0:0:0:
362,62,95130,1,8,0:0:0:0:
416,131,95288,2,0,P|371:146|315:156,1,75,0|8,0:0|0:0,0:0:0:0:
313,176,95525,5,0,0:0:0:0:
313,176,95604,2,0,B|230:123|246:205|157:183,1,150,12|8,0:1|0:0,0:0:0:0:
103,216,96077,1,0,0:0:0:0:
18,163,96235,2,0,L|31:97,1,37.5,10|0,0:1|0:0,0:0:0:0:
80,132,96393,2,0,L|68:96,1,37.5,10|0,0:0|0:0,0:0:0:0:
140,110,96551,6,0,L|293:79,2,150,12|0|8,0:1|0:0|0:0,0:0:0:0:
203,76,97341,1,0,0:0:0:0:
423,161,97657,1,8,0:0:0:0:
349,186,97815,2,0,L|431:223,1,75,0|8,0:0|0:0,0:0:0:0:
319,161,98130,2,0,L|185:267,1,150,14|10,0:1|0:0,0:0:0:0:
444,363,98762,6,0,L|488:321,1,37.5,10|0,0:1|0:0,0:0:0:0:
412,332,98920,2,0,L|437:287,1,37.5,10|0,0:0|0:0,0:0:0:0:
372,311,99078,2,0,L|349:141,2,150,12|8|8,0:1|0:1|0:0,0:0:0:0:
304,378,100025,1,8,0:1:0:0:
304,378,100183,1,8,0:3:0:0:
234,333,100341,6,0,P|193:343|128:348,1,75,12|4,0:0|0:3,0:0:0:0:
86,307,100657,1,8,0:1:0:0:
148,246,100815,2,0,P|111:211|90:179,1,75,12|4,0:0|0:3,0:0:0:0:
183,106,101131,1,8,0:0:0:0:
109,67,101289,1,12,0:0:0:0:
186,124,101447,1,6,0:3:0:0:
285,88,101605,6,0,B|363:17|357:226|452:164,1,187.5,12|0,0:1|0:0,0:0:0:0:
468,119,102078,1,8,0:1:0:0:
468,119,102236,2,0,P|453:51|434:10,1,93.75,10|0,0:0|0:0,0:0:0:0:
493,199,102552,6,0,P|490:250|466:358,1,140.625,14|0,0:1|0:0,0:0:0:0:
448,355,102868,1,2,0:0:0:0:
471,277,103026,1,8,0:0:0:0:
395,273,103184,2,0,P|407:329|425:375,1,93.75,14|0,0:1|0:0,0:0:0:0:
354,206,103500,2,0,B|347:144|245:83|215:153|253:179|277:162,1,187.5,10|8,0:0|0:1,0:0:0:0:
374,123,103973,1,8,0:0:0:0:
404,52,104131,6,0,P|400:24|353:9,6,46.875,12|0|0|0|0|0|8,0:1|0:0|0:0|0:0|0:0|0:0|0:1,0:0:0:0:
313,72,104763,2,0,P|267:51|189:75,1,93.75,8|0,0:0|0:0,0:0:0:0:
101,120,105079,2,0,L|297:78,1,187.5,12|0,0:1|0:0,0:0:0:0:
374,123,105553,1,8,0:0:0:0:
325,197,105711,2,0,L|229:178,1,93.75,12|0,0:1|0:0,0:0:0:0:
111,229,106026,6,0,B|61:262|42:310|118:378,1,140.625,8|0,0:0|0:0,0:0:0:0:
134,357,106342,2,0,B|174:326|239:261|134:185,1,187.5,8|12,0:1|0:1,0:0:0:0:
203,163,106816,1,0,0:0:0:0:
258,166,106974,1,0,0:0:0:0:
238,115,107132,1,8,0:1:0:0:
180,111,107290,1,10,0:0:0:0:
233,42,107448,5,0,0:0:0:0:
281,84,107606,1,14,0:1:0:0:
332,81,107764,1,8,0:0:0:0:
320,14,107922,1,2,0:0:0:0:
411,21,108079,1,8,0:0:0:0:
371,93,108237,2,0,P|371:190|372:285,1,187.5,14|10,0:1|0:0,0:0:0:0:
373,372,108711,1,0,0:0:0:0:
472,340,108869,6,0,L|522:376,1,46.875,8|0,0:1|0:0,0:0:0:0:
454,315,109027,2,0,L|493:273,1,46.875,8|0,0:0|0:0,0:0:0:0:
413,346,109185,2,0,B|305:294|350:379|231:381,1,187.5,12|0,0:1|0:0,0:0:0:0:
189,331,109659,1,8,0:1:0:0:
117,360,109817,2,0,P|90:361|-1:357,1,93.75,8|0,0:0|0:0,0:0:0:0:
128,286,110132,6,0,P|116:226|111:187,1,93.75,12|8,0:1|0:0,0:0:0:0:
258,294,110448,2,0,P|268:240|274:181,1,93.75,8|8,0:3|0:0,0:0:0:0:
270,367,110764,2,0,P|326:370|385:368,1,93.75,12|4,0:1|0:3,0:0:0:0:
443,284,111080,1,8,0:0:0:0:
388,195,111238,1,8,0:1:0:0:
308,192,111396,1,4,0:3:0:0:
260,252,111554,1,2,0:0:0:0:
349,272,111712,6,0,P|425:262|427:11,1,375,12|10,0:1|0:0,0:0:0:0:
340,22,112501,1,0,0:0:0:0:
244,83,112659,2,0,P|289:91|344:109,2,93.75,14|8|2,0:1|0:0|0:0,0:0:0:0:
184,124,113133,1,8,0:0:0:0:
125,165,113291,2,0,P|27:113|50:31,1,187.5,14|10,0:1|0:0,0:0:0:0:
107,90,113765,1,0,0:0:0:0:
52,142,113923,6,0,P|43:200|34:249,1,93.75,8|8,0:1|0:0,0:0:0:0:
54,257,114159,1,0,0:0:0:0:
54,257,114238,1,12,0:1:0:0:
142,297,114396,1,0,0:0:0:0:
230,298,114554,2,0,P|261:318|284:304,4,46.875,0|0|8|0|8,0:0|0:0|0:1|0:0|0:0,0:0:0:0:
281,246,115028,1,0,0:0:0:0:
340,200,115186,6,0,P|393:166|384:52,1,187.5,12|0,0:1|0:0,0:0:0:0:
297,97,115660,1,8,0:0:0:0:
386,129,115818,2,0,P|431:151|480:181,1,93.75,12|0,0:1|0:0,0:0:0:0:
387,271,116133,2,0,P|432:249|481:219,1,93.75,8|0,0:0|0:0,0:0:0:0:
301,205,116449,6,0,L|284:272,1,46.875,8|0,0:1|0:0,0:0:0:0:
290,315,116607,2,0,L|317:386,1,46.875,8|0,0:0|0:0,0:0:0:0:
372,288,116765,2,0,B|316:253|255:291|181:264,1,187.5,12|0,0:1|0:0,0:0:0:0:
126,221,117239,1,8,0:1:0:0:
21,263,117397,6,0,L|225:242,1,187.5,10|14,0:0|0:1,0:0:0:0:
358,272,117871,2,0,L|476:289,2,93.75,8|2|8,0:0|0:0|0:0,0:0:0:0:
449,183,118344,2,0,L|357:197,1,93.75,14|0,0:1|0:0,0:0:0:0:
236,237,118660,1,10,0:0:0:0:
314,282,118818,1,0,0:0:0:0:
334,174,118976,1,8,0:1:0:0:
224,139,119134,1,8,0:0:0:0:
197,255,119292,5,12,0:1:0:0:
297,290,119450,1,0,0:0:0:0:
395,246,119608,2,0,P|305:260|260:181,1,187.5,12|8,0:0|0:0,0:0:0:0:
213,269,120082,1,8,0:3:0:0:
53,227,120239,1,12,0:1:0:0:
126,284,120397,1,8,0:0:0:0:
161,208,120555,6,0,L|152:153,3,46.875,12|0|8|0,0:0|0:0|0:0|0:0,0:0:0:0:
213,269,120871,2,0,L|266:177,1,93.75,8|8,0:1|0:3,0:0:0:0:
328,101,121187,2,0,L|495:16,1,187.5,12|12,0:0|0:0,0:0:0:0:
380,104,121661,1,6,0:3:0:0:
278,70,121819,6,0,L|59:132,1,187.5,12|0,0:1|0:0,0:0:0:0:
228,114,122292,2,0,L|122:71,1,93.75,8|10,0:1|0:0,0:0:0:0:
162,166,122608,1,0,0:0:0:0:
237,193,122766,2,0,L|258:301,1,93.75,14|8,0:1|0:0,0:0:0:0:
141,343,123082,6,0,P|39:315|21:383,1,187.5,2|14,0:0|0:1,0:0:0:0:
164,383,123556,1,0,0:0:0:0:
236,363,123714,2,0,P|288:355|348:350,1,93.75,10|0,0:0|0:0,0:0:0:0:
479,323,124030,2,0,L|380:292,1,93.75,10|8,0:1|0:0,0:0:0:0:
271,265,124345,6,0,B|193:136|413:154|336:18,1,281.25,12|8,0:1|0:1,0:0:0:0:
309,73,124977,2,0,P|295:137|318:191,1,93.75,8|0,0:0|0:0,0:0:0:0:
175,182,125293,2,0,L|83:165,1,93.75,12|8,0:1|0:0,0:0:0:0:
18,21,125609,1,0,0:0:0:0:
114,96,125767,1,8,0:0:0:0:
154,52,125925,2,0,P|101:48|34:81,1,93.75,12|0,0:1|0:0,0:0:0:0:
211,107,126241,6,0,L|395:146,1,187.5,8|8,0:0|0:0,0:0:0:0:
445,103,126714,1,8,0:1:0:0:
486,187,126872,1,12,0:1:0:0:
395,197,127030,1,0,0:0:0:0:
349,113,127188,1,0,0:0:0:0:
418,148,127346,1,8,0:1:0:0:
301,186,127504,6,0,P|239:212|200:229,1,93.75,10|0,0:0|0:0,0:0:0:0:
247,288,127820,2,0,P|225:351|209:389,1,93.75,14|8,0:1|0:0,0:0:0:0:
145,311,128136,2,0,P|102:329|59:348,1,93.75,2|8,0:0|0:0,0:0:0:0:
145,158,128451,2,0,P|127:201|113:246,1,93.75,14|0,0:1|0:0,0:0:0:0:
214,222,128767,1,10,0:0:0:0:
251,136,128925,1,0,0:0:0:0:
131,135,129083,6,0,L|148:91,1,46.875,8|0,0:1|0:0,0:0:0:0:
217,115,129241,2,0,L|231:70,1,46.875,8|0,0:0|0:0,0:0:0:0:
279,163,129399,2,0,L|258:318,1,140.625,12|0,0:1|0:0,0:0:0:0:
246,355,129715,2,0,P|206:297|154:269,1,93.75,0|8,0:0|0:1,0:0:0:0:
10,384,130031,2,0,P|46:331|162:261,1,187.5,8|12,0:0|0:1,0:0:0:0:
58,203,130504,1,8,0:0:0:0:
159,158,130662,6,0,L|273:188,1,93.75,8|8,0:3|0:0,0:0:0:0:
311,237,130978,1,12,0:1:0:0:
278,165,131136,1,4,0:3:0:0:
435,131,131294,2,0,L|327:181,1,93.75,8|8,0:0|0:1,0:0:0:0:
426,291,131610,2,0,L|417:334,1,23.4375,4|0,0:3|0:0,0:0:0:0:
352,329,131768,2,0,L|341:369,1,23.4375,2|0,0:0|0:0,0:0:0:0:
274,367,131926,6,0,P|147:348|105:117,1,375,12|10,0:1|0:0,0:0:0:0:
237,113,132715,1,0,0:0:0:0:
173,57,132873,1,14,0:1:0:0:
93,96,133031,1,8,0:0:0:0:
154,138,133189,2,0,P|156:203|134:260,1,93.75,2|8,0:0|0:0,0:0:0:0:
0,262,133505,6,0,B|24:190|72:228|48:293|163:325,1,187.5,14|10,0:1|0:0,0:0:0:0:
236,264,133979,1,0,0:0:0:0:
295,314,134137,2,0,P|336:293|311:250,1,93.75,8|10,0:1|0:0,0:0:0:0:
466,341,134452,6,0,P|481:255|453:132,1,187.5,12|0,0:1|0:0,0:0:0:0:
415,82,134926,1,8,0:1:0:0:
487,20,135084,1,8,0:0:0:0:
493,95,135242,1,0,0:0:0:0:
385,9,135400,2,0,P|338:49|277:65,1,93.75,12|8,0:1|0:0,0:0:0:0:
213,30,135716,6,0,P|260:70|321:86,1,93.75,0|8,0:0|0:0,0:0:0:0:
372,135,136032,2,0,P|302:104|162:95,1,187.5,12|8,0:1|0:0,0:0:0:0:
331,157,136505,1,0,0:0:0:0:
312,244,136663,2,0,L|322:305,3,46.875,8|0|8|0,0:1|0:0|0:0|0:0,0:0:0:0:
270,295,136979,6,0,P|253:311|269:356,6,46.875,12|0|0|0|0|0|8,0:1|0:0|0:0|0:0|0:0|0:0|0:1,0:0:0:0:
345,363,137611,2,0,P|431:361|476:342,1,93.75,10|0,0:0|0:0,0:0:0:0:
499,288,137927,1,14,0:1:0:0:
499,288,138006,1,0,0:0:0:0:
499,288,138085,1,8,0:0:0:0:
427,245,138243,1,2,0:0:0:0:
444,174,138401,1,8,0:0:0:0:
363,140,138558,6,0,B|331:164|314:184|326:259,1,93.75,14|0,0:1|0:0,0:0:0:0:
284,109,138874,2,0,B|261:169|157:191|105:141,1,187.5,10|8,0:0|0:1,0:0:0:0:
88,80,139348,1,8,0:0:0:0:
146,22,139506,1,12,0:1:0:0:
186,35,139664,1,0,0:0:0:0:
291,6,139822,5,12,0:0:0:0:
339,67,139980,1,12,0:1:0:0:
395,55,140138,1,8,0:0:0:0:
460,113,140296,5,8,0:3:0:0:
385,170,140453,1,12,0:1:0:0:
406,212,140611,1,8,0:0:0:0:
327,281,140769,5,12,0:0:0:0:
374,353,140927,1,12,0:1:0:0:
290,379,141085,1,0,0:0:0:0:
237,311,141243,1,8,0:3:0:0:
151,340,141401,1,12,0:1:0:0:
73,384,141559,1,0,0:0:0:0:
0,326,141717,1,12,0:0:0:0:
84,287,141875,1,4,0:3:0:0:
94,195,142033,6,0,P|100:128|91:16,1,150,12|0,0:1|0:0,0:0:0:0:
70,101,142506,1,8,0:1:0:0:
171,146,142664,2,0,P|189:99|197:57,2,75,10|2|12,0:0|0:0|0:1,0:0:0:0:
208,226,143138,2,0,P|261:167|296:77,1,150,10|10,0:0|0:0,0:0:0:0:
333,211,143612,2,0,P|361:179|387:143,1,75,12|0,0:1|0:0,0:0:0:0:
484,247,143928,6,0,P|412:265|342:298,1,150,10|8,0:0|0:1,0:0:0:0:
425,353,144402,2,0,P|372:348|335:342,2,75,10|12|0,0:0|0:1|0:0,0:0:0:0:
309,292,144875,2,0,P|227:284|138:312,1,150,0|8,0:0|0:0,0:0:0:0:
10,378,145507,5,8,0:1:0:0:
91,359,145665,2,0,P|61:303|49:193,1,150,10|10,0:0|0:0,0:0:0:0:
133,203,146139,2,0,P|131:166|126:125,1,75,12|0,0:1|0:0,0:0:0:0:
47,72,146455,1,10,0:0:0:0:
100,19,146612,1,8,0:3:0:0:
180,61,146770,1,8,0:1:0:0:
144,101,146928,1,8,0:0:0:0:
115,42,147086,6,0,B|265:63|261:85|420:118,1,300,12|8,0:1|0:0,0:0:0:0:
431,95,147876,1,0,0:0:0:0:
399,81,148034,1,8,0:1:0:0:
434,135,148192,1,8,0:0:0:0:
504,72,148350,1,0,0:0:0:0:
434,48,148508,1,8,0:0:0:0:
486,137,148665,1,12,0:1:0:0:
381,138,148981,6,0,P|330:161|301:182,1,75,8|8,0:0|0:1,0:0:0:0:
314,171,149297,2,0,P|319:109|323:76,1,75,8|8,0:1|0:0,0:0:0:0:
416,209,149613,6,0,P|259:229|117:255,1,300,14|10,0:1|0:0,0:0:0:0:
98,271,150561,2,0,P|189:274|256:287,2,150,10|2|10,0:1|0:0|0:1,0:0:0:0:
135,250,151508,2,0,P|122:174|114:164,1,75,8|0,0:0|0:0,0:0:0:0:
124,177,151824,2,0,L|140:91,1,75,8|8,0:1|0:0,0:0:0:0:
221,44,152140,5,12,0:1:0:0:
221,44,152219,1,0,0:0:0:0:
221,44,152298,1,0,0:0:0:0:
357,172,152614,1,8,0:1:0:0:
422,131,152771,2,0,P|462:87|470:51,1,75,10|0,0:0|0:0,0:0:0:0:
422,223,153087,6,0,P|475:251|447:348,1,150,12|2,0:1|0:0,0:0:0:0:
398,356,153561,1,10,0:0:0:0:
351,331,153719,2,0,B|256:314|301:359|172:334,1,150,12|8,0:1|0:0,0:0:0:0:
38,327,154193,1,0,0:0:0:0:
100,359,154351,1,8,0:1:0:0:
158,301,154509,1,8,0:0:0:0:
88,259,154666,2,0,L|93:289,12,18.75,14|0|0|0|8|0|0|0|0|0|0|0|8,0:1|0:0|0:0|0:0|0:0|0:0|0:0|0:0|0:0|0:0|0:0|0:0|0:1,0:0:0:0:
146,204,155298,6,0,P|203:242|301:236,1,150,10|8,0:0|0:1,0:0:0:0:
362,178,155772,1,10,0:0:0:0:
494,229,155930,2,0,P|449:225|391:218,1,75,2|8,0:0|0:0,0:0:0:0:
498,114,156246,2,0,P|453:118|395:125,1,75,14|8,0:1|0:0,0:0:0:0:
336,184,156562,1,10,0:0:0:0:
362,271,156719,2,0,P|324:267|287:263,1,75,4|8,0:3|0:1,0:0:0:0:
307,107,157035,2,0,P|269:102|232:99,1,75,0|14,0:0|0:1,0:0:0:0:
0,192,157509,5,2,0:0:0:0:
96,192,157667,2,0,L|0:160,1,75,8|2,0:0|0:0,0:0:0:0:
160,192,157983,1,8,0:1:0:0:
256,192,158141,2,0,L|160:224,1,75,8|0,0:0|0:0,0:0:0:0:
320,192,158457,5,2,0:0:0:0:
416,192,158615,1,8,0:0:0:0:
512,192,158772,1,10,0:1:0:0:
448,224,158930,1,8,0:1:0:0:
384,160,159088,5,10,0:0:0:0:
448,128,159246,1,0,0:0:0:0:
352,224,159404,1,8,0:0:0:0:
256,160,159562,1,8,0:1:0:0:
160,192,159720,5,14,0:1:0:0:
32,192,160036,1,2,0:0:0:0:
160,224,160352,1,10,0:0:0:0:
288,192,160668,1,10,0:1:0:0:
448,160,160983,5,2,0:0:0:0:
320,224,161299,1,10,0:1:0:0:
160,192,161615,1,10,0:0:0:0:
288,160,161931,2,0,L|256:64,1,75,6|8,0:3|0:3,0:0:0:0:
40,51,162247,1,12,0:1:0:0:
129,33,162563,5,8,0:0:0:0:
129,33,162721,1,8,0:3:0:0:
129,33,162878,1,8,0:1:0:0:
129,33,163036,1,4,0:3:0:0:
193,80,163194,1,8,0:0:0:0:
103,127,163510,5,8,0:0:0:0:
103,127,163668,1,8,0:0:0:0:
103,127,163826,1,4,0:3:0:0:
103,127,163984,1,8,0:3:0:0:
195,191,164142,2,0,P|256:209|294:228,1,75,8|0,0:1|0:0,0:0:0:0:
266,213,164458,2,0,L|274:306,1,75,8|0,0:0|0:0,0:0:0:0:
239,357,164774,5,12,0:1:0:0:
395,328,165089,1,8,0:3:0:0:
384,317,165247,1,8,0:0:0:0:
423,301,165405,5,10,0:1:0:0:
431,345,165563,1,4,0:3:0:0:
371,364,165721,1,8,0:0:0:0:
332,315,165879,1,8,0:3:0:0:
382,260,166037,5,10,0:1:0:0:
458,282,166195,1,4,0:3:0:0:
512,219,166353,1,8,0:0:0:0:
457,155,166511,1,8,0:3:0:0:
358,188,166669,5,10,0:1:0:0:
293,116,166827,5,4,0:3:0:0:
355,34,166984,5,8,0:0:0:0:
445,55,167142,5,8,0:3:0:0:
473,171,167300,6,0,B|398:262|539:276|449:389,1,199.499991780854,14|0,0:1|0:0,0:0:0:0:
317,275,167774,1,8,0:1:0:0:
175,272,167932,2,0,L|167:400,1,99.7499958904268,8|0,0:0|0:0,0:0:0:0:
32,268,168248,2,0,L|42:153,1,99.7499958904268,14|8,0:1|0:0,0:0:0:0:
156,185,168564,2,0,L|402:208,3,199.499991780854,2|14|10|10,0:0|0:1|0:0|0:1,0:0:0:0:
452,275,169669,1,8,0:0:0:0:
493,168,169827,6,0,P|509:149|496:107,6,49.8749979452134,12|0|0|0|0|0|8,0:1|0:0|0:0|0:0|0:0|0:0|0:1,0:0:0:0:
432,69,170459,2,0,L|310:105,1,99.7499958904268,8|0,0:0|0:0,0:0:0:0:
171,157,170775,6,0,P|241:107|370:140,1,199.499991780854,12|0,0:1|0:0,0:0:0:0:
266,189,171248,1,8,0:0:0:0:
159,144,171406,2,0,B|64:69|27:255|-49:122|19:144,1,199.499991780854,14|8,0:1|0:0,0:0:0:0:
138,225,171880,1,0,0:0:0:0:
275,204,172038,2,0,P|326:195|391:186,1,99.7499958904268,8|8,0:1|0:0,0:0:0:0:
418,211,172275,5,0,0:0:0:0:
418,211,172354,1,14,0:1:0:0:
493,233,172512,1,0,0:0:0:0:
366,149,172670,1,0,0:0:0:0:
327,85,172828,1,8,0:1:0:0:
241,43,172985,6,0,P|242:142|243:162,1,99.7499958904268,10|0,0:0|0:0,0:0:0:0:
304,299,173301,2,0,P|304:249|302:199,1,99.7499958904268,14|8,0:1|0:0,0:0:0:0:
141,95,173617,2,0,P|163:140|208:193,1,99.7499958904268,2|8,0:0|0:0,0:0:0:0:
192,303,173933,2,0,P|151:255|100:212,1,99.7499958904268,14|0,0:1|0:0,0:0:0:0:
34,338,174249,1,10,0:0:0:0:
97,367,174407,1,0,0:0:0:0:
94,294,174565,1,8,0:1:0:0:
51,225,174723,1,8,0:0:0:0:
92,157,174881,5,14,0:1:0:0:
96,79,175038,1,0,0:0:0:0:
28,115,175196,1,0,0:0:0:0:
162,125,175354,1,8,0:1:0:0:
209,200,175512,2,0,L|344:187,1,99.7499958904268,8|0,0:0|0:0,0:0:0:0:
430,250,175828,1,12,0:1:0:0:
430,250,175907,1,0,0:0:0:0:
430,250,175986,1,8,0:0:0:0:
471,341,176144,6,0,P|417:326|364:328,1,99.7499958904268,8|8,0:3|0:0,0:0:0:0:
508,263,176460,1,12,0:1:0:0:
472,179,176618,2,0,P|418:194|365:192,1,99.7499958904268,4|8,0:3|0:0,0:0:0:0:
438,279,176934,1,8,0:1:0:0:
385,156,177091,2,0,B|307:163|322:110|231:122,1,149.62499383564,6|0,0:3|0:0,0:0:0:0:
225,137,177407,6,0,P|222:219|325:240,1,199.499991780854,12|0,0:1|0:0,0:0:0:0:
354,131,177881,1,8,0:1:0:0:
273,73,178039,2,0,P|229:92|140:116,1,99.7499958904268,8|0,0:0|0:0,0:0:0:0:
78,166,178355,2,0,L|8:156,1,49.8749979452134,14|0,0:1|0:0,0:0:0:0:
99,196,178513,2,0,L|57:232,1,49.8749979452134,8|0,0:0|0:0,0:0:0:0:
140,216,178671,2,0,L|115:334,1,99.7499958904268,2|8,0:0|0:0,0:0:0:0:
239,384,178987,2,0,P|271:338|252:192,1,199.499991780854,14|10,0:1|0:0,0:0:0:0:
192,155,179460,1,0,0:0:0:0:
274,119,179618,5,10,0:1:0:0:
351,165,179776,1,8,0:0:0:0:
455,156,179934,2,0,L|384:83,1,99.7499958904268,12|0,0:1|0:0,0:0:0:0:
457,236,180250,2,0,L|386:309,1,99.7499958904268,0|8,0:0|0:1,0:0:0:0:
266,203,180566,1,8,0:0:0:0:
345,150,180724,5,0,0:0:0:0:
268,105,180882,2,0,L|142:68,1,99.7499958904268,12|8,0:1|0:0,0:0:0:0:
266,222,181197,2,0,L|140:259,1,99.7499958904268,0|8,0:0|0:0,0:0:0:0:
93,117,181513,1,14,0:1:0:0:
96,214,181671,1,0,0:0:0:0:
22,167,181829,1,8,0:0:0:0:
168,171,181987,1,0,0:0:0:0:
241,142,182145,6,0,L|225:93,1,49.8749979452134,8|0,0:1|0:0,0:0:0:0:
317,192,182303,2,0,L|301:241,1,49.8749979452134,8|0,0:0|0:0,0:0:0:0:
414,179,182461,2,0,B|611:243|500:79|398:188|378:276,1,299.24998767128,14|8,0:1|0:1,0:0:0:0:
490,383,183092,2,0,P|484:333|472:271,1,99.7499958904268,10|0,0:0|0:0,0:0:0:0:
382,353,183408,5,14,0:1:0:0:
292,333,183566,1,8,0:0:0:0:
222,381,183724,1,2,0:0:0:0:
135,332,183882,1,8,0:0:0:0:
47,367,184040,2,0,L|26:255,1,99.7499958904268,14|0,0:1|0:0,0:0:0:0:
223,208,184356,2,0,P|226:251|202:320,1,99.7499958904268,10|0,0:0|0:0,0:0:0:0:
84,200,184672,5,8,0:1:0:0:
159,162,184830,1,8,0:0:0:0:
232,220,184988,1,14,0:1:0:0:
325,262,185145,1,0,0:0:0:0:
409,196,185303,1,12,0:0:0:0:
365,99,185461,1,8,0:1:0:0:
255,121,185619,1,8,0:0:0:0:
323,178,185777,5,8,0:3:0:0:
379,93,185935,2,0,P|396:42|404:-10,1,99.7499958904268,12|8,0:1|0:0,0:0:0:0:
309,185,186251,1,12,0:0:0:0:
395,240,186409,2,0,P|441:283|474:321,1,99.7499958904268,8|10,0:0|0:1,0:0:0:0:
215,189,186725,2,0,P|161:208|93:219,1,99.7499958904268,8|12,0:3|0:0,0:0:0:0:
324,174,187041,1,8,0:1:0:0:
409,234,187198,1,14,0:0:0:0:
410,148,187356,5,6,0:3:0:0:
410,148,187435,1,0,0:0:0:0:
410,148,187514,2,0,P|396:81|395:41,1,99.7499958904268,12|0,0:1|0:0,0:0:0:0:
243,150,187830,2,0,P|257:83|258:43,1,99.7499958904268,0|8,0:0|0:1,0:0:0:0:
350,189,188146,1,10,0:0:0:0:
279,229,188304,1,0,0:0:0:0:
406,258,188462,6,0,P|392:325|391:365,1,99.7499958904268,14|8,0:1|0:0,0:0:0:0:
239,256,188778,2,0,P|253:323|254:363,1,99.7499958904268,2|8,0:0|0:0,0:0:0:0:
407,189,189094,2,0,P|431:239|471:293,1,99.7499958904268,14|0,0:1|0:0,0:0:0:0:
221,189,189409,2,0,P|197:239|157:293,1,99.7499958904268,10|0,0:0|0:0,0:0:0:0:
64,276,189725,5,10,0:1:0:0:
12,185,189883,1,8,0:0:0:0:
99,109,190041,2,0,L|154:117,6,49.8749979452134,14|0|0|0|0|0|8,0:1|0:0|0:0|0:0|0:0|0:0|0:1,0:0:0:0:
204,170,190673,2,0,P|252:153|308:164,1,99.7499958904268,8|0,0:0|0:0,0:0:0:0:
449,202,190989,6,0,B|338:173|368:276|227:219,1,199.499991780854,12|0,0:1|0:0,0:0:0:0:
388,257,191462,1,8,0:0:0:0:
465,222,191620,2,0,P|484:169|483:73,1,149.62499383564,14|0,0:1|0:0,0:0:0:0:
448,47,191936,1,8,0:0:0:0:
350,106,192094,1,0,0:0:0:0:
217,94,192252,5,8,0:1:0:0:
138,79,192410,1,8,0:0:0:0:
70,110,192568,2,0,P|92:104|93:155,6,49.8749979452134,14|0|0|0|0|0|8,0:1|0:0|0:0|0:0|0:0|0:0|0:1,0:0:0:0:
11,159,193200,6,0,L|-4:264,1,99.7499958904268,10|0,0:0|0:0,0:0:0:0:
75,238,193515,1,14,0:1:0:0:
51,356,193673,1,8,0:0:0:0:
184,294,193831,2,0,L|199:189,1,99.7499958904268,2|8,0:0|0:0,0:0:0:0:
272,145,194147,1,14,0:1:0:0:
396,164,194305,1,0,0:0:0:0:
302,89,194463,1,10,0:0:0:0:
229,124,194621,1,0,0:0:0:0:
263,193,194779,6,0,P|381:204|482:232,1,199.499991780854,8|14,0:1|0:1,0:0:0:0:
381,246,195252,1,0,0:0:0:0:
327,152,195410,1,0,0:0:0:0:
244,263,195568,1,8,0:1:0:0:
190,165,195726,2,0,P|173:237|170:296,1,99.7499958904268,8|0,0:0|0:0,0:0:0:0:
322,165,196042,2,0,P|339:237|342:296,1,99.7499958904268,12|8,0:1|0:0,0:0:0:0:
229,368,196358,6,0,B|216:351|174:333|112:356,1,99.7499958904268,8|8,0:3|0:0,0:0:0:0:
234,242,196674,2,0,B|218:254|172:278|104:253,1,99.7499958904268,12|4,0:1|0:3,0:0:0:0:
291,313,196990,1,12,0:3:0:0:
365,270,197148,1,8,0:1:0:0:
359,357,197305,1,12,0:3:0:0:
437,321,197463,5,2,0:0:0:0:
437,321,197542,1,0,0:0:0:0:
437,321,197621,2,0,P|473:235|455:102,1,199.499991780854,14|0,0:1|0:0,0:0:0:0:
343,174,198095,1,8,0:1:0:0:
353,89,198253,2,0,P|367:152|379:193,1,99.7499958904268,8|0,0:0|0:0,0:0:0:0:
453,122,198569,5,14,0:1:0:0:
416,39,198727,1,8,0:0:0:0:
284,55,198885,1,2,0:0:0:0:
265,144,199043,1,8,0:0:0:0:
153,110,199201,2,0,P|139:181|16:168,2,199.499991780854,14|10|10,0:1|0:0|0:1,0:0:0:0:
160,276,199990,5,8,0:0:0:0:
96,366,200148,1,14,0:1:0:0:
168,342,200306,1,0,0:0:0:0:
41,343,200464,2,0,P|26:325|46:282,4,49.8749979452134,0|0|8|0|8,0:0|0:0|0:1|0:0|0:0,0:0:0:0:
91,381,200938,1,0,0:0:0:0:
152,337,201096,6,0,P|212:338|267:333,1,99.7499958904268,12|8,0:1|0:0,0:0:0:0:
375,299,201411,2,0,P|315:298|260:303,1,99.7499958904268,0|8,0:0|0:0,0:0:0:0:
497,317,201727,1,14,0:1:0:0:
423,373,201885,1,0,0:0:0:0:
375,299,202043,1,8,0:0:0:0:
446,244,202201,1,0,0:0:0:0:
359,222,202359,6,0,L|314:280,1,49.8749979452134,8|0,0:1|0:0,0:0:0:0:
280,281,202517,2,0,L|237:345,1,49.8749979452134,8|0,0:0|0:0,0:0:0:0:
204,307,202675,2,0,P|134:313|36:205,1,199.499991780854,14|0,0:1|0:0,0:0:0:0:
174,219,203149,1,8,0:1:0:0:
151,125,203307,6,0,P|112:68|74:47,1,99.7499958904268,10|0,0:0|0:0,0:0:0:0:
269,201,203622,2,0,P|315:201|388:168,1,99.7499958904268,14|8,0:1|0:0,0:0:0:0:
474,110,203938,1,2,0:0:0:0:
399,53,204096,1,8,0:0:0:0:
389,142,204254,2,0,P|376:233|367:364,1,199.499991780854,14|10,0:1|0:0,0:0:0:0:
481,377,204728,5,0,0:0:0:0:
426,319,204886,1,8,0:1:0:0:
321,309,205044,1,8,0:0:0:0:
239,376,205202,1,12,0:1:0:0:
264,17,205517,5,12,0:0:0:0:
264,17,205675,1,8,0:1:0:0:
264,17,205833,1,8,0:3:0:0:
184,83,205991,5,8,0:3:0:0:
298,134,206149,1,12,0:1:0:0:
298,134,206307,1,8,0:0:0:0:
143,212,206465,5,12,0:0:0:0:
143,212,206623,2,0,B|47:300|-78:282|-32:117|257:43|115:278|317:374|509:197,1,698.249971232988,8|12,0:0|0:3,0:0:0:0:
398,136,208044,5,8,0:1:0:0:
431,200,208202,1,8,0:3:0:0:
477,161,208360,2,0,P|475:119|462:58,1,99.7499958904268,12|4,0:1|0:3,0:0:0:0:
340,180,208676,1,12,0:3:0:0:
340,180,208992,6,0,P|302:124|261:89,1,99.7499958904268,12|8,0:1|0:0,0:0:0:0:
247,256,209308,2,0,P|180:225|29:197,2,199.499991780854,10|12|8,0:1|0:3|0:1,0:0:0:0:
184,361,210097,2,0,P|137:354|62:360,1,99.7499958904268,4|12,0:3|0:1,0:0:0:0:
