osu file format v14

[General]
AudioFilename: 04._Summerhead.ogg
AudioLeadIn: 0
PreviewTime: 86897
Countdown: 0
SampleSet: Soft
StackLeniency: 0.7
Mode: 0
LetterboxInBreaks: 0
WidescreenStoryboard: 1

[Editor]
Bookmarks: 142032,206464,210254
DistanceSpacing: 1
BeatDivisor: 2
GridSize: 32
TimelineZoom: 2.3

[Metadata]
Title:Summerhead
TitleUnicode:Summerhead
Artist:Cocteau Twins
ArtistUnicode:Cocteau Twins
Creator:app
Version:Collab normal
Source:
Tags:posydomojka Elizabeth Fraser dtm katayama mapping cancer sentrimaro koue venix aishiteiru- giyokon aeong dreampop dream pop ethereal rock english four-calendar café four calendar cafe
BeatmapID:4341590
BeatmapSetID:2066422

[Difficulty]
HPDrainRate:4
CircleSize:3.5
OverallDifficulty:4
ApproachRate:5
SliderMultiplier:1
SliderTickRate:1

[Events]
//Background and Video events
0,0,"350449.jpg",0,0
//Break Periods
//Storyboard Layer 0 (Background)
//Storyboard Layer 1 (Fail)
//Storyboard Layer 2 (Pass)
//Storyboard Layer 3 (Foreground)
//Storyboard Layer 4 (Overlay)
//Storyboard Sound Samples

[TimingPoints]
215,319.148936170213,4,2,1,40,1,0
534,315.844330857465,4,2,2,50,1,0
612,-100,4,2,1,50,0,0
20748,-125,4,2,2,50,0,0
20826,-125,4,2,1,50,0,0
30855,-125,4,2,2,50,0,0
30934,-125,4,2,1,50,0,0
40962,-111.111111111111,4,2,2,60,0,1
41041,-111.111111111111,4,2,1,60,0,1
43488,-111.111111111111,4,2,2,60,0,1
43567,-111.111111111111,4,2,1,60,0,1
46015,-111.111111111111,4,2,2,60,0,1
46094,-111.111111111111,4,2,1,60,0,1
48542,-111.111111111111,4,2,2,60,0,1
48621,-111.111111111111,4,2,1,60,0,1
51069,-111.111111111111,4,2,2,60,0,1
51148,-111.111111111111,4,2,1,60,0,1
53595,-111.111111111111,4,2,2,60,0,1
53674,-111.111111111111,4,2,1,60,0,1
56122,-111.111111111111,4,2,2,60,0,1
56201,-111.111111111111,4,2,1,60,0,1
58649,-111.111111111111,4,2,2,60,0,1
58728,-111.111111111111,4,2,1,60,0,1
61176,-100,4,2,2,50,0,0
61255,-100,4,2,1,50,0,0
70651,-100,4,2,2,50,0,0
70730,-100,4,2,1,50,0,0
80758,-100,4,2,2,50,0,0
80837,-100,4,2,1,50,0,0
81074,-100,4,2,2,50,0,0
81153,-100,4,2,1,50,0,0
81390,-125,4,2,2,50,0,0
81469,-125,4,2,1,50,0,0
91497,-125,4,2,2,50,0,0
91576,-125,4,2,1,50,0,0
101604,-111.111111111111,4,2,2,60,0,1
101683,-111.111111111111,4,2,1,60,0,1
104130,-111.111111111111,4,2,2,60,0,1
104209,-111.111111111111,4,2,1,60,0,1
106657,-111.111111111111,4,2,2,60,0,1
106736,-111.111111111111,4,2,1,60,0,1
109184,-111.111111111111,4,2,2,60,0,1
109263,-111.111111111111,4,2,1,60,0,1
111711,-111.111111111111,4,2,2,60,0,1
111790,-111.111111111111,4,2,1,60,0,1
114237,-111.111111111111,4,2,2,60,0,1
114316,-111.111111111111,4,2,1,60,0,1
116764,-111.111111111111,4,2,2,60,0,1
116843,-111.111111111111,4,2,1,60,0,1
119291,-111.111111111111,4,2,2,60,0,1
119370,-111.111111111111,4,2,1,60,0,1
121818,-111.111111111111,4,2,2,60,0,1
121897,-111.111111111111,4,2,1,60,0,1
124344,-111.111111111111,4,2,2,60,0,1
124423,-111.111111111111,4,2,1,60,0,1
126871,-111.111111111111,4,2,2,60,0,1
126950,-111.111111111111,4,2,1,60,0,1
129398,-111.111111111111,4,2,2,60,0,1
129477,-111.111111111111,4,2,1,60,0,1
131925,-111.111111111111,4,2,2,60,0,1
132004,-111.111111111111,4,2,1,60,0,1
134451,-111.111111111111,4,2,2,60,0,1
134530,-111.111111111111,4,2,1,60,0,1
136978,-111.111111111111,4,2,2,60,0,1
137057,-111.111111111111,4,2,1,60,0,1
139505,-111.111111111111,4,2,2,60,0,1
139584,-111.111111111111,4,2,1,60,0,1
139979,-111.111111111111,4,2,2,60,0,1
140058,-111.111111111111,4,2,1,60,0,1
140453,-111.111111111111,4,2,2,60,0,1
140531,-111.111111111111,4,2,1,60,0,1
140926,-111.111111111111,4,2,2,60,0,1
141005,-111.111111111111,4,2,1,60,0,1
141400,-111.111111111111,4,2,2,60,0,1
141479,-111.111111111111,4,2,1,60,0,1
142032,-125,4,2,2,50,0,0
142111,-125,4,2,1,50,0,0
144559,-125,4,2,2,50,0,0
144637,-125,4,2,1,50,0,0
147085,-100,4,2,2,50,0,0
147164,-100,4,2,1,50,0,0
149612,-100,4,2,2,50,0,0
149691,-100,4,2,1,50,0,0
150244,-125,4,2,1,50,0,0
152139,-125,4,2,2,50,0,0
152218,-125,4,2,1,50,0,0
154666,-125,4,2,2,50,0,0
154744,-125,4,2,1,50,0,0
157192,-100,4,2,2,50,0,0
157271,-100,4,2,1,50,0,0
159719,-125,4,2,2,50,0,0
159798,-125,4,2,1,50,0,0
162246,-100,4,2,2,50,0,0
162325,-100,4,2,1,50,0,0
164773,-100,4,2,2,50,0,0
164852,-100,4,2,1,50,0,0
166668,-100,4,2,1,55,0,0
167299,-111.111111111111,4,2,2,60,0,1
167378,-111.111111111111,4,2,1,60,0,1
169826,-111.111111111111,4,2,2,60,0,1
169905,-111.111111111111,4,2,1,60,0,1
172353,-111.111111111111,4,2,2,60,0,1
172432,-111.111111111111,4,2,1,60,0,1
174880,-111.111111111111,4,2,2,60,0,1
174959,-111.111111111111,4,2,1,60,0,1
177406,-111.111111111111,4,2,2,60,0,1
177485,-111.111111111111,4,2,1,60,0,1
179933,-111.111111111111,4,2,2,60,0,1
180012,-111.111111111111,4,2,1,60,0,1
182460,-111.111111111111,4,2,2,60,0,1
182539,-111.111111111111,4,2,1,60,0,1
184987,-111.111111111111,4,2,2,60,0,1
185066,-111.111111111111,4,2,1,60,0,1
187513,-111.111111111111,4,2,2,60,0,1
187592,-111.111111111111,4,2,1,60,0,1
190040,-111.111111111111,4,2,2,60,0,1
190119,-111.111111111111,4,2,1,60,0,1
192567,-111.111111111111,4,2,2,60,0,1
192646,-111.111111111111,4,2,1,60,0,1
195094,-111.111111111111,4,2,2,60,0,1
195173,-111.111111111111,4,2,1,60,0,1
196989,-111.111111111111,4,2,2,60,0,1
197068,-111.111111111111,4,2,1,60,0,1
197620,-111.111111111111,4,2,2,60,0,1
197699,-111.111111111111,4,2,1,60,0,1
200147,-111.111111111111,4,2,2,60,0,1
200226,-111.111111111111,4,2,1,60,0,1
202674,-111.111111111111,4,2,2,60,0,1
202753,-111.111111111111,4,2,1,60,0,1
205201,-111.111111111111,4,2,2,60,0,1
205280,-111.111111111111,4,2,1,60,0,1
206148,-111.111111111111,4,2,2,60,0,1
206227,-111.111111111111,4,2,1,60,0,1
207096,-111.111111111111,4,2,2,60,0,1
207175,-111.111111111111,4,2,1,60,0,1
207727,-111.111111111111,4,2,2,60,0,1
207806,-111.111111111111,4,2,1,60,0,1
208675,-111.111111111111,4,2,2,60,0,1
208754,-111.111111111111,4,2,1,60,0,1
209622,-111.111111111111,4,2,2,60,0,1
209701,-111.111111111111,4,2,1,60,0,1
210254,-111.111111111111,4,2,2,60,0,1
210333,-111.111111111111,4,2,1,5,0,0

[Colours]
Combo1 : 203,151,255
Combo2 : 0,255,255
Combo3 : 0,255,128

[HitObjects]
28,78,534,6,0,P|31:131|23:197,1,100,12|0,0:1|0:0,0:0:0:0:
118,218,1165,1,8,0:0:0:0:
212,186,1481,2,0,P|262:192|330:181,1,100,12|0,0:1|0:0,0:0:0:0:
397,235,2113,2,0,P|394:296|404:367,1,100,12|8,0:1|0:0,0:0:0:0:
300,309,2744,1,8,0:1:0:0:
200,321,3060,6,0,P|123:333|-2:309,1,200,12|8,0:1|0:0,0:0:0:0:
39,217,4008,2,0,P|37:161|44:96,1,100,8|0,0:1|0:0,0:0:0:0:
127,64,4639,1,12,0:1:0:0:
205,125,4955,1,8,0:0:0:0:
291,74,5271,2,0,L|348:75,1,50,10|10,0:1|0:0,0:0:0:0:
390,64,5587,6,0,P|386:175|394:307,1,200,12|8,0:1|0:0,0:0:0:0:
297,302,6535,2,0,P|239:294|182:305,1,100,8|0,0:1|0:0,0:0:0:0:
111,249,7166,1,12,0:1:0:0:
107,149,7482,1,8,0:0:0:0:
178,79,7798,2,0,L|242:79,1,50,10|10,0:1|0:0,0:0:0:0:
274,99,8114,6,0,P|371:88|487:107,1,200,12|8,0:1|0:0,0:0:0:0:
444,198,9061,2,0,L|437:266,1,50,8|8,0:1|0:0,0:0:0:0:
465,295,9377,1,0,0:0:0:0:
378,344,9693,1,8,0:3:0:0:
302,277,10009,1,8,0:0:0:0:
345,187,10325,2,0,L|273:188,1,50,10|6,0:3|0:3,0:0:0:0:
253,159,10641,6,0,P|160:149|43:168,1,200,12|8,0:1|0:0,0:0:0:0:
20,257,11588,1,12,0:1:0:0:
67,344,11904,2,0,P|125:336|200:351,1,100,0|12,0:0|0:1,0:0:0:0:
257,299,12536,1,8,0:0:0:0:
349,261,12851,2,0,L|408:263,1,50,8|8,0:1|0:0,0:0:0:0:
436,296,13167,6,0,P|440:220|436:81,1,200,12|8,0:1|0:0,0:0:0:0:
349,47,14115,1,8,0:1:0:0:
256,85,14431,1,0,0:0:0:0:
163,48,14746,2,0,P|104:53|42:46,1,100,12|8,0:1|0:0,0:0:0:0:
15,138,15378,2,0,L|16:198,1,50,10|2,0:1|0:0,0:0:0:0:
38,233,15694,6,0,P|124:222|243:234,1,200,12|8,0:1|0:0,0:0:0:0:
332,200,16642,1,8,0:1:0:0:
430,221,16957,1,0,0:0:0:0:
480,134,17273,1,12,0:1:0:0:
413,61,17589,1,8,0:0:0:0:
322,101,17905,2,0,L|263:100,1,50,10|10,0:1|0:0,0:0:0:0:
224,84,18221,6,0,P|116:68|13:103,1,200,12|8,0:1|0:0,0:0:0:0:
48,191,19168,2,0,L|41:241,2,50,8|8|8,0:1|0:0|0:3,0:0:0:0:
133,138,19800,2,0,L|144:75,2,50,8|8|8,0:1|0:3|0:0,0:0:0:0:
206,206,20432,1,6,0:3:0:0:
294,156,20748,6,0,L|478:179,1,160,12|8,0:1|0:0,0:0:0:0:
492,251,21695,1,8,0:1:0:0:
492,251,21853,2,0,L|482:330,1,80,8|8,0:0|0:0,0:0:0:0:
405,325,22485,1,0,0:0:0:0:
405,325,22643,2,0,L|325:315,1,80,8|8,0:0|0:1,0:0:0:0:
255,275,23274,6,0,P|172:279|131:360,1,160,12|8,0:1|0:0,0:0:0:0:
55,312,24222,2,0,L|44:272,1,40,8|8,0:1|0:0,0:0:0:0:
49,233,24538,2,0,B|26:143,2,80,0|12|8,0:0|0:1|0:0,0:0:0:0:
129,234,25485,1,10,0:1:0:0:
167,163,25801,6,0,P|164:83|248:42,1,160,12|8,0:1|0:0,0:0:0:0:
296,76,26749,2,0,L|398:105,1,80,8|0,0:1|0:0,0:0:0:0:
451,80,27380,2,0,L|471:15,2,40,12|0|8,0:1|0:0|0:0,0:0:0:0:
480,154,28012,1,10,0:1:0:0:
483,233,28328,6,0,B|395:256|456:314|342:336,1,160,12|8,0:1|0:0,0:0:0:0:
286,346,29275,1,8,0:1:0:0:
205,353,29591,2,0,L|104:335,1,80,0|12,0:0|0:1,0:0:0:0:
45,341,30223,2,0,L|66:227,1,80,8|10,0:0|0:0,0:0:0:0:
82,185,30855,6,0,B|183:203,1,80,12|0,0:1|0:0,0:0:0:0:
238,216,31486,2,0,L|240:277,1,40,8|0,0:0|0:0,0:0:0:0:
269,282,31802,1,8,0:1:0:0:
341,248,32118,2,0,B|336:159|395:179|401:63,2,160,0|8|12,0:0|0:0|0:1,0:0:0:0:
394,307,33697,1,0,0:0:0:0:
325,348,34013,6,0,L|219:359,1,80,8|8,0:0|0:1,0:0:0:0:
165,355,34645,2,0,B|157:258|209:288|198:187,1,160,0|8,0:0|0:0,0:0:0:0:
148,141,35592,1,10,0:1:0:0:
150,61,35908,2,0,B|69:3|72:78|-15:9,2,160,12|8|0,0:1|0:0|0:0,0:0:0:0:
207,116,37487,2,0,L|187:207,1,80,14|10,0:1|0:0,0:0:0:0:
233,261,38119,2,0,L|286:271,1,40,10|10,0:1|0:0,0:0:0:0:
304,244,38435,6,0,L|324:151,1,80,12|8,0:1|0:1,0:0:0:0:
375,107,39067,2,0,L|470:130,1,80,8|8,0:0|0:1,0:0:0:0:
486,198,39698,2,0,L|462:290,2,80,8|12|0,0:0|0:1|0:0,0:0:0:0:
452,125,40646,2,0,L|464:71,1,40,10|10,0:0|0:1,0:0:0:0:
481,45,40962,6,0,B|319:13|369:91|197:58,1,269.999991760254,12|14,0:1|0:1,0:0:0:0:
134,29,42226,1,2,0:0:0:0:
72,91,42541,1,14,0:1:0:0:
117,169,42857,1,10,0:0:0:0:
204,150,43172,2,0,L|205:88,1,44.999998626709,8|8,0:1|0:0,0:0:0:0:
212,60,43488,6,0,P|301:79|409:54,1,179.999994506836,12|8,0:1|0:0,0:0:0:0:
431,73,44278,1,0,0:0:0:0:
450,113,44436,2,0,P|447:171|453:222,1,89.9999972534181,12|0,0:1|0:0,0:0:0:0:
387,267,45068,2,0,P|336:264|267:271,1,89.9999972534181,12|8,0:1|0:0,0:0:0:0:
224,319,45699,1,8,0:1:0:0:
134,327,46015,2,0,P|132:187|139:41,1,269.999991760254,12|14,0:1|0:1,0:0:0:0:
223,28,47278,1,2,0:0:0:0:
313,28,47594,1,14,0:1:0:0:
390,74,47910,1,10,0:0:0:0:
454,136,48226,6,0,P|457:234|449:346,1,179.999994506836,8|0,0:1|0:0,0:0:0:0:
367,346,49174,1,8,0:0:0:0:
281,319,49489,2,0,P|190:307|101:330,1,179.999994506836,12|12,0:1|0:1,0:0:0:0:
45,261,50437,1,8,0:0:0:0:
96,187,50753,2,0,L|98:125,1,44.999998626709,4|2,0:3|0:0,0:0:0:0:
128,108,51069,6,0,P|207:97|340:117,1,179.999994506836,12|10,0:1|0:0,0:0:0:0:
368,173,52016,2,0,L|367:220,1,44.999998626709,14|8,0:1|0:0,0:0:0:0:
403,244,52332,2,0,P|476:203|464:84,1,179.999994506836,2|10,0:0|0:0,0:0:0:0:
407,66,53280,2,0,P|329:57|219:68,1,179.999994506836,8|0,0:1|0:0,0:0:0:0:
146,98,54227,1,8,0:0:0:0:
61,66,54543,2,0,P|56:162|58:264,1,179.999994506836,12|12,0:1|0:1,0:0:0:0:
126,314,55490,1,8,0:0:0:0:
190,250,55806,1,8,0:1:0:0:
257,310,56122,6,0,P|351:326|464:293,1,179.999994506836,12|10,0:1|0:0,0:0:0:0:
434,218,57070,2,0,L|434:173,1,44.999998626709,14|8,0:1|0:0,0:0:0:0:
409,135,57385,2,0,P|316:147|213:126,1,179.999994506836,2|10,0:0|0:0,0:0:0:0:
153,87,58333,2,0,P|107:82|41:103,1,89.9999972534181,8|12,0:1|0:1,0:0:0:0:
31,169,58965,1,12,0:0:0:0:
74,248,59281,2,0,L|24:268,2,44.999998626709,8|8|12,0:0|0:3|0:1,0:0:0:0:
159,218,59912,1,12,0:0:0:0:
212,290,60228,1,8,0:1:0:0:
299,263,60544,1,12,0:0:0:0:
299,174,60860,1,12,0:0:0:0:
214,145,61176,6,0,P|221:89|219:25,1,100,14|0,0:1|0:0,0:0:0:0:
315,14,61807,1,8,0:0:0:0:
408,49,62123,2,0,P|406:102|410:151,1,100,14|2,0:1|0:0,0:0:0:0:
468,229,62755,2,0,P|473:283|466:350,1,100,14|10,0:1|0:0,0:0:0:0:
371,348,63387,1,10,0:1:0:0:
280,306,63702,6,0,P|189:322|65:298,1,200,12|8,0:1|0:0,0:0:0:0:
24,224,64650,2,0,P|27:165|24:105,1,100,8|0,0:1|0:0,0:0:0:0:
97,54,65281,1,14,0:1:0:0:
196,68,65597,1,8,0:0:0:0:
235,159,65913,2,0,L|232:217,1,50,10|10,0:1|0:0,0:0:0:0:
259,251,66229,6,0,P|358:265|458:248,1,200,12|8,0:1|0:0,0:0:0:0:
494,155,67177,2,0,P|494:98|493:51,1,100,8|0,0:1|0:0,0:0:0:0:
399,89,67808,1,14,0:1:0:0:
376,186,68124,1,8,0:0:0:0:
455,248,68440,2,0,L|445:314,1,50,10|10,0:1|0:0,0:0:0:0:
406,327,68756,6,0,P|306:336|187:322,1,200,14|8,0:1|0:0,0:0:0:0:
111,297,69703,2,0,L|97:243,1,50,8|8,0:1|0:0,0:0:0:0:
90,199,70019,1,8,0:1:0:0:
172,143,70335,1,8,0:3:0:0:
245,211,70651,1,12,0:3:0:0:
199,300,70967,2,0,L|249:300,1,50,8|4,0:3|0:3,0:0:0:0:
296,317,71283,6,0,P|324:234|333:113,1,200,14|8,0:1|0:0,0:0:0:0:
267,47,72230,1,14,0:1:0:0:
172,80,72546,1,2,0:0:0:0:
73,86,72862,1,14,0:1:0:0:
47,182,73178,1,10,0:0:0:0:
131,236,73494,1,10,0:1:0:0:
208,174,73809,6,0,P|213:277|203:378,1,200,12|8,0:1|0:0,0:0:0:0:
293,328,74757,1,8,0:1:0:0:
386,364,75073,1,0,0:0:0:0:
477,322,75389,2,0,P|482:269|479:208,1,100,14|8,0:1|0:0,0:0:0:0:
400,162,76020,2,0,L|399:98,1,50,10|2,0:1|0:0,0:0:0:0:
365,74,76336,6,0,P|265:62|147:84,1,200,12|8,0:1|0:0,0:0:0:0:
147,177,77284,1,8,0:1:0:0:
229,232,77600,1,0,0:0:0:0:
317,181,77915,1,14,0:1:0:0:
390,248,78231,1,8,0:0:0:0:
347,338,78547,2,0,L|269:338,1,50,10|10,0:1|0:0,0:0:0:0:
260,303,78863,6,0,P|175:323|57:292,1,200,14|8,0:1|0:0,0:0:0:0:
37,202,79810,2,0,P|35:152|37:102,2,100,8|0|8,0:1|0:0|0:1,0:0:0:0:
131,236,80758,1,12,0:3:0:0:
225,201,81074,1,12,0:3:0:0:
322,242,81390,6,0,L|335:159,1,80,12|0,0:1|0:0,0:0:0:0:
382,100,82021,1,8,0:0:0:0:
382,100,82179,2,0,L|465:113,1,80,0|8,0:0|0:0,0:0:0:0:
498,189,82811,1,8,0:0:0:0:
498,189,82969,2,0,L|485:272,1,80,12|8,0:1|0:0,0:0:0:0:
408,288,83601,2,0,L|368:288,1,40,8|8,0:1|0:0,0:0:0:0:
330,275,83916,6,0,P|315:185|304:107,1,160,12|8,0:1|0:0,0:0:0:0:
238,71,84864,2,0,L|177:68,1,40,8|8,0:1|0:0,0:0:0:0:
162,50,85180,2,0,B|118:47|82:50,2,80,0|12|8,0:0|0:1|0:0,0:0:0:0:
228,94,86127,1,10,0:1:0:0:
292,47,86443,6,0,P|374:56|468:40,1,160,12|8,0:1|0:0,0:0:0:0:
489,121,87391,1,8,0:1:0:0:
489,121,87549,2,0,L|475:216,1,80,8|8,0:0|0:0,0:0:0:0:
449,228,88022,1,12,0:1:0:0:
378,265,88338,2,0,L|358:370,1,80,8|10,0:0|0:1,0:0:0:0:
286,368,88970,5,12,0:1:0:0:
215,330,89286,1,0,0:0:0:0:
137,348,89602,2,0,L|39:348,1,80,8|8,0:0|0:1,0:0:0:0:
2,295,90233,2,0,L|7:216,1,80,0|12,0:0|0:1,0:0:0:0:
39,190,90707,2,0,L|44:128,1,40,0|8,0:0|0:0,0:0:0:0:
68,74,91181,2,0,L|118:78,1,40,10|10,0:0|0:0,0:0:0:0:
140,53,91497,6,0,P|182:57|240:56,1,80,12|0,0:1|0:0,0:0:0:0:
280,109,92128,1,8,0:0:0:0:
343,59,92444,2,0,P|428:66|541:67,1,160,8|12,0:1|0:1,0:0:0:0:
479,144,93392,1,8,0:0:0:0:
461,222,93708,1,8,0:1:0:0:
436,297,94023,6,0,L|412:391,1,80,12|0,0:1|0:0,0:0:0:0:
346,335,94655,1,8,0:0:0:0:
270,360,94971,1,8,0:1:0:0:
199,322,95287,2,0,B|108:300|141:349|37:326,1,160,0|8,0:0|0:0,0:0:0:0:
2,257,96234,1,10,0:1:0:0:
54,196,96550,6,0,L|68:115,1,80,12|0,0:1|0:0,0:0:0:0:
126,62,97182,1,8,0:0:0:0:
205,73,97498,1,8,0:1:0:0:
242,143,97814,2,0,B|318:90|312:168|404:97,1,160,0|10,0:0|0:0,0:0:0:0:
470,121,98761,1,10,0:1:0:0:
491,198,99077,6,0,L|485:294,1,80,12|8,0:1|0:1,0:0:0:0:
436,339,99709,2,0,L|340:333,1,80,8|8,0:0|0:1,0:0:0:0:
283,300,100340,2,0,L|268:392,2,80,12|8|4,0:0|0:1|0:3,0:0:0:0:
224,245,101288,2,0,L|231:205,1,40,12|6,0:0|0:3,0:0:0:0:
249,164,101604,6,0,B|404:117|350:218|539:151,1,269.999991760254,12|14,0:1|0:1,0:0:0:0:
459,87,102867,1,2,0:0:0:0:
374,54,103183,1,14,0:1:0:0:
284,62,103499,1,10,0:0:0:0:
198,93,103815,2,0,L|198:140,1,44.999998626709,8|8,0:1|0:0,0:0:0:0:
162,165,104130,6,0,P|159:250|169:384,1,179.999994506836,12|8,0:1|0:0,0:0:0:0:
202,368,104920,1,0,0:0:0:0:
242,348,105078,2,0,P|297:351|363:340,1,89.9999972534181,12|0,0:1|0:0,0:0:0:0:
421,359,105710,2,0,P|425:292|418:231,1,89.9999972534181,12|8,0:1|0:0,0:0:0:0:
468,191,106341,1,8,0:1:0:0:
432,108,106657,6,0,P|310:91|147:114,1,269.999991760254,12|14,0:1|0:1,0:0:0:0:
80,75,107921,1,2,0:0:0:0:
23,145,108237,1,14,0:1:0:0:
73,221,108553,1,10,0:0:0:0:
160,198,108868,6,0,P|162:294|156:419,1,179.999994506836,8|0,0:1|0:0,0:0:0:0:
242,342,109816,1,8,0:0:0:0:
329,363,110131,2,0,P|408:379|527:349,1,179.999994506836,12|12,0:1|0:1,0:0:0:0:
471,275,111079,1,8,0:0:0:0:
481,185,111395,2,0,L|427:185,1,44.999998626709,4|2,0:3|0:0,0:0:0:0:
401,155,111711,6,0,P|311:145|196:170,1,179.999994506836,12|10,0:1|0:0,0:0:0:0:
134,144,112658,2,0,L|134:189,1,44.999998626709,14|8,0:1|0:0,0:0:0:0:
96,213,112974,2,0,P|37:232|36:340,1,179.999994506836,2|10,0:0|0:0,0:0:0:0:
123,349,113922,2,0,P|214:342|326:356,1,179.999994506836,8|0,0:1|0:0,0:0:0:0:
387,321,114869,1,8,0:0:0:0:
472,350,115185,2,0,P|469:250|474:136,1,179.999994506836,12|12,0:1|0:1,0:0:0:0:
408,105,116133,1,8,0:0:0:0:
332,56,116448,6,0,P|235:51|119:63,1,179.999994506836,8|0,0:1|0:0,0:0:0:0:
63,40,117396,2,0,L|63:94,1,44.999998626709,10|0,0:0|0:0,0:0:0:0:
87,123,117712,2,0,P|89:172|84:223,1,89.9999972534181,14|2,0:1|0:0,0:0:0:0:
19,274,118343,2,0,P|21:322|18:381,1,89.9999972534181,14|10,0:1|0:0,0:0:0:0:
97,318,118975,5,8,0:1:0:0:
160,254,119291,2,0,L|121:184,2,44.999998626709,12|0|12,0:1|0:0|0:0,0:0:0:0:
216,314,119923,1,8,0:0:0:0:
297,276,120239,1,12,0:1:0:0:
289,187,120554,1,12,0:0:0:0:
200,168,120870,1,8,0:1:0:0:
190,78,121186,1,12,0:0:0:0:
270,39,121502,1,12,0:0:0:0:
332,106,121818,6,0,B|373:243|254:210|316:392,1,269.999991760254,12|14,0:1|0:1,0:0:0:0:
220,343,123081,1,2,0:0:0:0:
180,262,123397,1,14,0:1:0:0:
90,252,123713,1,10,0:0:0:0:
11,295,124029,2,0,L|-1:240,1,44.999998626709,10|8,0:1|0:0,0:0:0:0:
11,207,124344,6,0,P|79:160|186:190,1,179.999994506836,12|8,0:1|0:0,0:0:0:0:
212,160,125134,1,0,0:0:0:0:
253,177,125292,2,0,P|302:176|369:181,1,89.9999972534181,12|0,0:1|0:0,0:0:0:0:
432,191,125924,2,0,P|435:136|430:83,1,89.9999972534181,12|8,0:1|0:0,0:0:0:0:
357,51,126555,1,8,0:0:0:0:
274,87,126871,6,0,P|132:106|3:73,1,269.999991760254,12|14,0:1|0:1,0:0:0:0:
10,166,128135,1,2,0:0:0:0:
73,229,128451,1,14,0:1:0:0:
156,194,128767,1,10,0:0:0:0:
237,232,129082,6,0,P|323:223|451:233,1,179.999994506836,8|0,0:1|0:0,0:0:0:0:
476,159,130030,1,8,0:0:0:0:
420,89,130346,2,0,P|418:42|420:-7,2,89.9999972534181,12|8|12,0:1|0:3|0:1,0:0:0:0:
335,118,131293,1,8,0:0:0:0:
325,28,131609,1,4,0:3:0:0:
235,31,131925,6,0,P|134:22|28:40,1,179.999994506836,12|10,0:1|0:0,0:0:0:0:
27,117,132872,2,0,L|27:190,1,44.999998626709,14|8,0:1|0:0,0:0:0:0:
52,199,133188,2,0,P|135:188|255:205,1,179.999994506836,2|10,0:0|0:0,0:0:0:0:
285,269,134136,2,0,P|374:280|463:269,1,179.999994506836,8|0,0:1|0:0,0:0:0:0:
500,187,135083,1,8,0:0:0:0:
462,104,135399,2,0,P|372:114|283:103,1,179.999994506836,12|12,0:1|0:1,0:0:0:0:
225,34,136347,1,8,0:0:0:0:
135,45,136662,1,8,0:1:0:0:
112,132,136978,6,0,P|110:236|116:352,1,179.999994506836,12|10,0:1|0:0,0:0:0:0:
197,343,137926,2,0,P|247:347|293:342,1,89.9999972534181,14|2,0:1|0:0,0:0:0:0:
374,324,138557,2,0,P|444:307|411:210,1,179.999994506836,14|8,0:1|0:1,0:0:0:0:
359,159,139505,1,12,0:1:0:0:
281,204,139821,6,0,L|217:230,1,44.999998626709,12|12,0:0|0:1,0:0:0:0:
207,253,140137,1,8,0:0:0:0:
124,218,140453,1,12,0:1:0:0:
43,257,140768,2,0,L|36:335,2,44.999998626709,12|12|0,0:0|0:1|0:0,0:0:0:0:
15,170,141400,1,12,0:1:0:0:
60,92,141716,1,12,0:0:0:0:
20,11,142032,6,0,P|102:-2|198:32,1,160,12|10,0:1|0:0,0:0:0:0:
235,70,142979,1,12,0:1:0:0:
309,39,143295,2,0,P|349:50|489:70,1,160,0|10,0:0|0:0,0:0:0:0:
493,144,144243,1,8,0:1:0:0:
415,162,144559,6,0,B|336:166|352:230|281:241,1,160,12|8,0:1|0:0,0:0:0:0:
216,194,145506,1,8,0:1:0:0:
154,245,145822,1,0,0:0:0:0:
83,210,146138,2,0,L|89:120,1,80,12|10,0:1|0:0,0:0:0:0:
109,95,146612,1,8,0:3:0:0:
95,57,146769,1,8,0:1:0:0:
183,9,147085,6,0,P|208:27|293:-2,1,100,12|0,0:1|0:0,0:0:0:0:
320,1,147559,1,8,0:1:0:0:
299,149,148033,2,0,P|231:133|162:131,1,100,8|0,0:1|0:0,0:0:0:0:
152,142,148507,1,8,0:0:0:0:
86,276,148980,2,0,P|95:358|116:409,1,100,8|8,0:0|0:1,0:0:0:0:
201,375,149612,6,0,P|296:355|344:270,1,200,14|10,0:1|0:0,0:0:0:0:
301,203,150560,1,10,0:1:0:0:
224,181,150875,2,0,P|189:230|201:264,1,80,2|10,0:0|0:1,0:0:0:0:
244,306,151507,1,8,0:0:0:0:
322,290,151823,1,8,0:1:0:0:
398,268,152139,6,0,P|401:197|392:105,1,160,12|10,0:1|0:0,0:0:0:0:
324,66,153086,1,12,0:1:0:0:
294,93,153244,2,0,P|255:66|220:12,1,80,10|10,0:0|0:0,0:0:0:0:
200,19,153718,1,12,0:1:0:0:
143,75,154034,6,0,P|41:90|11:145,1,160,8|14,0:0|0:1,0:0:0:0:
49,203,154981,1,0,0:0:0:0:
128,198,155297,1,10,0:0:0:0:
208,197,155613,1,8,0:1:0:0:
287,192,155929,2,0,L|338:202,1,40,2|8,0:0|0:0,0:0:0:0:
357,225,156245,2,0,L|462:230,2,80,14|10|8,0:1|0:0|0:1,0:0:0:0:
277,164,157192,5,14,0:1:0:0:
202,230,157508,1,2,0:0:0:0:
109,192,157824,2,0,B|67:185|65:222|19:230,1,100,2|8,0:0|0:0,0:0:0:0:
74,314,158456,1,2,0:0:0:0:
166,352,158772,1,10,0:1:0:0:
238,283,159087,2,0,B|319:368|437:283,1,200,10|14,0:0|0:1,0:0:0:0:
474,236,160035,5,2,0:0:0:0:
465,156,160351,2,0,L|455:59,1,80,10|10,0:0|0:1,0:0:0:0:
377,85,160982,1,2,0:0:0:0:
298,93,161298,1,10,0:1:0:0:
219,98,161614,2,0,L|229:210,1,80,10|6,0:0|0:3,0:0:0:0:
215,216,162088,1,8,0:3:0:0:
245,255,162246,5,12,0:1:0:0:
338,219,162562,2,0,L|422:186,1,50,8|8,0:0|0:3,0:0:0:0:
432,214,162877,2,0,L|451:284,1,50,8|4,0:1|0:3,0:0:0:0:
481,296,163193,1,8,0:0:0:0:
387,333,163509,6,0,L|307:319,1,50,8|8,0:0|0:0,0:0:0:0:
303,361,163825,2,0,L|221:346,1,50,4|8,0:3|0:3,0:0:0:0:
209,376,164141,2,0,L|70:355,1,100,8|8,0:1|0:0,0:0:0:0:
131,263,164773,1,12,0:1:0:0:
149,164,165088,6,0,P|157:142|149:107,1,50,8|8,0:3|0:0,0:0:0:0:
117,80,165404,1,10,0:1:0:0:
17,86,165720,2,0,L|9:183,1,50,8|8,0:0|0:3,0:0:0:0:
38,179,166036,1,10,0:1:0:0:
76,272,166352,6,0,L|146:269,1,50,8|8,0:0|0:3,0:0:0:0:
169,244,166668,2,0,L|239:241,1,50,10|4,0:1|0:3,0:0:0:0:
264,220,166983,2,0,L|323:217,2,50,8|8|14,0:0|0:3|0:1,0:0:0:0:
194,162,167615,5,0,0:0:0:0:
106,181,167931,2,0,L|-2:187,1,89.9999972534181,8|14,0:0|0:1,0:0:0:0:
5,275,168563,1,2,0:0:0:0:
44,296,168721,1,8,0:0:0:0:
86,311,168879,2,0,P|138:297|178:291,1,89.9999972534181,14|10,0:1|0:0,0:0:0:0:
256,325,169510,1,10,0:1:0:0:
341,353,169826,6,0,P|431:339|425:236,1,179.999994506836,12|8,0:1|0:0,0:0:0:0:
384,195,170774,2,0,P|368:128|362:95,1,89.9999972534181,12|0,0:1|0:0,0:0:0:0:
408,29,171405,1,14,0:1:0:0:
494,53,171720,1,8,0:0:0:0:
497,143,172037,2,0,L|497:210,1,44.999998626709,8|8,0:1|0:0,0:0:0:0:
465,220,172353,6,0,B|348:182|357:255|280:253,1,179.999994506836,14|10,0:1|0:0,0:0:0:0:
218,207,173300,1,14,0:1:0:0:
139,251,173616,1,2,0:0:0:0:
181,330,173932,1,14,0:1:0:0:
99,368,174248,1,10,0:0:0:0:
39,300,174564,6,0,P|56:228|68:186,1,89.9999972534181,8|14,0:1|0:1,0:0:0:0:
122,147,175195,2,0,P|141:107|108:49,1,89.9999972534181,0|8,0:0|0:0,0:0:0:0:
38,53,175827,1,12,0:1:0:0:
0,135,176143,2,0,L|14:188,1,44.999998626709,8|8,0:3|0:0,0:0:0:0:
48,204,176459,2,0,L|64:256,1,44.999998626709,12|4,0:1|0:3,0:0:0:0:
74,290,176775,2,0,P|121:273|171:261,1,89.9999972534181,8|6,0:0|0:3,0:0:0:0:
222,328,177406,6,0,P|334:354|393:318,1,179.999994506836,12|8,0:1|0:0,0:0:0:0:
431,246,178354,2,0,L|424:185,1,44.999998626709,14|8,0:1|0:0,0:0:0:0:
397,165,178670,2,0,L|390:104,1,44.999998626709,2|8,0:0|0:0,0:0:0:0:
360,87,178986,2,0,P|304:130|290:125,1,89.9999972534181,14|10,0:1|0:0,0:0:0:0:
224,69,179617,6,0,P|127:88|31:102,1,179.999994506836,10|0,0:1|0:0,0:0:0:0:
5,180,180565,1,8,0:0:0:0:
92,202,180881,2,0,L|212:214,1,89.9999972534181,12|0,0:1|0:0,0:0:0:0:
271,218,181512,2,0,B|280:195|280:195|307:223|307:223|326:207|326:207|425:189,1,179.999994506836,14|8,0:1|0:1,0:0:0:0:
459,203,182302,1,8,0:0:0:0:
497,179,182460,6,0,P|491:248|487:368,1,179.999994506836,14|10,0:1|0:0,0:0:0:0:
401,330,183407,1,14,0:1:0:0:
317,362,183723,2,0,P|238:355|201:355,1,89.9999972534181,2|14,0:0|0:1,0:0:0:0:
143,320,184355,1,10,0:0:0:0:
201,251,184671,1,8,0:1:0:0:
267,311,184987,5,14,0:1:0:0:
341,261,185302,2,0,P|361:210|367:143,1,89.9999972534181,12|8,0:0|0:0,0:0:0:0:
337,140,185776,1,8,0:3:0:0:
294,125,185934,2,0,L|190:139,1,89.9999972534181,12|12,0:1|0:0,0:0:0:0:
116,154,186566,1,10,0:1:0:0:
27,172,186882,1,12,0:0:0:0:
45,259,187197,2,0,L|36:325,1,44.999998626709,14|6,0:0|0:3,0:0:0:0:
50,347,187513,6,0,P|126:343|236:345,1,179.999994506836,12|10,0:1|0:0,0:0:0:0:
311,306,188461,2,0,P|359:338|413:344,2,89.9999972534181,14|2|14,0:1|0:0|0:1,0:0:0:0:
244,245,189408,1,10,0:0:0:0:
267,158,189724,1,10,0:1:0:0:
337,102,190040,6,0,P|398:84|515:62,1,179.999994506836,14|8,0:1|0:0,0:0:0:0:
495,151,190988,1,12,0:1:0:0:
407,170,191303,1,0,0:0:0:0:
320,193,191619,2,0,L|215:219,1,89.9999972534181,14|8,0:1|0:0,0:0:0:0:
145,191,192251,2,0,L|93:183,1,44.999998626709,8|8,0:1|0:0,0:0:0:0:
66,214,192567,6,0,P|6:194|29:83,1,179.999994506836,14|10,0:1|0:0,0:0:0:0:
96,59,193514,1,14,0:1:0:0:
185,64,193830,1,2,0:0:0:0:
267,99,194146,1,14,0:1:0:0:
355,80,194462,1,10,0:0:0:0:
443,98,194778,2,0,L|448:165,1,44.999998626709,8|8,0:1|0:0,0:0:0:0:
474,178,195094,6,0,P|475:240|462:291,1,89.9999972534181,14|0,0:1|0:0,0:0:0:0:
444,305,195567,1,8,0:1:0:0:
444,305,195725,1,8,0:0:0:0:
356,283,196041,2,0,L|276:266,1,44.999998626709,12|8,0:1|0:0,0:0:0:0:
273,298,196357,2,0,L|167:314,2,89.9999972534181,8|12|12,0:3|0:1|0:3,0:0:0:0:
338,235,197305,1,12,0:3:0:0:
427,245,197620,6,0,B|403:162|490:170|451:70,1,179.999994506836,14|8,0:1|0:0,0:0:0:0:
369,40,198568,2,0,L|303:61,1,44.999998626709,14|8,0:1|0:0,0:0:0:0:
301,91,198884,2,0,L|220:87,1,44.999998626709,2|8,0:0|0:0,0:0:0:0:
214,107,199200,2,0,P|161:108|116:165,1,89.9999972534181,14|10,0:1|0:0,0:0:0:0:
68,192,199831,2,0,L|21:298,1,89.9999972534181,10|14,0:1|0:1,0:0:0:0:
78,357,200463,1,0,0:0:0:0:
165,337,200779,2,0,L|244:329,1,44.999998626709,8|0,0:0|0:0,0:0:0:0:
247,357,201095,6,0,P|342:365|427:316,1,179.999994506836,12|14,0:1|0:1,0:0:0:0:
460,249,202042,1,8,0:0:0:0:
399,182,202358,2,0,L|386:117,1,44.999998626709,8|8,0:1|0:0,0:0:0:0:
424,107,202674,6,0,L|431:40,1,44.999998626709,14|0,0:1|0:0,0:0:0:0:
394,32,202990,1,0,0:0:0:0:
307,56,203306,1,10,0:0:0:0:
252,127,203621,2,0,L|258:195,2,44.999998626709,14|8|2,0:1|0:0|0:0,0:0:0:0:
175,78,204253,1,14,0:1:0:0:
131,90,204411,1,0,0:0:0:0:
88,104,204569,1,10,0:0:0:0:
33,175,204885,6,0,L|18:276,1,89.9999972534181,8|12,0:1|0:1,0:0:0:0:
93,316,205516,2,0,L|187:276,1,89.9999972534181,12|8,0:0|0:3,0:0:0:0:
201,243,205991,1,8,0:3:0:0:
245,251,206149,1,12,0:1:0:0:
328,217,206464,6,0,B|463:228|628:99|451:47|378:100|378:100|327:21|158:-26|189:185|47:231|-19:125,1,809.999975280763,12|10,0:0|0:1,0:0:0:0:
58,80,209622,1,12,0:3:0:0:
108,5,209938,1,8,0:1:0:0:
256,192,210254,12,0,215150,0:0:0:0:
