osu file format v14

[General]
AudioFilename: audio.mp3
AudioLeadIn: 0
PreviewTime: 57154
Countdown: 0
SampleSet: Drum
StackLeniency: 0.7
Mode: 3
LetterboxInBreaks: 0
SpecialStyle: 0
WidescreenStoryboard: 0

[Editor]
DistanceSpacing: 2
BeatDivisor: 4
GridSize: 4
TimelineZoom: 1.2

[Metadata]
Title:Coconatsu wa yume no katachi
TitleUnicode:「ここなつ☆」は夢のカタチ
Artist:Coconatsu Produced by A than_Lily
ArtistUnicode:ここなつ Produced by A than_Lily
Creator:Shirou
Version:NOVICE
Source:SOUND VOLTEX III GRAVITY WARS
Tags:sdvx 東雲 夏陽 東雲 心菜 cocona natsuhi shinonome kokona 日南結里 小澤亜李 hinami yuri ozawa ari kokonatsu kimchi gelato
BeatmapID:3004873
BeatmapSetID:420266

[Difficulty]
HPDrainRate:6
CircleSize:4
OverallDifficulty:6
ApproachRate:5
SliderMultiplier:1.3
SliderTickRate:1

[Events]
//Background and Video events
0,0,"bgkoko.png",0,0
//Break Periods
//Storyboard Layer 0 (Background)
//Storyboard Layer 1 (Fail)
//Storyboard Layer 2 (Pass)
//Storyboard Layer 3 (Foreground)
//Storyboard Layer 4 (Overlay)
//Storyboard Sound Samples

[TimingPoints]
1043,277.777777777778,4,3,1,40,1,0
57154,-100,4,3,1,40,0,1
65487,-100,4,3,1,40,0,0
66043,-100,4,3,1,40,0,1
70348,-100,4,3,1,40,0,0
88265,-100,4,3,1,40,0,1
92570,-100,4,3,1,40,0,0

[HitObjects]
320,192,1043,5,0,0:0:0:0:
192,192,1320,1,0,0:0:0:0:
64,192,1598,1,0,0:0:0:0:
448,192,1876,1,0,0:0:0:0:
192,192,2154,1,0,0:0:0:0:
192,192,2709,1,0,0:0:0:0:
448,192,2987,1,0,0:0:0:0:
64,192,3265,1,0,0:0:0:0:
320,192,3820,1,0,0:0:0:0:
192,192,4376,1,0,0:0:0:0:
320,192,4931,1,0,0:0:0:0:
64,192,5209,1,0,0:0:0:0:
448,192,5487,1,0,0:0:0:0:
320,192,5765,1,0,0:0:0:0:
192,192,6043,1,0,0:0:0:0:
64,192,6320,1,0,0:0:0:0:
448,192,6598,1,0,0:0:0:0:
192,192,7154,1,0,0:0:0:0:
448,192,7431,1,0,0:0:0:0:
64,192,7709,1,0,0:0:0:0:
448,192,8265,128,0,8543:0:0:0:0:
192,192,8543,1,0,0:0:0:0:
64,192,8820,128,0,9098:0:0:0:0:
448,192,9098,1,0,0:0:0:0:
320,192,9376,128,0,9654:0:0:0:0:
192,192,9654,1,0,0:0:0:0:
64,192,9931,1,0,0:0:0:0:
192,192,10209,1,0,0:0:0:0:
448,192,10487,1,2,0:0:0:0:
320,192,10487,1,0,0:0:0:0:
64,192,11043,1,2,0:0:0:0:
448,192,11043,1,0,0:0:0:0:
192,192,11598,1,2,0:0:0:0:
320,192,11598,1,0,0:0:0:0:
64,192,12154,1,2,0:0:0:0:
320,192,12154,1,0,0:0:0:0:
448,192,12709,1,2,0:0:0:0:
320,192,12709,1,0,0:0:0:0:
64,192,13265,1,2,0:0:0:0:
192,192,13265,1,0,0:0:0:0:
64,192,13820,128,0,16320:0:0:0:0:
448,192,13820,128,2,16320:0:0:0:0:
64,192,16598,128,0,16876:0:0:0:0:
448,192,16876,128,0,17154:0:0:0:0:
64,192,17154,1,10,0:0:0:0:
192,192,17293,1,10,0:0:0:0:
320,192,17431,1,2,0:0:0:0:
448,192,17431,1,8,0:0:0:0:
448,192,17709,1,10,0:0:0:0:
320,192,17848,1,10,0:0:0:0:
192,192,17987,1,2,0:0:0:0:
64,192,17987,1,8,0:0:0:0:
64,192,18265,1,2,0:0:0:0:
448,192,18265,1,0,0:0:0:0:
320,192,18404,1,2,0:0:0:0:
64,192,18543,1,2,0:0:0:0:
192,192,18612,1,2,0:0:0:0:
448,192,18751,128,2,19098:0:0:0:0:
320,192,18751,1,0,0:0:0:0:
192,192,19098,128,0,19376:0:0:0:0:
64,192,19376,1,2,0:0:0:0:
320,192,19376,1,0,0:0:0:0:
192,192,19654,1,2,0:0:0:0:
448,192,19654,1,8,0:0:0:0:
64,192,19931,1,2,0:0:0:0:
192,192,20209,1,2,0:0:0:0:
448,192,20209,1,8,0:0:0:0:
320,192,20487,1,2,0:0:0:0:
64,192,20765,1,2,0:0:0:0:
448,192,20765,1,8,0:0:0:0:
192,192,21043,1,2,0:0:0:0:
320,192,21320,1,2,0:0:0:0:
448,192,21320,1,8,0:0:0:0:
192,192,21598,1,2,0:0:0:0:
64,192,21876,1,2,0:0:0:0:
448,192,21876,1,8,0:0:0:0:
320,192,22154,1,2,0:0:0:0:
64,192,22431,1,2,0:0:0:0:
192,192,22431,1,8,0:0:0:0:
320,192,22709,1,2,0:0:0:0:
192,192,22848,1,0,0:0:0:0:
448,192,22987,1,2,0:0:0:0:
64,192,22987,1,0,0:0:0:0:
320,192,23126,1,0,0:0:0:0:
192,192,23265,1,2,0:0:0:0:
64,192,23404,1,0,0:0:0:0:
448,192,23543,1,2,0:0:0:0:
320,192,23543,1,8,0:0:0:0:
64,192,23820,1,2,0:0:0:0:
320,192,23820,1,4,0:0:0:0:
192,192,24098,1,2,0:0:0:0:
448,192,24098,1,8,0:0:0:0:
320,192,24376,1,2,0:0:0:0:
64,192,24654,1,2,0:0:0:0:
448,192,24654,1,8,0:0:0:0:
192,192,24931,1,2,0:0:0:0:
320,192,25209,1,2,0:0:0:0:
448,192,25209,1,8,0:0:0:0:
64,192,25487,1,2,0:0:0:0:
192,192,25765,1,2,0:0:0:0:
448,192,25765,1,8,0:0:0:0:
64,192,26043,1,2,0:0:0:0:
320,192,26043,1,4,0:0:0:0:
320,192,26598,1,2,0:0:0:0:
448,192,26598,1,4,0:0:0:0:
64,192,27015,1,2,0:0:0:0:
320,192,27015,1,4,0:0:0:0:
64,192,27293,1,2,0:0:0:0:
192,192,27293,1,4,0:0:0:0:
320,192,27431,1,6,0:0:0:0:
192,192,27570,1,6,0:0:0:0:
448,192,27709,1,2,0:0:0:0:
320,192,27709,1,4,0:0:0:0:
64,192,27987,1,8,0:0:0:0:
448,192,27987,1,0,0:0:0:0:
320,192,28265,1,8,0:0:0:0:
192,192,28265,128,2,29098:0:0:0:0:
320,192,29098,1,10,0:0:0:0:
64,192,29376,1,2,0:0:0:0:
448,192,29376,1,4,0:0:0:0:
192,192,29654,1,2,0:0:0:0:
320,192,29654,1,8,0:0:0:0:
64,192,29931,1,2,0:0:0:0:
192,192,30209,1,2,0:0:0:0:
448,192,30209,1,8,0:0:0:0:
320,192,30487,1,2,0:0:0:0:
64,192,30765,1,2,0:0:0:0:
448,192,30765,1,8,0:0:0:0:
192,192,31043,1,2,0:0:0:0:
320,192,31320,1,10,0:0:0:0:
64,192,31459,1,2,0:0:0:0:
448,192,31459,1,4,0:0:0:0:
320,192,31737,1,6,0:0:0:0:
192,192,31876,1,6,0:0:0:0:
320,192,32015,1,2,0:0:0:0:
448,192,32015,1,4,0:0:0:0:
192,192,32293,128,0,32709:0:0:0:0:
64,192,32709,1,2,0:0:0:0:
448,192,32709,1,4,0:0:0:0:
64,192,32987,1,2,0:0:0:0:
320,192,32987,1,8,0:0:0:0:
192,192,33265,1,2,0:0:0:0:
320,192,33543,1,2,0:0:0:0:
448,192,33543,1,8,0:0:0:0:
64,192,33820,1,2,0:0:0:0:
192,192,34098,1,2,0:0:0:0:
320,192,34098,1,8,0:0:0:0:
448,192,34376,1,2,0:0:0:0:
64,192,34654,1,2,0:0:0:0:
320,192,34654,1,8,0:0:0:0:
192,192,34931,1,2,0:0:0:0:
64,192,35209,1,2,0:0:0:0:
448,192,35209,1,8,0:0:0:0:
320,192,35487,1,2,0:0:0:0:
64,192,35765,1,2,0:0:0:0:
192,192,35765,1,8,0:0:0:0:
448,192,35904,1,0,0:0:0:0:
320,192,36043,1,6,0:0:0:0:
192,192,36181,1,0,0:0:0:0:
64,192,36320,1,6,0:0:0:0:
448,192,36459,1,2,0:0:0:0:
192,192,36459,1,4,0:0:0:0:
192,192,36737,128,8,37154:0:0:0:0:
320,192,36737,128,0,37154:0:0:0:0:
64,192,37154,1,10,0:0:0:0:
448,192,37154,1,4,0:0:0:0:
192,192,37293,1,0,0:0:0:0:
64,192,37431,1,2,0:0:0:0:
320,192,37431,1,8,0:0:0:0:
448,192,37570,1,0,0:0:0:0:
192,192,37709,1,2,0:0:0:0:
320,192,37848,1,0,0:0:0:0:
64,192,37987,1,2,0:0:0:0:
448,192,37987,1,8,0:0:0:0:
320,192,38265,1,2,0:0:0:0:
64,192,38404,1,0,0:0:0:0:
192,192,38543,1,2,0:0:0:0:
448,192,38543,1,8,0:0:0:0:
320,192,38681,1,0,0:0:0:0:
64,192,38820,1,2,0:0:0:0:
448,192,38959,1,0,0:0:0:0:
192,192,39098,1,2,0:0:0:0:
320,192,39098,1,8,0:0:0:0:
448,192,39376,1,2,0:0:0:0:
192,192,39515,1,0,0:0:0:0:
64,192,39654,1,2,0:0:0:0:
320,192,39654,1,8,0:0:0:0:
448,192,39793,1,0,0:0:0:0:
64,192,39931,1,2,0:0:0:0:
192,192,40070,1,0,0:0:0:0:
448,192,40209,1,2,0:0:0:0:
320,192,40209,1,8,0:0:0:0:
64,192,40348,1,2,0:0:0:0:
192,192,40348,1,4,0:0:0:0:
448,192,40626,1,2,0:0:0:0:
320,192,40626,1,4,0:0:0:0:
192,192,40765,1,6,0:0:0:0:
64,192,40904,1,2,0:0:0:0:
448,192,40904,1,4,0:0:0:0:
320,192,41181,1,2,0:0:0:0:
192,192,41320,1,2,0:0:0:0:
64,192,41320,1,4,0:0:0:0:
64,192,41598,1,2,0:0:0:0:
320,192,41598,1,4,0:0:0:0:
448,192,41876,1,8,0:0:0:0:
192,192,41876,1,2,0:0:0:0:
64,192,42015,1,0,0:0:0:0:
320,192,42154,1,2,0:0:0:0:
192,192,42293,1,0,0:0:0:0:
64,192,42431,1,2,0:0:0:0:
320,192,42431,1,8,0:0:0:0:
448,192,42709,1,2,0:0:0:0:
192,192,42848,1,0,0:0:0:0:
64,192,42987,1,2,0:0:0:0:
448,192,42987,1,8,0:0:0:0:
320,192,43126,1,0,0:0:0:0:
64,192,43265,1,2,0:0:0:0:
320,192,43404,1,0,0:0:0:0:
192,192,43543,1,2,0:0:0:0:
448,192,43543,1,8,0:0:0:0:
64,192,43820,1,2,0:0:0:0:
320,192,43959,1,0,0:0:0:0:
448,192,44098,1,2,0:0:0:0:
192,192,44098,1,8,0:0:0:0:
64,192,44237,1,0,0:0:0:0:
448,192,44376,1,2,0:1:0:0:
320,192,44515,1,0,0:0:0:0:
64,192,44654,1,2,0:0:0:0:
192,192,44654,1,8,0:0:0:0:
320,192,44931,1,2,0:0:0:0:
448,192,44931,1,4,0:0:0:0:
64,192,45070,1,6,0:0:0:0:
448,192,45209,1,6,0:0:0:0:
192,192,45348,1,2,0:0:0:0:
64,192,45348,1,4,0:0:0:0:
320,192,45626,1,0,0:0:0:0:
192,192,45765,1,0,0:0:0:0:
64,192,46043,1,2,0:0:0:0:
192,192,46043,1,4,0:0:0:0:
320,192,46181,1,6,0:0:0:0:
192,192,46320,1,6,0:0:0:0:
448,192,46459,1,6,0:0:0:0:
64,192,46598,1,2,0:0:0:0:
192,192,46598,1,4,0:0:0:0:
448,192,47015,1,2,0:0:0:0:
320,192,47015,1,4,0:0:0:0:
64,192,47293,1,6,0:0:0:0:
320,192,47431,1,6,0:0:0:0:
192,192,47570,1,6,0:0:0:0:
448,192,47709,1,2,0:0:0:0:
320,192,47709,1,4,0:0:0:0:
192,192,47987,1,0,0:0:0:0:
64,192,48265,1,2,0:0:0:0:
448,192,48265,1,0,0:0:0:0:
192,192,48543,1,8,0:0:0:0:
448,192,48543,1,0,0:0:0:0:
320,192,48681,1,2,0:0:0:0:
64,192,48820,1,2,0:0:0:0:
448,192,49098,1,8,0:0:0:0:
320,192,49098,1,0,0:0:0:0:
192,192,49237,1,2,0:0:0:0:
64,192,49515,1,2,0:0:0:0:
192,192,49654,1,8,0:0:0:0:
448,192,49654,1,0,0:0:0:0:
320,192,49793,1,2,0:0:0:0:
448,192,49931,1,2,0:0:0:0:
64,192,50070,1,4,0:0:0:0:
192,192,50070,1,0,0:0:0:0:
448,192,50209,1,4,0:0:0:0:
320,192,50209,1,0,0:0:0:0:
64,192,50487,1,4,0:0:0:0:
192,192,50487,1,2,0:0:0:0:
448,192,50765,1,4,0:0:0:0:
320,192,50765,1,2,0:0:0:0:
192,192,51043,1,4,0:0:0:0:
64,192,51043,1,2,0:0:0:0:
320,192,51251,1,4,0:0:0:0:
448,192,51251,1,2,0:0:0:0:
320,192,51459,1,2,0:0:0:0:
64,192,51459,1,4,0:0:0:0:
192,192,51876,1,2,0:0:0:0:
448,192,51876,1,8,0:0:0:0:
320,192,52154,1,2,0:0:0:0:
64,192,52431,1,2,0:0:0:0:
192,192,52431,1,8,0:0:0:0:
448,192,52709,128,10,52848:0:0:0:0:
64,192,52848,1,2,0:0:0:0:
192,192,52848,1,8,0:0:0:0:
64,192,53126,128,10,53265:0:0:0:0:
448,192,53265,1,2,0:0:0:0:
320,192,53265,1,8,0:0:0:0:
320,192,53543,128,10,53681:0:0:0:0:
192,192,53681,1,2,0:0:0:0:
64,192,53681,1,8,0:0:0:0:
192,192,53959,128,10,54098:0:0:0:0:
320,192,54098,1,2,0:0:0:0:
448,192,54098,1,8,0:0:0:0:
64,192,54376,1,2,0:0:0:0:
192,192,54376,1,4,0:0:0:0:
320,192,54584,1,6,0:0:0:0:
192,192,54793,1,6,0:0:0:0:
320,192,54931,1,2,0:0:0:0:
448,192,54931,128,4,55626:0:0:0:0:
192,192,55904,1,10,0:0:0:0:
320,192,55904,1,4,0:0:0:0:
64,192,56181,1,0,0:0:0:0:
192,192,56320,1,0,0:0:0:0:
320,192,56459,1,0,0:0:0:0:
448,192,56598,1,0,0:0:0:0:
64,192,56737,1,0,0:0:0:0:
192,192,56876,1,0,0:0:0:0:
320,192,57015,1,0,0:0:0:0:
64,192,57154,1,2,0:0:0:0:
448,192,57154,1,0,0:0:0:0:
192,192,57293,1,0,0:0:0:0:
448,192,57431,1,10,0:0:0:0:
320,192,57570,1,0,0:0:0:0:
192,192,57709,1,2,0:0:0:0:
320,192,57848,1,0,0:0:0:0:
64,192,57987,1,10,0:0:0:0:
192,192,58126,1,0,0:0:0:0:
320,192,58265,1,2,0:0:0:0:
448,192,58404,1,0,0:0:0:0:
192,192,58543,1,2,0:0:0:0:
64,192,58543,1,8,0:0:0:0:
320,192,58820,1,2,0:0:0:0:
448,192,58820,1,4,0:0:0:0:
192,192,58959,1,2,0:0:0:0:
64,192,58959,1,4,0:0:0:0:
448,192,59098,1,2,0:0:0:0:
320,192,59098,1,4,0:0:0:0:
64,192,59237,1,2,0:0:0:0:
192,192,59237,1,4,0:0:0:0:
448,192,59376,1,2,0:0:0:0:
320,192,59515,1,0,0:0:0:0:
64,192,59654,1,10,0:0:0:0:
192,192,59793,1,0,0:0:0:0:
320,192,59931,1,2,0:0:0:0:
192,192,60070,1,0,0:0:0:0:
448,192,60209,1,10,0:0:0:0:
320,192,60348,1,0,0:0:0:0:
192,192,60487,1,2,0:0:0:0:
64,192,60626,1,0,0:0:0:0:
320,192,60765,1,2,0:0:0:0:
448,192,60765,1,8,0:0:0:0:
192,192,61043,1,2,0:0:0:0:
64,192,61043,1,4,0:0:0:0:
448,192,61181,1,2,0:0:0:0:
320,192,61181,1,4,0:0:0:0:
64,192,61320,1,2,0:0:0:0:
192,192,61320,1,4,0:0:0:0:
320,192,61459,1,2,0:0:0:0:
448,192,61459,1,4,0:0:0:0:
192,192,61598,1,2,0:0:0:0:
64,192,61737,1,0,0:0:0:0:
448,192,61876,1,2,0:0:0:0:
192,192,61876,1,8,0:0:0:0:
320,192,62015,1,0,0:0:0:0:
64,192,62154,1,2,0:0:0:0:
192,192,62293,1,0,0:0:0:0:
320,192,62431,1,2,0:0:0:0:
448,192,62431,1,8,0:0:0:0:
192,192,62709,1,2,0:0:0:0:
320,192,62848,1,0,0:0:0:0:
64,192,62987,1,2,0:0:0:0:
448,192,62987,1,8,0:0:0:0:
192,192,63126,1,0,0:0:0:0:
320,192,63265,1,2,0:0:0:0:
64,192,63404,1,0,0:0:0:0:
192,192,63543,1,2,0:0:0:0:
448,192,63543,1,8,0:0:0:0:
320,192,63820,1,2,0:0:0:0:
192,192,63959,1,0,0:0:0:0:
64,192,64098,1,2,0:0:0:0:
448,192,64098,1,8,0:0:0:0:
192,192,64237,1,0,0:0:0:0:
448,192,64376,1,2,0:0:0:0:
320,192,64515,1,0,0:0:0:0:
64,192,64654,1,2,0:0:0:0:
192,192,64654,1,8,0:0:0:0:
448,192,64793,1,0,0:0:0:0:
64,192,64931,1,2,0:0:0:0:
320,192,64931,1,4,0:0:0:0:
448,192,65209,1,2,0:0:0:0:
192,192,65209,1,4,0:0:0:0:
64,192,65487,1,2,0:0:0:0:
320,192,65487,1,4,0:0:0:0:
448,192,65765,128,0,66043:0:0:0:0:
64,192,66043,1,2,0:0:0:0:
192,192,66043,1,4,0:0:0:0:
320,192,66181,1,0,0:0:0:0:
448,192,66320,1,10,0:0:0:0:
320,192,66459,1,0,0:0:0:0:
192,192,66598,1,2,0:0:0:0:
64,192,66737,1,0,0:0:0:0:
320,192,66876,1,10,0:0:0:0:
192,192,67015,1,0,0:0:0:0:
320,192,67154,1,2,0:0:0:0:
448,192,67293,1,0,0:0:0:0:
64,192,67431,1,2,0:0:0:0:
192,192,67431,1,8,0:0:0:0:
320,192,67709,1,2,0:0:0:0:
448,192,67709,1,4,0:0:0:0:
192,192,67848,1,2,0:0:0:0:
64,192,67848,1,4,0:0:0:0:
448,192,67987,1,2,0:0:0:0:
320,192,67987,1,4,0:0:0:0:
64,192,68126,1,2,0:0:0:0:
192,192,68126,1,4,0:0:0:0:
320,192,68265,1,2,0:0:0:0:
448,192,68404,1,0,0:0:0:0:
64,192,68543,1,10,0:0:0:0:
192,192,68681,1,0,0:0:0:0:
320,192,68820,1,2,0:0:0:0:
192,192,68959,1,0,0:0:0:0:
448,192,69098,1,10,0:0:0:0:
320,192,69237,1,0,0:0:0:0:
192,192,69376,1,2,0:0:0:0:
64,192,69515,1,0,0:0:0:0:
448,192,69654,1,2,0:0:0:0:
320,192,69654,1,8,0:0:0:0:
64,192,69931,1,2,0:0:0:0:
192,192,69931,1,4,0:0:0:0:
320,192,70070,1,2,0:0:0:0:
448,192,70070,1,4,0:0:0:0:
64,192,70209,1,2,0:0:0:0:
192,192,70209,1,4,0:0:0:0:
448,192,70348,1,2,0:0:0:0:
320,192,70348,1,4,0:0:0:0:
192,192,70765,1,2,0:0:0:0:
64,192,70765,1,4,0:0:0:0:
320,192,70904,1,2,0:0:0:0:
448,192,70904,1,4,0:0:0:0:
320,192,71320,1,2,0:0:0:0:
448,192,71320,1,4,0:0:0:0:
64,192,71459,1,2,0:0:0:0:
192,192,71459,1,4,0:0:0:0:
448,192,71737,1,2,0:0:0:0:
64,192,71737,1,4,0:0:0:0:
320,192,71876,1,6,0:0:0:0:
192,192,72015,1,6,0:0:0:0:
64,192,72154,1,2,0:0:0:0:
448,192,72154,1,4,0:0:0:0:
64,192,72431,1,2,0:0:0:0:
448,192,72431,1,4,0:0:0:0:
192,192,72709,1,2,0:0:0:0:
320,192,72987,1,2,0:0:0:0:
448,192,72987,1,8,0:0:0:0:
192,192,73265,1,2,0:0:0:0:
64,192,73265,1,4,0:0:0:0:
64,192,73543,1,2,0:0:0:0:
448,192,73543,1,8,0:0:0:0:
192,192,73820,1,2,0:0:0:0:
320,192,73820,1,4,0:0:0:0:
448,192,74098,1,2,0:0:0:0:
192,192,74098,1,4,0:0:0:0:
64,192,74376,1,2,0:0:0:0:
320,192,74376,1,4,0:0:0:0:
448,192,74654,128,2,74931:0:0:0:0:
64,192,74931,128,2,75348:0:0:0:0:
320,192,74931,1,8,0:0:0:0:
192,192,75348,128,2,75765:0:0:0:0:
448,192,75348,1,8,0:0:0:0:
320,192,75765,128,2,76181:0:0:0:0:
64,192,75765,1,8,0:0:0:0:
448,192,76181,128,2,76598:0:0:0:0:
192,192,76181,1,8,0:0:0:0:
64,192,76598,128,2,76876:0:0:0:0:
320,192,76598,1,8,0:0:0:0:
448,192,76876,1,8,0:0:0:0:
320,192,77015,128,2,77987:0:0:0:0:
192,192,77015,1,4,0:0:0:0:
448,192,77223,128,0,77987:0:0:0:0:
192,192,77987,1,2,0:0:0:0:
64,192,77987,1,8,0:0:0:0:
448,192,78126,128,2,79098:0:0:0:0:
64,192,79098,1,8,0:0:0:0:
320,192,79283,1,8,0:0:0:0:
192,192,79376,128,2,79654:0:0:0:0:
64,192,79376,1,4,0:0:0:0:
64,192,79931,1,8,0:0:0:0:
448,192,79931,1,0,0:0:0:0:
64,192,80394,128,2,80765:0:0:0:0:
192,192,80765,128,2,81043:0:0:0:0:
448,192,80765,1,4,0:0:0:0:
320,192,81043,128,8,81320:0:0:0:0:
64,192,81043,1,0,0:0:0:0:
448,192,81320,128,0,81598:0:0:0:0:
64,192,81598,128,2,81876:0:0:0:0:
192,192,82154,1,8,0:0:0:0:
448,192,82154,1,0,0:0:0:0:
448,192,82617,128,2,82987:0:0:0:0:
320,192,82987,128,6,83265:0:0:0:0:
192,192,83265,128,8,83543:0:0:0:0:
448,192,83265,1,0,0:0:0:0:
64,192,83543,128,0,83820:0:0:0:0:
448,192,83820,128,2,84098:0:0:0:0:
320,192,83820,1,0,0:0:0:0:
320,192,84376,1,8,0:0:0:0:
192,192,84376,1,0,0:0:0:0:
320,192,84839,128,2,85209:0:1:0:0:
192,192,85209,128,6,85487:0:0:0:0:
448,192,85487,128,8,85765:0:0:0:0:
320,192,85487,1,0,0:0:0:0:
64,192,85765,128,2,86043:0:0:0:0:
320,192,86043,128,2,86320:0:0:0:0:
192,192,86043,128,4,86320:0:0:0:0:
64,192,87154,1,2,0:0:0:0:
192,192,87154,1,4,0:0:0:0:
320,192,87431,1,2,0:0:0:0:
448,192,87431,1,4,0:0:0:0:
64,192,87709,1,2,0:0:0:0:
192,192,87709,1,4,0:0:0:0:
64,192,88265,1,2,0:0:0:0:
448,192,88265,1,0,0:0:0:0:
64,192,88543,1,2,0:0:0:0:
448,192,88543,1,8,0:0:0:0:
320,192,88681,1,0,0:0:0:0:
192,192,88820,1,2,0:0:0:0:
320,192,88959,1,0,0:0:0:0:
64,192,89098,1,2,0:0:0:0:
448,192,89098,1,8,0:0:0:0:
192,192,89237,1,0,0:0:0:0:
320,192,89376,1,2,0:0:0:0:
192,192,89515,1,0,0:0:0:0:
64,192,89654,1,2,0:0:0:0:
448,192,89654,1,8,0:0:0:0:
448,192,89931,1,2,0:0:0:0:
64,192,89931,1,4,0:0:0:0:
320,192,90070,1,6,0:0:0:0:
192,192,90209,1,6,0:0:0:0:
64,192,90348,1,2,0:0:0:0:
448,192,90348,1,4,0:0:0:0:
320,192,90487,1,2,0:0:0:0:
192,192,90487,1,8,0:0:0:0:
64,192,90765,1,6,0:0:0:0:
448,192,90904,1,2,0:0:0:0:
320,192,90904,1,4,0:0:0:0:
192,192,91181,1,2,0:0:0:0:
320,192,91181,1,4,0:0:0:0:
64,192,91459,1,2,0:0:0:0:
448,192,91459,1,4,0:0:0:0:
192,192,91876,1,2,0:0:0:0:
320,192,91876,1,8,0:0:0:0:
448,192,92154,1,2,0:0:0:0:
320,192,92154,1,4,0:0:0:0:
192,192,92293,1,2,0:0:0:0:
64,192,92293,1,4,0:0:0:0:
320,192,92431,1,2,0:0:0:0:
448,192,92431,1,4,0:0:0:0:
64,192,92570,1,2,0:0:0:0:
192,192,92570,1,4,0:0:0:0:
320,192,92987,1,2,0:0:0:0:
448,192,92987,1,4,0:0:0:0:
64,192,93126,1,2,0:0:0:0:
192,192,93126,1,4,0:0:0:0:
192,192,93543,1,2,0:0:0:0:
64,192,93543,1,4,0:0:0:0:
448,192,93681,1,2,0:0:0:0:
320,192,93681,1,4,0:0:0:0:
64,192,93959,1,2,0:0:0:0:
448,192,93959,1,4,0:0:0:0:
192,192,94098,1,6,0:0:0:0:
320,192,94237,1,6,0:0:0:0:
448,192,94376,1,2,0:0:0:0:
64,192,94376,1,4,0:0:0:0:
64,192,94654,1,2,0:0:0:0:
320,192,94654,1,4,0:0:0:0:
448,192,94931,1,2,0:0:0:0:
192,192,94931,1,4,0:0:0:0:
320,192,95209,1,2,0:0:0:0:
192,192,95209,1,8,0:0:0:0:
64,192,95487,1,2,0:0:0:0:
192,192,95765,1,2,0:0:0:0:
448,192,95765,1,8,0:0:0:0:
64,192,96043,1,2,0:0:0:0:
192,192,96043,1,4,0:0:0:0:
320,192,96320,1,2,0:0:0:0:
448,192,96320,1,4,0:0:0:0:
64,192,96598,1,2,0:0:0:0:
192,192,96598,1,4,0:0:0:0:
320,192,96876,1,2,0:0:0:0:
192,192,96876,1,4,0:0:0:0:
448,192,97154,128,2,97709:0:0:0:0:
64,192,97154,1,4,0:0:0:0:
192,192,97709,128,2,98265:0:0:0:0:
320,192,97709,1,4,0:0:0:0:
64,192,98265,128,2,99376:0:0:0:0:
448,192,98265,1,4,0:0:0:0:
320,192,98543,1,0,0:0:0:0:
192,192,98820,1,0,0:0:0:0:
448,192,99098,1,0,0:0:0:0:
192,192,99376,128,2,100487:0:0:0:0:
320,192,99376,128,8,100487:0:0:0:0:
448,192,100487,1,0,0:0:0:0:
64,192,100487,1,2,0:0:0:0:
320,192,100765,1,2,0:0:0:0:
192,192,100765,1,8,0:0:0:0:
448,192,101043,1,2,0:0:0:0:
192,192,101181,1,0,0:0:0:0:
320,192,101320,1,2,0:0:0:0:
64,192,101320,1,8,0:0:0:0:
192,192,101598,1,2,0:0:0:0:
320,192,101737,1,0,0:0:0:0:
448,192,101876,1,2,0:0:0:0:
64,192,101876,1,8,0:0:0:0:
320,192,102015,1,0,0:0:0:0:
192,192,102154,1,2,0:0:0:0:
448,192,102293,1,0,0:0:0:0:
320,192,102431,1,2,0:0:0:0:
64,192,102431,1,8,0:0:0:0:
320,192,102709,1,2,0:0:0:0:
192,192,102848,1,0,0:0:0:0:
448,192,102987,1,2,0:0:0:0:
64,192,102987,1,8,0:0:0:0:
192,192,103265,1,2,0:0:0:0:
320,192,103404,1,0,0:0:0:0:
448,192,103543,1,2,0:0:0:0:
64,192,103543,1,8,0:0:0:0:
192,192,103820,1,2,0:0:0:0:
448,192,103959,1,0,0:0:0:0:
320,192,104098,1,2,0:0:0:0:
64,192,104098,1,8,0:0:0:0:
192,192,104237,1,0,0:0:0:0:
448,192,104376,1,2,0:0:0:0:
320,192,104515,1,0,0:0:0:0:
64,192,104654,1,2,0:0:0:0:
192,192,104654,1,8,0:0:0:0:
448,192,104931,1,2,0:0:0:0:
192,192,105070,1,0,0:0:0:0:
320,192,105209,1,2,0:0:0:0:
64,192,105209,1,8,0:0:0:0:
192,192,105487,1,2,0:0:0:0:
448,192,105626,1,0,0:0:0:0:
320,192,105765,1,2,0:0:0:0:
64,192,105765,1,8,0:0:0:0:
192,192,106043,1,2,0:0:0:0:
320,192,106181,1,0,0:0:0:0:
64,192,106320,1,2,0:0:0:0:
448,192,106320,1,8,0:0:0:0:
192,192,106459,1,0,0:0:0:0:
448,192,106598,1,2,0:0:0:0:
192,192,106737,1,0,0:0:0:0:
320,192,106876,1,2,0:0:0:0:
64,192,106876,1,8,0:0:0:0:
448,192,107154,1,2,0:0:0:0:
192,192,107154,1,4,0:0:0:0:
192,192,107709,1,2,0:0:0:0:
64,192,107709,1,4,0:0:0:0:
448,192,108126,1,2,0:0:0:0:
192,192,108126,1,4,0:0:0:0:
448,192,108404,1,2,0:0:0:0:
320,192,108404,1,4,0:0:0:0:
192,192,108543,1,2,0:0:0:0:
64,192,108543,1,4,0:0:0:0:
320,192,108681,1,2,0:0:0:0:
448,192,108681,1,4,0:0:0:0:
64,192,108820,1,2,0:0:0:0:
192,192,108820,1,4,0:0:0:0:
448,192,109098,1,8,0:0:0:0:
64,192,109098,1,8,0:0:0:0:
