osu file format v14

[General]
AudioFilename: audio.mp3
AudioLeadIn: 0
PreviewTime: 57154
Countdown: 0
SampleSet: Drum
StackLeniency: 0.7
Mode: 3
LetterboxInBreaks: 0
SpecialStyle: 0
WidescreenStoryboard: 1

[Editor]
DistanceSpacing: 2
BeatDivisor: 4
GridSize: 4
TimelineZoom: 1.6

[Metadata]
Title:Coconatsu wa yume no katachi
TitleUnicode:「ここなつ☆」は夢のカタチ
Artist:Coconatsu Produced by A than_Lily
ArtistUnicode:ここなつ Produced by A than_Lily
Creator:Shirou
Version:HS
Source:SOUND VOLTEX III GRAVITY WARS
Tags:sdvx 東雲 夏陽 東雲 心菜 cocona natsuhi shinonome kokona 日南結里 小澤亜李 hinami yuri ozawa ari kokonatsu kimchi gelato
BeatmapID:3004872
BeatmapSetID:420266

[Difficulty]
HPDrainRate:0
CircleSize:9
OverallDifficulty:0
ApproachRate:5
SliderMultiplier:1.3
SliderTickRate:1

[Events]
//Background and Video events
0,0,"bgkoko.png",0,0
//Break Periods
//Storyboard Layer 0 (Background)
//Storyboard Layer 1 (Fail)
//Storyboard Layer 2 (Pass)
//Storyboard Layer 3 (Foreground)
//Storyboard Layer 4 (Overlay)
//Storyboard Sound Samples

[TimingPoints]
1043,277.777777777778,4,3,1,40,1,0

[HitObjects]
28,192,10487,5,2,0:0:0:0:
28,192,11043,1,2,0:0:0:0:
28,192,11598,1,2,0:0:0:0:
28,192,12154,1,2,0:0:0:0:
28,192,12709,1,2,0:0:0:0:
28,192,13265,1,2,0:0:0:0:
28,192,13820,1,2,0:0:0:0:
64,192,17154,1,8,0:0:0:0:
28,192,17154,1,2,0:0:0:0:
28,192,17223,1,2,0:0:0:0:
85,192,17223,1,8,0:0:0:0:
64,192,17293,1,8,0:0:0:0:
28,192,17293,1,2,0:0:0:0:
28,192,17362,1,2,0:0:0:0:
85,192,17362,1,8,0:0:0:0:
64,192,17431,1,8,0:0:0:0:
28,192,17431,1,2,0:0:0:0:
28,192,17709,1,2,0:0:0:0:
85,192,17709,1,8,0:0:0:0:
64,192,17779,1,8,0:0:0:0:
28,192,17779,1,2,0:0:0:0:
28,192,17848,1,2,0:0:0:0:
85,192,17848,1,8,0:0:0:0:
64,192,17918,1,8,0:0:0:0:
28,192,17918,1,2,0:0:0:0:
28,192,17987,1,2,0:0:0:0:
85,192,17987,1,8,0:0:0:0:
28,192,18265,1,2,0:0:0:0:
28,192,18404,1,2,0:0:0:0:
28,192,18543,1,2,0:0:0:0:
28,192,18612,1,2,0:0:0:0:
28,192,18751,1,2,0:0:0:0:
28,192,19376,1,2,0:0:0:0:
28,192,19654,1,2,0:0:0:0:
85,192,19654,1,8,0:0:0:0:
28,192,19931,1,2,0:0:0:0:
28,192,20209,1,2,0:0:0:0:
64,192,20209,1,8,0:0:0:0:
28,192,20487,1,2,0:0:0:0:
64,192,20765,1,8,0:0:0:0:
28,192,20765,1,2,0:0:0:0:
28,192,21043,1,2,0:0:0:0:
28,192,21320,1,2,0:0:0:0:
85,192,21320,1,8,0:0:0:0:
28,192,21598,1,2,0:0:0:0:
28,192,21876,1,2,0:0:0:0:
85,192,21876,1,8,0:0:0:0:
28,192,22154,1,2,0:0:0:0:
64,192,22431,1,8,0:0:0:0:
28,192,22431,1,2,0:0:0:0:
28,192,22709,1,2,0:0:0:0:
64,192,22987,1,8,0:0:0:0:
28,192,22987,1,2,0:0:0:0:
28,192,23265,1,2,0:0:0:0:
28,192,23543,1,2,0:0:0:0:
85,192,23543,1,8,0:0:0:0:
28,192,23820,1,2,0:0:0:0:
142,192,23820,1,4,0:0:0:0:
28,192,24098,1,2,0:0:0:0:
85,192,24098,1,8,0:0:0:0:
28,192,24376,1,2,0:0:0:0:
64,192,24654,1,8,0:0:0:0:
28,192,24654,1,2,0:0:0:0:
28,192,24931,1,2,0:0:0:0:
85,192,25209,1,8,0:0:0:0:
28,192,25209,1,2,0:0:0:0:
28,192,25487,1,2,0:0:0:0:
28,192,25765,1,2,0:0:0:0:
85,192,25765,1,8,0:0:0:0:
28,192,26043,1,2,0:0:0:0:
142,192,26043,1,4,0:0:0:0:
142,192,26598,1,4,0:0:0:0:
28,192,26598,1,2,0:0:0:0:
28,192,27015,1,2,0:0:0:0:
142,192,27015,1,4,0:0:0:0:
28,192,27293,1,2,0:0:0:0:
142,192,27293,1,4,0:0:0:0:
142,192,27431,1,4,0:0:0:0:
28,192,27431,1,2,0:0:0:0:
28,192,27570,1,2,0:0:0:0:
142,192,27570,1,4,0:0:0:0:
28,192,27709,1,2,0:0:0:0:
142,192,27709,1,4,0:0:0:0:
85,192,27987,1,8,0:0:0:0:
85,192,28265,1,8,0:0:0:0:
28,192,28265,1,2,0:0:0:0:
85,192,29098,1,8,0:0:0:0:
28,192,29098,1,2,0:0:0:0:
28,192,29376,1,2,0:0:0:0:
142,192,29376,1,4,0:0:0:0:
28,192,29654,1,2,0:0:0:0:
85,192,29654,1,8,0:0:0:0:
28,192,29931,1,2,0:0:0:0:
28,192,30209,1,2,0:0:0:0:
85,192,30209,1,8,0:0:0:0:
28,192,30487,1,2,0:0:0:0:
28,192,30765,1,2,0:0:0:0:
85,192,30765,1,8,0:0:0:0:
28,192,31043,1,2,0:0:0:0:
85,192,31320,1,8,0:0:0:0:
28,192,31320,1,2,0:0:0:0:
28,192,31459,1,2,0:0:0:0:
142,192,31459,1,4,0:0:0:0:
28,192,31737,1,2,0:0:0:0:
142,192,31737,1,4,0:0:0:0:
142,192,31876,1,4,0:0:0:0:
28,192,31876,1,2,0:0:0:0:
28,192,32015,1,2,0:0:0:0:
142,192,32015,1,4,0:0:0:0:
28,192,32709,1,2,0:0:0:0:
142,192,32709,1,4,0:0:0:0:
28,192,32987,1,2,0:0:0:0:
64,192,32987,1,8,0:0:0:0:
28,192,33265,1,2,0:0:0:0:
28,192,33543,1,2,0:0:0:0:
85,192,33543,1,8,0:0:0:0:
28,192,33820,1,2,0:0:0:0:
85,192,34098,1,8,0:0:0:0:
28,192,34098,1,2,0:0:0:0:
28,192,34376,1,2,0:0:0:0:
28,192,34654,1,2,0:0:0:0:
85,192,34654,1,8,0:0:0:0:
28,192,34931,1,2,0:0:0:0:
64,192,35209,1,8,0:0:0:0:
28,192,35209,1,2,0:0:0:0:
28,192,35487,1,2,0:0:0:0:
85,192,35765,1,8,0:0:0:0:
28,192,35765,1,2,0:0:0:0:
142,192,36043,1,4,0:0:0:0:
28,192,36043,1,2,0:0:0:0:
142,192,36320,1,4,0:0:0:0:
28,192,36320,1,2,0:0:0:0:
28,192,36459,1,2,0:0:0:0:
142,192,36459,1,4,0:0:0:0:
85,192,36737,1,8,0:0:0:0:
85,192,36806,1,8,0:0:0:0:
85,192,36876,1,8,0:0:0:0:
85,192,36945,1,8,0:0:0:0:
85,192,37015,1,8,0:0:0:0:
85,192,37084,1,8,0:0:0:0:
28,192,37154,1,2,0:0:0:0:
85,192,37154,1,8,0:0:0:0:
142,192,37154,1,4,0:0:0:0:
85,192,37431,1,8,0:0:0:0:
28,192,37431,1,2,0:0:0:0:
28,192,37709,1,2,0:0:0:0:
64,192,37987,1,8,0:0:0:0:
28,192,37987,1,2,0:0:0:0:
28,192,38265,1,2,0:0:0:0:
28,192,38543,1,2,0:0:0:0:
85,192,38543,1,8,0:0:0:0:
28,192,38820,1,2,0:0:0:0:
85,192,39098,1,8,0:0:0:0:
28,192,39098,1,2,0:0:0:0:
28,192,39376,1,2,0:0:0:0:
85,192,39654,1,8,0:0:0:0:
28,192,39654,1,2,0:0:0:0:
28,192,39931,1,2,0:0:0:0:
28,192,40209,1,2,0:0:0:0:
85,192,40209,1,8,0:0:0:0:
142,192,40348,1,4,0:0:0:0:
28,192,40348,1,2,0:0:0:0:
28,192,40626,1,2,0:0:0:0:
142,192,40626,1,4,0:0:0:0:
142,192,40765,1,4,0:0:0:0:
28,192,40765,1,2,0:0:0:0:
28,192,40904,1,2,0:0:0:0:
142,192,40904,1,4,0:0:0:0:
28,192,41181,1,2,0:0:0:0:
142,192,41320,1,4,0:0:0:0:
28,192,41320,1,2,0:0:0:0:
142,192,41598,1,4,0:0:0:0:
28,192,41598,1,2,0:0:0:0:
85,192,41876,1,8,0:0:0:0:
28,192,41876,1,2,0:0:0:0:
28,192,42154,1,2,0:0:0:0:
85,192,42431,1,8,0:0:0:0:
28,192,42431,1,2,0:0:0:0:
28,192,42709,1,2,0:0:0:0:
28,192,42987,1,2,0:0:0:0:
64,192,42987,1,8,0:0:0:0:
28,192,43265,1,2,0:0:0:0:
85,192,43543,1,8,0:0:0:0:
28,192,43543,1,2,0:0:0:0:
28,192,43820,1,2,0:0:0:0:
28,192,44098,1,2,0:0:0:0:
85,192,44098,1,8,0:0:0:0:
28,192,44376,1,2,0:0:0:0:
28,192,44654,1,2,0:0:0:0:
85,192,44654,1,8,0:0:0:0:
28,192,44931,1,2,0:0:0:0:
142,192,44931,1,4,0:0:0:0:
142,192,45070,1,4,0:0:0:0:
28,192,45070,1,2,0:0:0:0:
28,192,45209,1,2,0:0:0:0:
142,192,45209,1,4,0:0:0:0:
142,192,45348,1,4,0:0:0:0:
28,192,45348,1,2,0:0:0:0:
28,192,46043,1,2,0:0:0:0:
142,192,46043,1,4,0:0:0:0:
142,192,46181,1,4,0:0:0:0:
28,192,46181,1,2,0:0:0:0:
28,192,46320,1,2,0:0:0:0:
142,192,46320,1,4,0:0:0:0:
28,192,46459,1,2,0:0:0:0:
142,192,46459,1,4,0:0:0:0:
142,192,46598,1,4,0:0:0:0:
28,192,46598,1,2,0:0:0:0:
142,192,47015,1,4,0:0:0:0:
28,192,47015,1,2,0:0:0:0:
142,192,47293,1,4,0:0:0:0:
28,192,47293,1,2,0:0:0:0:
142,192,47431,1,4,0:0:0:0:
28,192,47431,1,2,0:0:0:0:
142,192,47570,1,4,0:0:0:0:
28,192,47570,1,2,0:0:0:0:
28,192,47709,1,2,0:0:0:0:
142,192,47709,1,4,0:0:0:0:
28,192,48265,1,2,0:0:0:0:
85,192,48543,1,8,0:0:0:0:
28,192,48681,1,2,0:0:0:0:
28,192,48820,1,2,0:0:0:0:
85,192,49098,1,8,0:0:0:0:
28,192,49237,1,2,0:0:0:0:
28,192,49515,1,2,0:0:0:0:
64,192,49654,1,8,0:0:0:0:
28,192,49793,1,2,0:0:0:0:
28,192,49931,1,2,0:0:0:0:
142,192,50070,1,4,0:0:0:0:
142,192,50209,1,4,0:0:0:0:
142,192,50487,1,4,0:0:0:0:
28,192,50487,1,2,0:0:0:0:
142,192,50765,1,4,0:0:0:0:
28,192,50765,1,2,0:0:0:0:
142,192,51043,1,4,0:0:0:0:
28,192,51043,1,2,0:0:0:0:
142,192,51251,1,4,0:0:0:0:
28,192,51251,1,2,0:0:0:0:
28,192,51459,1,2,0:0:0:0:
142,192,51459,1,4,0:0:0:0:
64,192,51876,1,8,0:0:0:0:
28,192,51876,1,2,0:0:0:0:
28,192,52154,1,2,0:0:0:0:
64,192,52431,1,8,0:0:0:0:
28,192,52431,1,2,0:0:0:0:
28,192,52709,1,2,0:0:0:0:
64,192,52709,1,8,0:0:0:0:
28,192,52779,1,2,0:0:0:0:
85,192,52779,1,8,0:0:0:0:
28,192,52848,1,2,0:0:0:0:
64,192,52848,1,8,0:0:0:0:
85,192,53126,1,8,0:0:0:0:
28,192,53126,1,2,0:0:0:0:
64,192,53195,1,8,0:0:0:0:
28,192,53195,1,2,0:0:0:0:
85,192,53265,1,8,0:0:0:0:
28,192,53265,1,2,0:0:0:0:
28,192,53543,1,2,0:0:0:0:
85,192,53543,1,8,0:0:0:0:
64,192,53612,1,8,0:0:0:0:
28,192,53612,1,2,0:0:0:0:
28,192,53681,1,2,0:0:0:0:
85,192,53681,1,8,0:0:0:0:
85,192,53959,1,8,0:0:0:0:
28,192,53959,1,2,0:0:0:0:
28,192,54029,1,2,0:0:0:0:
85,192,54029,1,8,0:0:0:0:
85,192,54098,1,8,0:0:0:0:
28,192,54098,1,2,0:0:0:0:
28,192,54376,1,2,0:0:0:0:
142,192,54376,1,4,0:0:0:0:
28,192,54584,1,2,0:0:0:0:
142,192,54584,1,4,0:0:0:0:
142,192,54793,1,4,0:0:0:0:
28,192,54793,1,2,0:0:0:0:
28,192,54931,1,2,0:0:0:0:
142,192,54931,1,4,0:0:0:0:
28,192,55209,1,2,0:0:0:0:
28,192,55487,1,2,0:0:0:0:
28,192,55765,1,2,0:0:0:0:
85,192,55904,1,8,0:0:0:0:
28,192,55904,1,2,0:0:0:0:
142,192,55904,1,4,0:0:0:0:
28,192,57154,1,2,0:0:0:0:
28,192,57431,1,2,0:0:0:0:
85,192,57431,1,8,0:0:0:0:
28,192,57709,1,2,0:0:0:0:
64,192,57987,1,8,0:0:0:0:
28,192,57987,1,2,0:0:0:0:
28,192,58265,1,2,0:0:0:0:
64,192,58543,1,8,0:0:0:0:
28,192,58543,1,2,0:0:0:0:
142,192,58820,1,4,0:0:0:0:
28,192,58820,1,2,0:0:0:0:
28,192,58959,1,2,0:0:0:0:
142,192,58959,1,4,0:0:0:0:
28,192,59098,1,2,0:0:0:0:
142,192,59098,1,4,0:0:0:0:
142,192,59237,1,4,0:0:0:0:
28,192,59237,1,2,0:0:0:0:
28,192,59376,1,2,0:0:0:0:
28,192,59654,1,2,0:0:0:0:
85,192,59654,1,8,0:0:0:0:
28,192,59931,1,2,0:0:0:0:
28,192,60209,1,2,0:0:0:0:
85,192,60209,1,8,0:0:0:0:
28,192,60487,1,2,0:0:0:0:
28,192,60765,1,2,0:0:0:0:
85,192,60765,1,8,0:0:0:0:
28,192,61043,1,2,0:0:0:0:
142,192,61043,1,4,0:0:0:0:
142,192,61181,1,4,0:0:0:0:
28,192,61181,1,2,0:0:0:0:
28,192,61320,1,2,0:0:0:0:
142,192,61320,1,4,0:0:0:0:
28,192,61459,1,2,0:0:0:0:
142,192,61459,1,4,0:0:0:0:
28,192,61598,1,2,0:0:0:0:
28,192,61876,1,2,0:0:0:0:
85,192,61876,1,8,0:0:0:0:
28,192,62154,1,2,0:0:0:0:
28,192,62431,1,2,0:0:0:0:
85,192,62431,1,8,0:0:0:0:
28,192,62709,1,2,0:0:0:0:
85,192,62987,1,8,0:0:0:0:
28,192,62987,1,2,0:0:0:0:
28,192,63265,1,2,0:0:0:0:
85,192,63543,1,8,0:0:0:0:
28,192,63543,1,2,0:0:0:0:
28,192,63820,1,2,0:0:0:0:
28,192,64098,1,2,0:0:0:0:
85,192,64098,1,8,0:0:0:0:
28,192,64376,1,2,0:0:0:0:
28,192,64654,1,2,0:0:0:0:
85,192,64654,1,8,0:0:0:0:
28,192,64931,1,2,0:0:0:0:
142,192,64931,1,4,0:0:0:0:
142,192,65209,1,4,0:0:0:0:
28,192,65209,1,2,0:0:0:0:
142,192,65487,1,4,0:0:0:0:
28,192,65487,1,2,0:0:0:0:
142,192,66043,1,4,0:0:0:0:
28,192,66043,1,2,0:0:0:0:
28,192,66320,1,2,0:0:0:0:
85,192,66320,1,8,0:0:0:0:
28,192,66598,1,2,0:0:0:0:
85,192,66876,1,8,0:0:0:0:
28,192,66876,1,2,0:0:0:0:
28,192,67154,1,2,0:0:0:0:
28,192,67431,1,2,0:0:0:0:
85,192,67431,1,8,0:0:0:0:
142,192,67709,1,4,0:0:0:0:
28,192,67709,1,2,0:0:0:0:
142,192,67848,1,4,0:0:0:0:
28,192,67848,1,2,0:0:0:0:
28,192,67987,1,2,0:0:0:0:
142,192,67987,1,4,0:0:0:0:
28,192,68126,1,2,0:0:0:0:
142,192,68126,1,4,0:0:0:0:
28,192,68265,1,2,0:0:0:0:
64,192,68543,1,8,0:0:0:0:
28,192,68543,1,2,0:0:0:0:
28,192,68820,1,2,0:0:0:0:
28,192,69098,1,2,0:0:0:0:
64,192,69098,1,8,0:0:0:0:
28,192,69376,1,2,0:0:0:0:
64,192,69654,1,8,0:0:0:0:
28,192,69654,1,2,0:0:0:0:
142,192,69931,1,4,0:0:0:0:
28,192,69931,1,2,0:0:0:0:
28,192,70070,1,2,0:0:0:0:
142,192,70070,1,4,0:0:0:0:
28,192,70209,1,2,0:0:0:0:
142,192,70209,1,4,0:0:0:0:
142,192,70348,1,4,0:0:0:0:
28,192,70348,1,2,0:0:0:0:
28,192,70765,1,2,0:0:0:0:
142,192,70765,1,4,0:0:0:0:
28,192,70904,1,2,0:0:0:0:
142,192,70904,1,4,0:0:0:0:
142,192,71320,1,4,0:0:0:0:
28,192,71320,1,2,0:0:0:0:
142,192,71459,1,4,0:0:0:0:
28,192,71459,1,2,0:0:0:0:
142,192,71737,1,4,0:0:0:0:
28,192,71737,1,2,0:0:0:0:
28,192,71876,1,2,0:0:0:0:
142,192,71876,1,4,0:0:0:0:
28,192,72015,1,2,0:0:0:0:
142,192,72015,1,4,0:0:0:0:
28,192,72154,1,2,0:0:0:0:
142,192,72154,1,4,0:0:0:0:
28,192,72431,1,2,0:0:0:0:
142,192,72431,1,4,0:0:0:0:
28,192,72709,1,2,0:0:0:0:
28,192,72987,1,2,0:0:0:0:
85,192,72987,1,8,0:0:0:0:
142,192,73265,1,4,0:0:0:0:
28,192,73265,1,2,0:0:0:0:
85,192,73543,1,8,0:0:0:0:
28,192,73543,1,2,0:0:0:0:
28,192,73820,1,2,0:0:0:0:
142,192,73820,1,4,0:0:0:0:
142,192,74098,1,4,0:0:0:0:
28,192,74098,1,2,0:0:0:0:
142,192,74376,1,4,0:0:0:0:
28,192,74376,1,2,0:0:0:0:
28,192,74654,1,2,0:0:0:0:
28,192,74931,1,2,0:0:0:0:
85,192,74931,1,8,0:0:0:0:
28,192,75348,1,2,0:0:0:0:
85,192,75348,1,8,0:0:0:0:
64,192,75765,1,8,0:0:0:0:
28,192,75765,1,2,0:0:0:0:
28,192,76181,1,2,0:0:0:0:
85,192,76181,1,8,0:0:0:0:
28,192,76598,1,2,0:0:0:0:
64,192,76598,1,8,0:0:0:0:
64,192,76876,1,8,0:0:0:0:
28,192,77015,1,2,0:0:0:0:
142,192,77015,1,4,0:0:0:0:
28,192,77431,1,2,0:0:0:0:
28,192,77709,1,2,0:0:0:0:
28,192,77987,1,2,0:0:0:0:
85,192,77987,1,8,0:0:0:0:
28,192,78126,1,2,0:0:0:0:
85,192,79098,1,8,0:0:0:0:
85,192,79283,1,8,0:0:0:0:
142,192,79376,1,4,0:0:0:0:
28,192,79376,1,2,0:0:0:0:
28,192,79839,1,2,0:0:0:0:
85,192,79931,1,8,0:0:0:0:
28,192,80394,1,2,0:0:0:0:
28,192,80672,1,2,0:0:0:0:
28,192,80765,1,2,0:0:0:0:
142,192,80765,1,4,0:0:0:0:
64,192,81043,1,8,0:0:0:0:
28,192,81505,1,2,0:0:0:0:
28,192,81598,1,2,0:0:0:0:
28,192,82061,1,2,0:0:0:0:
85,192,82154,1,8,0:0:0:0:
28,192,82617,1,2,0:0:0:0:
28,192,82894,1,2,0:0:0:0:
28,192,82987,1,2,0:0:0:0:
142,192,82987,1,4,0:0:0:0:
85,192,83265,1,8,0:0:0:0:
28,192,83820,1,2,0:0:0:0:
28,192,84283,1,2,0:0:0:0:
85,192,84376,1,8,0:0:0:0:
28,192,84839,1,2,0:0:0:0:
28,192,85209,1,2,0:0:0:0:
142,192,85209,1,4,0:0:0:0:
64,192,85487,1,8,0:0:0:0:
28,192,85765,1,2,0:0:0:0:
28,192,86043,1,2,0:0:0:0:
142,192,86043,1,4,0:0:0:0:
28,192,87154,1,2,0:0:0:0:
142,192,87154,1,4,0:0:0:0:
142,192,87431,1,4,0:0:0:0:
28,192,87431,1,2,0:0:0:0:
28,192,87709,1,2,0:0:0:0:
142,192,87709,1,4,0:0:0:0:
28,192,88265,1,2,0:0:0:0:
28,192,88543,1,2,0:0:0:0:
85,192,88543,1,8,0:0:0:0:
28,192,88820,1,2,0:0:0:0:
28,192,89098,1,2,0:0:0:0:
85,192,89098,1,8,0:0:0:0:
28,192,89376,1,2,0:0:0:0:
64,192,89654,1,8,0:0:0:0:
28,192,89654,1,2,0:0:0:0:
142,192,89931,1,4,0:0:0:0:
28,192,89931,1,2,0:0:0:0:
28,192,90070,1,2,0:0:0:0:
142,192,90070,1,4,0:0:0:0:
28,192,90209,1,2,0:0:0:0:
142,192,90209,1,4,0:0:0:0:
28,192,90348,1,2,0:0:0:0:
142,192,90348,1,4,0:0:0:0:
28,192,90487,1,2,0:0:0:0:
85,192,90487,1,8,0:0:0:0:
28,192,90765,1,2,0:0:0:0:
142,192,90765,1,4,0:0:0:0:
28,192,90904,1,2,0:0:0:0:
142,192,90904,1,4,0:0:0:0:
142,192,91181,1,4,0:0:0:0:
28,192,91181,1,2,0:0:0:0:
28,192,91459,1,2,0:0:0:0:
142,192,91459,1,4,0:0:0:0:
28,192,91876,1,2,0:0:0:0:
85,192,91876,1,8,0:0:0:0:
28,192,92154,1,2,0:0:0:0:
142,192,92154,1,4,0:0:0:0:
142,192,92293,1,4,0:0:0:0:
28,192,92293,1,2,0:0:0:0:
28,192,92431,1,2,0:0:0:0:
142,192,92431,1,4,0:0:0:0:
142,192,92570,1,4,0:0:0:0:
28,192,92570,1,2,0:0:0:0:
28,192,92987,1,2,0:0:0:0:
142,192,92987,1,4,0:0:0:0:
28,192,93126,1,2,0:0:0:0:
142,192,93126,1,4,0:0:0:0:
142,192,93543,1,4,0:0:0:0:
28,192,93543,1,2,0:0:0:0:
28,192,93681,1,2,0:0:0:0:
142,192,93681,1,4,0:0:0:0:
142,192,93959,1,4,0:0:0:0:
28,192,93959,1,2,0:0:0:0:
142,192,94098,1,4,0:0:0:0:
28,192,94098,1,2,0:0:0:0:
28,192,94237,1,2,0:0:0:0:
142,192,94237,1,4,0:0:0:0:
28,192,94376,1,2,0:0:0:0:
142,192,94376,1,4,0:0:0:0:
28,192,94654,1,2,0:0:0:0:
142,192,94654,1,4,0:0:0:0:
28,192,94931,1,2,0:0:0:0:
142,192,94931,1,4,0:0:0:0:
28,192,95209,1,2,0:0:0:0:
85,192,95209,1,8,0:0:0:0:
28,192,95487,1,2,0:0:0:0:
64,192,95765,1,8,0:0:0:0:
28,192,95765,1,2,0:0:0:0:
28,192,96043,1,2,0:0:0:0:
142,192,96043,1,4,0:0:0:0:
28,192,96320,1,2,0:0:0:0:
142,192,96320,1,4,0:0:0:0:
28,192,96598,1,2,0:0:0:0:
142,192,96598,1,4,0:0:0:0:
28,192,96876,1,2,0:0:0:0:
142,192,96876,1,4,0:0:0:0:
28,192,97154,1,2,0:0:0:0:
142,192,97154,1,4,0:0:0:0:
28,192,97709,1,2,0:0:0:0:
142,192,97709,1,4,0:0:0:0:
28,192,98265,1,2,0:0:0:0:
142,192,98265,1,4,0:0:0:0:
28,192,99376,1,2,0:0:0:0:
85,192,99376,1,8,0:0:0:0:
64,192,99445,1,8,0:0:0:0:
28,192,99445,1,2,0:0:0:0:
28,192,99515,1,2,0:0:0:0:
85,192,99515,1,8,0:0:0:0:
64,192,99584,1,8,0:0:0:0:
28,192,99584,1,2,0:0:0:0:
28,192,99654,1,2,0:0:0:0:
85,192,99654,1,8,0:0:0:0:
64,192,99723,1,8,0:0:0:0:
28,192,99723,1,2,0:0:0:0:
28,192,99793,1,2,0:0:0:0:
85,192,99793,1,8,0:0:0:0:
28,192,99862,1,2,0:0:0:0:
64,192,99862,1,8,0:0:0:0:
28,192,99931,1,2,0:0:0:0:
85,192,99931,1,8,0:0:0:0:
64,192,100001,1,8,0:0:0:0:
28,192,100001,1,2,0:0:0:0:
28,192,100070,1,2,0:0:0:0:
85,192,100070,1,8,0:0:0:0:
64,192,100140,1,8,0:0:0:0:
28,192,100140,1,2,0:0:0:0:
28,192,100209,1,2,0:0:0:0:
85,192,100209,1,8,0:0:0:0:
64,192,100279,1,8,0:0:0:0:
28,192,100279,1,2,0:0:0:0:
85,192,100348,1,8,0:0:0:0:
28,192,100348,1,2,0:0:0:0:
28,192,100418,1,2,0:0:0:0:
64,192,100418,1,8,0:0:0:0:
28,192,100487,1,2,0:0:0:0:
28,192,100765,1,2,0:0:0:0:
85,192,100765,1,8,0:0:0:0:
28,192,101043,1,2,0:0:0:0:
64,192,101320,1,8,0:0:0:0:
28,192,101320,1,2,0:0:0:0:
28,192,101598,1,2,0:0:0:0:
28,192,101876,1,2,0:0:0:0:
64,192,101876,1,8,0:0:0:0:
28,192,102154,1,2,0:0:0:0:
28,192,102431,1,2,0:0:0:0:
85,192,102431,1,8,0:0:0:0:
28,192,102709,1,2,0:0:0:0:
28,192,102987,1,2,0:0:0:0:
85,192,102987,1,8,0:0:0:0:
28,192,103265,1,2,0:0:0:0:
64,192,103543,1,8,0:0:0:0:
28,192,103543,1,2,0:0:0:0:
28,192,103820,1,2,0:0:0:0:
28,192,104098,1,2,0:0:0:0:
85,192,104098,1,8,0:0:0:0:
28,192,104376,1,2,0:0:0:0:
85,192,104654,1,8,0:0:0:0:
28,192,104654,1,2,0:0:0:0:
28,192,104931,1,2,0:0:0:0:
85,192,105209,1,8,0:0:0:0:
28,192,105209,1,2,0:0:0:0:
28,192,105487,1,2,0:0:0:0:
28,192,105765,1,2,0:0:0:0:
85,192,105765,1,8,0:0:0:0:
28,192,106043,1,2,0:0:0:0:
85,192,106320,1,8,0:0:0:0:
28,192,106320,1,2,0:0:0:0:
28,192,106598,1,2,0:0:0:0:
85,192,106876,1,8,0:0:0:0:
28,192,106876,1,2,0:0:0:0:
28,192,107154,1,2,0:0:0:0:
142,192,107154,1,4,0:0:0:0:
142,192,107709,1,4,0:0:0:0:
28,192,107709,1,2,0:0:0:0:
142,192,108126,1,4,0:0:0:0:
28,192,108126,1,2,0:0:0:0:
142,192,108404,1,4,0:0:0:0:
28,192,108404,1,2,0:0:0:0:
28,192,108543,1,2,0:0:0:0:
142,192,108543,1,4,0:0:0:0:
142,192,108681,1,4,0:0:0:0:
28,192,108681,1,2,0:0:0:0:
142,192,108820,1,4,0:0:0:0:
28,192,108820,1,2,0:0:0:0:
199,192,109098,1,8,0:0:0:0:
64,192,109098,1,8,0:0:0:0:
