osu file format v14

[General]
AudioFilename: audio.mp3
AudioLeadIn: 0
PreviewTime: 77391
Countdown: 0
SampleSet: Soft
StackLeniency: 0.7
Mode: 0
LetterboxInBreaks: 0
WidescreenStoryboard: 1

[Editor]
Bookmarks: 949,16333,28641,34795,47102,59410,77872,90179,96333,96525,96718,96910,97102,102487,105564,116718,117487
DistanceSpacing: 0.6
BeatDivisor: 4
GridSize: 4
TimelineZoom: 0.7999998

[Metadata]
Title:Ronron e Rairairai!
TitleUnicode:ロンロンヘ ライライライ!
Artist:Coconatsu
ArtistUnicode:ここなつ
Creator:Sunazuka Akira
Version:Normal
Source:SOUND VOLTEX III GRAVITY WARS
Tags:jubeat Qubell pop'n music うさぎと猫と少年の夢 DanceDanceRevolution A Hige Driver 東雲夏陽 東雲心菜 Cocona Shinonome Ari Ozawa Natsuhi Shinonome Yuri Hinami video game japanese chinese
BeatmapID:2698018
BeatmapSetID:1300739

[Difficulty]
HPDrainRate:4
CircleSize:3.5
OverallDifficulty:4
ApproachRate:6
SliderMultiplier:1
SliderTickRate:1

[Events]
//Background and Video events
0,0,"63724173-p0-master1200.jpg",0,0
//Break Periods
//Storyboard Layer 0 (Background)
//Storyboard Layer 1 (Fail)
//Storyboard Layer 2 (Pass)
//Storyboard Layer 3 (Foreground)
//Storyboard Layer 4 (Overlay)
//Storyboard Sound Samples

[TimingPoints]
964,384.615384615385,4,2,1,40,1,0
16348,-83.3333333333333,4,2,1,80,0,0
28271,-83.3333333333333,4,2,2,80,0,0
28464,-83.3333333333333,4,2,1,80,0,0
28656,-83.3333333333333,4,2,1,63,0,0
34425,-83.3333333333333,4,2,1,63,0,0
34810,-100,4,2,1,67,0,0
71733,-83.3333333333333,4,2,1,67,0,0
77887,-83.3333333333333,4,2,1,85,0,0
102502,-100,4,2,1,85,0,0
105579,-83.3333333333333,4,2,1,80,0,0
117502,-83.3333333333333,4,2,1,5,0,0

[Colours]
Combo1 : 184,113,255
Combo2 : 132,255,132
Combo3 : 255,255,128
Combo4 : 255,182,147

[HitObjects]
87,41,964,6,0,L|42:252,1,200,6|2,1:3|0:3,0:0:0:0:
33,315,2117,1,2,0:3:0:0:
89,371,2502,2,0,L|287:354,1,200,2|2,0:3|0:0,0:0:0:0:
320,197,4040,5,2,0:3:0:0:
397,218,4425,1,2,0:3:0:0:
445,281,4810,2,0,P|372:285|293:399,1,200,2|2,0:3|0:3,0:0:0:0:
216,362,5964,1,2,0:3:0:0:
243,287,6348,2,0,L|284:91,1,200,2|2,0:0|0:3,0:0:0:0:
344,44,7502,5,2,0:3:0:0:
272,14,7887,2,0,P|189:3|75:70,1,200,2|2,0:3|0:3,0:0:0:0:
17,68,9040,1,2,0:3:0:0:
17,68,9425,1,2,0:2:0:0:
51,299,10194,6,0,B|99:245|222:257|156:360|274:397|323:346,1,300,2|2,0:3|0:3,0:0:0:0:
274,284,11733,1,2,0:3:0:0:
274,284,12117,1,2,0:3:0:0:
274,284,12502,1,2,0:2:0:0:
381,34,14810,6,0,L|394:140,2,100,2|2|2,0:0|0:0|0:0,0:0:0:0:
302,18,15964,1,4,3:0:0:0:
251,99,16348,6,0,B|323:80|302:117|388:101,1,119.999996337891,2|8,1:2|0:2,0:0:0:0:
427,101,16925,1,2,0:0:0:0:
427,101,17117,2,0,L|416:184,1,59.9999981689454,0|2,1:2|0:0,0:0:0:0:
414,216,17502,1,8,0:2:0:0:
453,304,17887,6,0,P|397:318|355:376,1,119.999996337891,2|8,1:2|0:2,0:0:0:0:
317,371,18464,1,2,0:0:0:0:
317,371,18656,2,0,L|307:300,1,59.9999981689454,0|2,1:2|0:0,0:0:0:0:
300,273,19040,1,8,0:2:0:0:
205,272,19425,6,0,B|133:253|154:290|68:274,1,119.999996337891,2|8,1:2|0:2,0:0:0:0:
37,273,20002,1,2,0:0:0:0:
37,273,20194,2,0,L|48:356,1,59.9999981689454,0|2,1:2|0:0,0:0:0:0:
54,384,20579,1,8,3:2:0:0:
124,319,20964,6,0,L|153:198,1,119.999996337891,0|8,1:2|0:2,0:0:0:0:
49,142,21733,2,0,L|166:114,1,119.999996337891,0|8,1:2|0:2,0:0:0:0:
140,22,22502,6,0,L|257:50,1,119.999996337891,2|8,1:2|0:2,0:0:0:0:
285,95,23079,1,2,0:0:0:0:
285,95,23271,2,0,L|256:167,1,59.9999981689454,2|2,1:2|0:2,0:0:0:0:
245,202,23656,1,8,0:2:0:0:
320,262,24040,6,0,P|366:295|443:293,1,119.999996337891,2|8,1:2|0:2,0:0:0:0:
475,282,24617,1,2,0:0:0:0:
475,282,24810,2,0,L|446:354,1,59.9999981689454,0|2,1:2|0:0,0:0:0:0:
437,383,25194,1,8,0:2:0:0:
345,355,25579,6,0,L|214:365,1,119.999996337891,2|8,1:2|0:2,0:0:0:0:
184,369,26156,1,2,0:0:0:0:
184,369,26348,2,0,P|172:337|167:312,1,59.9999981689454,0|2,1:2|0:0,0:0:0:0:
177,270,26733,1,8,0:2:0:0:
128,187,27117,6,0,L|33:205,2,89.9999972534181,8|8|8,1:1|1:1|1:1,0:0:0:0:
175,178,27887,1,8,1:1:0:0:
312,54,28656,6,0,L|192:30,1,119.999996337891,2|8,1:2|1:3,0:0:0:0:
137,104,29425,2,0,L|254:127,1,119.999996337891,2|8,1:2|1:3,0:0:0:0:
308,59,30194,2,0,L|188:35,1,119.999996337891,2|8,1:2|1:3,0:0:0:0:
472,56,31733,6,0,P|451:99|489:171,1,119.999996337891,2|8,1:2|1:3,0:0:0:0:
418,239,32502,2,0,P|442:288|405:356,1,119.999996337891,2|8,1:2|1:3,0:0:0:0:
324,331,33271,6,0,L|229:349,2,89.9999972534181,2|8|2,1:2|1:3|1:2,0:0:0:0:
362,324,34040,1,2,1:2:0:0:
345,246,34425,1,2,0:3:0:0:
436,261,34810,5,4,1:2:0:0:
436,261,35002,2,0,L|485:251,2,50,2|8|2,0:3|2:2|2:3,0:0:0:0:
385,244,35579,2,0,L|396:131,1,100,0|8,1:2|1:2,0:0:0:0:
396,59,36348,6,0,P|348:38|295:55,1,100,0|8,1:2|1:2,0:0:0:0:
269,66,36925,1,0,0:0:0:0:
269,66,37117,2,0,P|222:85|177:68,1,100,0|8,1:2|1:2,0:0:0:0:
111,35,37887,5,0,1:2:0:0:
111,35,38079,2,0,L|52:40,2,50,2|8|2,0:3|1:2|0:3,0:0:0:0:
130,70,38656,2,0,L|117:187,1,100,0|8,1:0|1:2,0:0:0:0:
115,260,39425,6,0,L|214:271,2,100,10|8|8,1:2|1:2|1:2,0:0:0:0:
229,179,40964,5,4,1:2:0:0:
229,179,41156,2,0,L|277:167,2,50,2|8|2,0:3|1:2|0:3,0:0:0:0:
188,179,41733,2,0,L|208:70,1,100,0|8,1:2|1:2,0:0:0:0:
252,15,42502,6,0,L|364:20,1,100,0|8,1:2|1:2,0:0:0:0:
394,20,43079,1,2,0:0:0:0:
394,20,43271,2,0,P|433:52|492:45,1,100,0|8,1:2|1:2,0:0:0:0:
459,131,44040,5,0,1:2:0:0:
459,131,44233,2,0,L|404:122,2,50,0|8|2,0:0|1:2|0:3,0:0:0:0:
497,142,44810,2,0,P|470:186|473:241,1,100,0|8,1:2|1:2,0:0:0:0:
468,313,45579,6,0,L|357:293,2,100,10|8|8,1:2|1:2|1:2,0:0:0:0:
380,152,47117,5,4,1:2:0:0:
380,152,47310,2,0,L|436:141,2,50,2|8|2,0:3|1:2|0:3,0:0:0:0:
340,155,47887,2,0,L|365:56,1,100,0|8,1:2|1:2,0:0:0:0:
291,26,48656,6,0,L|175:39,1,100,0|8,1:2|1:2,0:0:0:0:
156,52,49233,1,2,0:0:0:0:
156,52,49425,2,0,P|102:71|54:53,1,100,0|8,1:2|1:2,0:0:0:0:
52,142,50194,5,0,1:2:0:0:
52,142,50387,2,0,L|-6:152,2,50,2|8|2,0:3|1:2|0:3,0:0:0:0:
54,182,50964,2,0,P|25:222|29:283,1,100,0|8,1:2|1:2,0:0:0:0:
67,339,51733,6,0,L|178:319,2,100,10|8|8,1:2|1:2|1:2,0:0:0:0:
206,190,53271,5,4,1:2:0:0:
206,190,53464,2,0,L|198:244,2,50,0|8|2,0:0|1:2|0:3,0:0:0:0:
245,192,54040,2,0,L|353:208,1,100,0|8,1:2|1:2,0:0:0:0:
402,262,54810,6,0,P|419:316|388:356,1,100,0|8,1:2|1:2,0:0:0:0:
361,359,55387,1,2,0:0:0:0:
361,359,55579,2,0,L|249:370,1,100,0|8,1:2|1:2,0:0:0:0:
200,318,56348,6,0,L|256:307,2,50,0|0|8,3:2|3:0|1:2,0:0:0:0:
129,290,57117,2,0,L|80:280,2,50,0|0|8,3:2|3:0|1:2,0:0:0:0:
104,362,57887,2,0,L|6:347,2,100,10|8|8,1:2|1:2|1:2,0:0:0:0:
128,87,59425,5,4,3:0:0:0:
207,96,59810,2,0,L|180:-14,2,100,0|8|0,1:2|3:1|0:0,0:0:0:0:
229,173,60964,1,0,1:2:0:0:
308,163,61348,2,0,L|281:273,2,100,0|8|0,1:2|3:1|3:0,0:0:0:0:
365,107,62502,6,0,L|475:80,2,100,0|0|8,1:2|1:2|3:1,0:0:0:0:
212,58,64040,2,0,L|102:31,2,100,0|0|8,1:2|1:2|3:1,0:0:0:0:
255,211,65579,5,0,1:2:0:0:
300,276,65964,2,0,L|410:249,2,100,0|8|0,1:2|3:1|0:0,0:0:0:0:
221,288,67117,1,0,1:2:0:0:
176,353,67502,2,0,L|66:326,2,100,0|8|0,1:2|3:1|3:2,0:0:0:0:
221,288,68656,6,0,L|197:190,2,100,0|0|8,1:2|1:2|3:1,0:0:0:0:
380,281,70194,2,0,L|356:378,2,100,0|0|8,1:2|1:2|3:1,0:0:0:0:
194,232,71733,6,0,L|230:309,2,59.9999981689454,2|2|8,1:2|1:2|1:3,0:0:0:0:
204,136,72502,2,0,L|253:64,2,59.9999981689454,2|2|8,1:2|1:2|1:3,0:0:0:0:
117,178,73271,2,0,L|31:170,2,59.9999981689454,2|2|8,1:2|1:2|1:3,0:0:0:0:
380,60,74810,6,0,L|441:43,2,59.9999981689454,2|2|8,1:2|1:2|1:3,0:0:0:0:
302,117,75579,2,0,L|240:100,2,59.9999981689454,2|2|8,1:2|1:2|1:3,0:0:0:0:
392,149,76348,2,0,L|483:123,2,89.9999972534181,10|8|8,1:2|1:2|1:2,0:0:0:0:
345,161,77117,1,2,1:3:0:0:
382,250,77502,5,8,0:3:0:0:
343,338,77887,6,0,L|270:356,1,59.9999981689454,4|0,1:0|0:0,0:0:0:0:
241,373,78271,2,0,L|166:364,1,59.9999981689454,8|0,0:2|0:0,0:0:0:0:
133,363,78656,2,0,P|108:342|104:302,1,59.9999981689454,0|0,1:2|0:0,0:0:0:0:
110,272,79040,1,8,0:2:0:0:
206,265,79425,6,0,L|331:251,1,119.999996337891,0|8,1:2|0:2,0:0:0:0:
376,248,80002,1,2,0:3:0:0:
376,248,80194,2,0,P|386:192|354:132,1,119.999996337891,0|8,1:2|0:2,0:0:0:0:
291,69,80964,6,0,P|258:101|183:99,1,119.999996337891,0|8,1:2|0:2,0:0:0:0:
144,93,81540,1,2,0:3:0:0:
144,93,81733,2,0,L|157:217,1,119.999996337891,0|8,1:2|0:2,0:0:0:0:
165,252,82310,1,2,0:3:0:0:
165,252,82502,6,0,P|215:274|263:240,2,119.999996337891,0|8|0,1:2|0:2|1:2,0:0:0:0:
194,160,83656,1,12,1:3:0:0:
102,186,84040,6,0,L|94:247,1,59.9999981689454,4|0,1:0|0:0,0:0:0:0:
103,293,84425,2,0,L|181:269,1,59.9999981689454,8|0,0:2|0:0,0:0:0:0:
207,267,84810,2,0,L|288:271,1,59.9999981689454,0|0,1:2|0:0,0:0:0:0:
310,276,85194,1,8,0:2:0:0:
391,225,85579,6,0,P|416:168|386:119,1,119.999996337891,0|8,1:2|0:2,0:0:0:0:
346,119,86156,1,0,0:0:0:0:
346,119,86348,2,0,L|219:101,1,119.999996337891,0|8,1:2|0:2,0:0:0:0:
151,44,87117,6,0,L|269:27,1,119.999996337891,0|8,1:2|0:2,0:0:0:0:
321,36,87694,1,0,0:0:0:0:
321,36,87887,2,0,P|349:74|424:66,1,119.999996337891,0|8,1:2|0:2,0:0:0:0:
462,51,88464,1,2,0:3:0:0:
462,51,88656,6,0,L|437:179,2,119.999996337891,0|8|0,1:2|0:2|1:2,0:0:0:0:
366,53,89810,1,12,1:3:0:0:
306,128,90194,6,0,L|322:196,1,59.9999981689454,4|0,1:0|0:0,0:0:0:0:
328,233,90579,2,0,L|319:303,1,59.9999981689454,8|0,0:2|0:0,0:0:0:0:
317,340,90964,2,0,L|246:348,1,59.9999981689454,0|0,1:2|0:0,0:0:0:0:
213,356,91348,1,8,0:2:0:0:
117,351,91733,6,0,P|101:285|130:234,1,119.999996337891,0|8,1:2|0:2,0:0:0:0:
143,211,92310,1,2,0:3:0:0:
143,211,92502,2,0,L|267:230,1,119.999996337891,0|8,1:2|0:2,0:0:0:0:
340,284,93271,6,0,P|292:315|222:298,1,119.999996337891,0|8,1:2|0:2,0:0:0:0:
189,285,93848,1,2,0:3:0:0:
189,285,94040,2,0,L|175:152,1,119.999996337891,0|8,1:2|0:2,0:0:0:0:
216,138,94617,1,2,0:3:0:0:
216,138,94810,6,0,L|353:158,2,119.999996337891,0|8|0,1:2|0:2|1:2,0:0:0:0:
285,71,95964,1,12,1:3:0:0:
350,142,96348,6,0,P|351:261|464:322,1,239.999992675781,4|0,1:0|1:2,0:0:0:0:
472,223,97502,1,8,0:2:0:0:
468,127,97887,6,0,L|335:146,1,119.999996337891,0|8,1:2|0:2,0:0:0:0:
301,151,98464,1,2,0:3:0:0:
301,151,98656,2,0,L|180:135,1,119.999996337891,0|8,1:2|0:2,0:0:0:0:
91,105,99425,6,0,P|126:138|127:209,1,119.999996337891,0|8,1:2|0:2,0:0:0:0:
85,222,100002,1,2,0:3:0:0:
85,222,100194,2,0,L|96:295,1,59.9999981689454,0|2,1:2|0:3,0:0:0:0:
101,323,100579,2,0,L|112:396,1,59.9999981689454,8|2,0:2|0:3,0:0:0:0:
160,376,100964,6,0,L|286:355,1,119.999996337891,0|0,1:2|1:0,0:0:0:0:
298,275,101733,2,0,L|179:293,1,119.999996337891,0|0,1:2|1:0,0:0:0:0:
171,207,102502,6,0,L|219:-3,1,200,12|8,1:1|1:1,0:0:0:0:
355,89,104040,2,0,L|145:137,1,200,8|0,1:1|3:1,0:0:0:0:
344,186,105579,6,0,P|290:192|256:251,1,119.999996337891,6|8,1:2|0:2,0:0:0:0:
224,279,106156,1,2,0:0:0:0:
224,279,106348,2,0,L|214:208,1,59.9999981689454,0|2,1:2|0:0,0:0:0:0:
208,176,106732,1,8,0:2:0:0:
249,89,107117,6,0,B|177:70|198:107|131:93,1,119.999996337891,2|8,1:2|0:2,0:0:0:0:
73,91,107694,1,2,0:0:0:0:
73,91,107886,2,0,L|80:150,1,59.9999981689454,0|2,1:2|0:0,0:0:0:0:
86,206,108271,1,8,0:2:0:0:
44,292,108656,6,0,P|100:299|142:357,1,119.999996337891,2|8,1:2|0:2,0:0:0:0:
180,368,109233,1,2,0:0:0:0:
180,368,109425,2,0,L|190:297,1,59.9999981689454,0|2,1:2|0:0,0:0:0:0:
194,265,109809,1,8,3:2:0:0:
155,177,110194,6,0,L|283:164,1,119.999996337891,0|8,1:2|0:2,0:0:0:0:
366,138,110964,2,0,L|313:29,1,119.999996337891,0|8,1:2|0:2,0:0:0:0:
219,45,111733,6,0,P|173:78|96:76,1,119.999996337891,2|8,1:2|0:2,0:0:0:0:
64,65,112310,1,2,0:0:0:0:
64,65,112503,2,0,L|93:137,1,59.9999981689454,0|2,1:2|0:0,0:0:0:0:
102,166,112887,1,8,0:2:0:0:
60,252,113271,6,0,P|112:250|161:299,1,119.999996337891,2|8,1:2|0:2,0:0:0:0:
182,342,113848,1,2,0:0:0:0:
182,342,114040,2,0,L|246:325,1,59.9999981689454,0|2,1:2|0:0,0:0:0:0:
286,314,114425,1,8,0:2:0:0:
362,372,114810,6,0,L|355:240,1,119.999996337891,2|8,1:2|0:2,0:0:0:0:
354,208,115387,1,2,0:0:0:0:
354,208,115579,2,0,L|278:221,1,59.9999981689454,0|2,1:2|0:0,0:0:0:0:
254,225,115964,1,8,0:2:0:0:
163,196,116348,6,0,L|151:88,2,89.9999972534181,8|8|8,1:1|1:1|1:1,0:0:0:0:
170,243,117117,1,8,1:1:0:0:
