osu file format v14

[General]
AudioFilename: audio.mp3
AudioLeadIn: 0
PreviewTime: 77391
Countdown: 0
SampleSet: Soft
StackLeniency: 0.2
Mode: 0
LetterboxInBreaks: 0
WidescreenStoryboard: 1

[Editor]
Bookmarks: 949,16333,28641,34795,47102,59410,77872,90179,96333,96525,96718,96910,97102,102487,116718,117487
DistanceSpacing: 0.6
BeatDivisor: 4
GridSize: 4
TimelineZoom: 1.7

[Metadata]
Title:Ronron e Rairairai!
TitleUnicode:ロンロンヘ ライライライ!
Artist:Coconatsu
ArtistUnicode:ここなつ
Creator:Sunazuka Akira
Version:Irasshaimase!
Source:SOUND VOLTEX III GRAVITY WARS
Tags:jubeat Qubell pop'n music うさぎと猫と少年の夢 DanceDanceRevolution A Hige Driver 東雲夏陽 東雲心菜 Cocona Shinonome Ari Ozawa Natsuhi Shinonome Yuri Hinami video game japanese chinese
BeatmapID:2698017
BeatmapSetID:1300739

[Difficulty]
HPDrainRate:6
CircleSize:4.4
OverallDifficulty:8
ApproachRate:9
SliderMultiplier:1.8
SliderTickRate:1

[Events]
//Background and Video events
0,0,"63724173-p0-master1200.jpg",0,0
//Break Periods
//Storyboard Layer 0 (Background)
//Storyboard Layer 1 (Fail)
//Storyboard Layer 2 (Pass)
//Storyboard Layer 3 (Foreground)
//Storyboard Layer 4 (Overlay)
//Storyboard Sound Samples

[TimingPoints]
964,384.615384615385,4,2,1,40,1,0
964,-166.666666666667,4,2,1,40,0,0
3271,-100,4,2,1,40,0,0
4040,-166.666666666667,4,2,1,40,0,0
6348,-83.3333333333333,4,2,1,40,0,0
7117,-166.666666666667,4,2,1,40,0,0
9425,-100,4,2,1,40,0,0
10194,-166.666666666667,4,2,1,40,0,0
12502,-100,4,2,1,40,0,0
16348,-66.6666666666667,4,2,1,80,0,0
17502,-50,4,2,1,80,0,0
17887,-66.6666666666667,4,2,1,80,0,0
19040,-50,4,2,1,80,0,0
19425,-66.6666666666667,4,2,1,80,0,0
23656,-50,4,2,1,80,0,0
24040,-66.6666666666667,4,2,1,80,0,0
25194,-50,4,2,1,80,0,0
25578,-66.6666666666667,4,2,1,80,0,0
28271,-66.6666666666667,4,2,2,80,0,0
28464,-66.6666666666667,4,2,1,80,0,0
28656,-76.9230769230769,4,2,1,63,0,0
34810,-90.9090909090909,4,2,1,67,0,0
38848,-125,4,2,1,67,0,0
39040,-90.9090909090909,4,2,1,67,0,0
40579,-125,4,2,1,67,0,0
40964,-90.9090909090909,4,2,1,67,0,0
46733,-125,4,2,1,67,0,0
47118,-90.9090909090909,4,2,1,67,0,0
52887,-125,4,2,1,67,0,0
53271,-90.9090909090909,4,2,1,67,0,0
56156,-125,4,2,1,67,0,0
56348,-90.9090909090909,4,2,1,67,0,0
59040,-125,4,2,1,67,0,0
59425,-100,4,2,1,67,0,0
60194,-55.5555555555556,4,2,1,67,0,0
60387,-100,4,2,1,67,0,0
61348,-55.5555555555556,4,2,1,67,0,0
61541,-100,4,2,1,67,0,0
63271,-55.5555555555556,4,2,1,67,0,0
63464,-100,4,2,1,67,0,0
67502,-55.5555555555556,4,2,1,67,0,0
67695,-100,4,2,1,67,0,0
69425,-55.5555555555556,4,2,1,67,0,0
69618,-100,4,2,1,67,0,0
70772,-100,4,2,1,67,0,0
71733,-76.9230769230769,4,2,1,67,0,0
77887,-66.6666666666667,4,2,1,85,0,0
83656,-55.5555555555556,4,2,1,85,0,0
84040,-66.6666666666667,4,2,1,85,0,0
89810,-55.5555555555556,4,2,1,85,0,0
90194,-66.6666666666667,4,2,1,85,0,0
96348,-55.5555555555556,4,2,1,85,0,0
97117,-66.6666666666667,4,2,1,85,0,0
101348,-200,4,2,1,85,0,0
101733,-50,4,2,1,85,0,0
102117,-133.333333333333,4,2,1,85,0,0
102502,-90.9090909090909,4,2,1,85,0,0
105579,-66.6666666666667,4,2,1,80,0,0
106733,-50,4,2,1,80,0,0
107118,-66.6666666666667,4,2,1,80,0,0
108271,-50,4,2,1,80,0,0
108656,-66.6666666666667,4,2,1,80,0,0
112887,-50,4,2,1,80,0,0
113272,-66.6666666666667,4,2,1,80,0,0
114425,-50,4,2,1,80,0,0
114810,-66.6666666666667,4,2,1,80,0,0
117310,-66.6666666666667,4,2,1,5,0,0

[Colours]
Combo1 : 184,113,255
Combo2 : 132,255,132
Combo3 : 255,255,128
Combo4 : 255,182,147

[HitObjects]
252,20,964,5,6,1:3:0:0:
196,32,1348,2,0,L|251:36,1,53.9999983520508,2|2,0:3|0:0,0:0:0:0:
331,8,1733,5,2,0:3:0:0:
387,20,2117,2,0,L|331:24,1,53.9999983520508,2|0,0:3|0:0,0:0:0:0:
256,184,2502,5,2,0:3:0:0:
255,110,2887,1,2,0:3:0:0:
346,291,3271,6,0,B|296:300|281:242|214:249|215:312|174:318|174:318|216:313|225:361|288:357|307:299,1,315,2|0,0:0|0:0,0:0:0:0:
358,364,4040,5,2,0:3:0:0:
284,384,4425,2,0,L|287:330,1,53.9999983520508,2|2,0:3|0:0,0:0:0:0:
358,364,4810,5,2,0:3:0:0:
287,330,5194,2,0,L|284:384,1,53.9999983520508,2|0,0:3|0:0,0:0:0:0:
468,352,5579,5,2,0:3:0:0:
392,360,5964,1,2,0:3:0:0:
166,291,6348,6,0,B|216:300|231:242|298:249|297:312|338:318|338:318|296:313|287:361|224:357|205:299,1,323.999990112305,2|0,0:0|0:0,0:0:0:0:
172,172,7117,5,2,0:3:0:0:
79,195,7502,2,0,P|104:205|121:234,1,53.9999983520508,2|2,0:3|0:0,0:0:0:0:
172,172,7887,5,2,0:3:0:0:
172,172,8079,1,0,0:0:0:0:
255,206,8271,2,0,P|229:216|212:245,1,53.9999983520508,2|0,0:3|0:0,0:0:0:0:
155,362,8656,5,2,0:3:0:0:
160,286,9040,1,2,0:3:0:0:
256,321,9425,6,0,B|263:350|215:360|209:323|167:324|167:324|209:322|210:273|278:266|300:315|277:334|336:353|377:329|373:294,1,315,2|0,0:2|0:0,0:0:0:0:
403,276,10194,5,2,0:3:0:0:
423,377,10387,2,0,B|418:345|438:321|471:326|471:326|472:349|451:351,1,107.999996704102,2|2,0:0|0:0,0:0:0:0:
503,251,10964,2,0,B|471:256|447:236|452:203|452:203|475:202|477:223,1,107.999996704102,2|2,0:3|0:3,0:0:0:0:
403,276,11540,1,0,0:0:0:0:
484,100,11733,6,0,L|425:100,1,53.9999983520508,2|0,0:3|0:0,0:0:0:0:
356,100,12117,6,0,L|297:100,1,53.9999983520508,2|0,0:3|0:0,0:0:0:0:
119,123,12502,6,0,B|81:112|86:161|55:177|55:177|88:177|104:216|141:193|141:193|126:229|165:241|170:272|170:272|181:241|223:240|213:197|213:197|242:223|268:191|298:197|298:197|273:176|285:136|243:130|243:130|276:112|255:78|271:51|271:51|243:67|209:41|189:80|189:80|184:42|144:50|125:26|125:26|130:58|95:81|125:113,1,900,2|0,0:2|0:0,0:0:0:0:
178,142,14810,5,2,0:0:0:0:
160,215,15194,1,2,0:0:0:0:
136,287,15579,1,2,0:0:0:0:
43,78,15964,6,0,B|28:66|26:47|53:31|53:31|69:139,1,135,4|0,3:0|0:0,0:0:0:0:
24,227,16348,5,2,1:2:0:0:
33,227,16444,1,2,0:0:0:0:
44,228,16540,1,2,0:0:0:0:
54,229,16636,1,2,0:0:0:0:
63,230,16733,6,0,B|102:234|102:234|106:236|106:236|143:239,1,67.5000025749208,8|0,0:2|0:0,0:0:0:0:
130,238,16925,2,0,P|141:276|105:307,1,67.5000025749208,2|0,0:0|0:0,0:0:0:0:
44,305,17117,6,0,P|33:342|69:373,1,67.5000025749208,0|0,1:2|0:0,0:0:0:0:
47,364,17310,2,0,L|130:376,1,67.5000025749208,2|0,0:0|0:0,0:0:0:0:
279,280,17502,6,0,B|293:257|337:286|314:320|269:306|294:289|247:268|170:292|203:367|203:367|203:373|203:373|205:368|205:368|264:380|263:313,1,270,8|0,0:2|0:0,0:0:0:0:
432,351,17887,5,2,1:2:0:0:
423,351,17983,1,2,0:0:0:0:
412,352,18079,1,2,0:0:0:0:
402,353,18175,1,2,0:0:0:0:
394,354,18272,6,0,P|351:354|337:320,1,67.5000025749208,8|0,0:2|0:0,0:0:0:0:
338,337,18464,2,0,B|343:303|343:303|346:300|346:300|354:257,1,67.5000025749208,2|0,0:0|0:0,0:0:0:0:
485,207,18656,6,0,P|500:242|484:271,1,67.5000025749208,0|0,1:2|0:0,0:0:0:0:
489,266,18848,2,0,L|410:252,1,67.5000025749208,2|0,0:0|0:0,0:0:0:0:
206,179,19040,6,0,B|195:162|164:185|188:218|232:206|232:206|236:203|236:203|305:190|305:190|319:181|345:146|302:121|293:121|293:121|248:132,1,270,8|0,0:2|0:0,0:0:0:0:
372,23,19425,5,2,1:2:0:0:
372,31,19521,1,2,0:0:0:0:
374,42,19617,1,2,0:0:0:0:
375,52,19713,1,2,0:0:0:0:
377,59,19810,6,0,L|388:126,1,67.5000025749208,8|0,0:2|0:0,0:0:0:0:
387,126,20002,2,0,B|400:144|400:144|426:149|447:130,1,67.5000025749208,2|0,0:0|0:0,0:0:0:0:
301,40,20194,6,0,B|262:44|262:44|258:46|258:46|221:49,1,67.5000025749208,0|0,1:2|0:0,0:0:0:0:
235,48,20386,2,0,P|224:86|260:117,1,67.5000025749208,2|0,0:0|0:0,0:0:0:0:
250,191,20579,6,0,B|255:199|267:190|267:190|256:181|237:186|230:196|234:216,1,67.5000025749208,8|0,3:2|0:0,0:0:0:0:
208,279,20771,1,2,0:0:0:0:
208,295,20867,1,0,0:0:0:0:
207,314,20964,6,0,B|203:355|203:355|203:384|174:407|137:387|137:357|137:357|141:296,1,202.500007724762,0|0,1:2|2:0,0:0:0:0:
141,301,21348,2,0,B|143:273|143:273|142:268|142:268|144:243|144:243|147:191|147:191|147:160|111:143|79:161|80:193|80:193|77:234,1,202.500007724762,8|0,0:2|0:0,0:0:0:0:
67,165,21733,2,0,B|65:183|78:195|96:191|96:191|95:178|83:178,1,67.5000025749208,0|2,1:2|0:3,0:0:0:0:
101,67,21925,1,2,0:3:0:0:
61,329,22117,6,0,B|166:306|166:306|170:262|170:262|161:296|134:302,1,202.500007724762,8|0,0:2|0:0,0:0:0:0:
29,256,22502,5,2,1:2:0:0:
38,256,22598,1,2,0:0:0:0:
49,257,22694,1,2,0:0:0:0:
59,258,22790,1,2,0:0:0:0:
72,259,22887,6,0,L|152:268,1,67.5000025749208,8|0,0:2|0:0,0:0:0:0:
139,266,23079,2,0,B|153:248|170:242|162:253|187:242|197:216,1,67.5000025749208,2|0,0:0|0:0,0:0:0:0:
38,165,23271,6,0,P|42:132|69:113,1,67.5000025749208,2|0,1:2|0:0,0:0:0:0:
69,113,23464,2,0,B|100:118|100:118|104:121|104:121|135:125,1,67.5000025749208,2|0,0:2|0:0,0:0:0:0:
281,115,23656,6,0,B|287:141|334:129|329:68|294:70|264:94|263:102|264:110|228:125|195:135|153:100|159:17|223:2|254:41,1,270,8|0,0:2|0:0,0:0:0:0:
457,30,24040,5,2,1:2:0:0:
448,30,24136,1,2,0:0:0:0:
437,31,24232,1,2,0:0:0:0:
427,32,24328,1,2,0:0:0:0:
412,34,24425,6,0,B|391:35|391:35|387:37|387:37|343:42,1,67.5000025749208,8|0,0:2|0:0,0:0:0:0:
346,42,24617,2,0,B|326:76|326:76|353:117,1,67.5000025749208,2|0,0:0|0:0,0:0:0:0:
404,195,24810,6,0,P|432:206|469:196,1,67.5000025749208,0|0,1:2|0:0,0:0:0:0:
467,198,25002,2,0,B|469:158|469:158|471:156|471:156|474:119,1,67.5000025749208,2|0,0:0|0:0,0:0:0:0:
366,285,25194,6,0,B|429:278|429:278|457:309|457:309|440:345|440:345|377:354|377:354|370:352|370:352|312:358,1,270,8|0,0:2|0:0,0:0:0:0:
251,336,25579,5,2,1:2:0:0:
251,328,25675,1,2,0:0:0:0:
253,317,25771,1,2,0:0:0:0:
254,307,25867,1,2,0:0:0:0:
256,297,25964,6,0,L|340:287,1,67.5000025749208,8|0,0:2|0:0,0:0:0:0:
323,289,26156,2,0,B|347:260|347:260|334:222,1,67.5000025749208,2|0,0:0|0:0,0:0:0:0:
471,319,26348,6,0,B|453:329|431:322|441:318|417:312|404:320,1,67.5000025749208,0|0,1:2|0:0,0:0:0:0:
406,319,26540,2,0,P|386:352|411:378,1,67.5000025749208,2|0,0:0|0:0,0:0:0:0:
255,281,26733,6,0,B|199:289|199:289|211:377|211:377|278:367,1,202.500007724762,8|0,0:2|0:0,0:0:0:0:
327,333,27117,6,0,B|322:296|349:272|385:280|385:280|383:306|359:306,1,135.000005149842,8|0,1:1|0:0,0:0:0:0:
185,333,27406,6,0,B|189:296|162:272|126:280|126:280|128:306|152:306,1,135.000005149842,8|0,1:1|0:0,0:0:0:0:
256,379,27694,6,0,L|256:312,1,67.5000025749208,8|0,1:1|0:0,0:0:0:0:
240,160,27887,6,0,B|273:174|281:209|256:236|256:236|234:221|246:200,1,135.000005149842,8|0,1:1|1:1,0:0:0:0:
182,31,28271,6,0,B|257:10|231:57|318:39,1,135.000005149842,2|0,0:1|0:0,0:0:0:0:
75,223,28656,5,2,1:2:0:0:
31,204,28752,1,2,1:2:0:0:
35,157,28848,1,2,1:2:0:0:
81,146,28945,1,2,1:2:0:0:
105,186,29041,1,8,1:3:0:0:
416,116,29425,5,2,1:2:0:0:
460,97,29521,1,2,1:2:0:0:
456,50,29617,1,2,1:2:0:0:
410,39,29714,1,2,1:2:0:0:
386,79,29810,1,8,1:3:0:0:
276,274,30194,5,2,1:2:0:0:
298,315,30290,1,2,1:2:0:0:
266,349,30387,1,2,1:2:0:0:
223,329,30483,1,2,1:2:0:0:
229,282,30579,1,8,1:3:0:0:
34,36,31733,5,2,1:2:0:0:
51,78,31829,1,2,1:2:0:0:
69,121,31925,1,2,1:2:0:0:
110,100,32021,1,2,1:2:0:0:
151,78,32117,1,8,1:3:0:0:
469,309,32502,5,2,1:2:0:0:
428,331,32598,1,2,1:2:0:0:
387,352,32694,1,2,1:2:0:0:
369,309,32790,1,2,1:2:0:0:
352,267,32886,1,8,1:3:0:0:
216,64,33271,6,0,P|256:24|296:64,1,116.999994644165,2|0,1:2|0:0,0:0:0:0:
296,56,33560,2,0,P|345:77|330:128,1,116.999994644165,8|0,1:3|0:0,0:0:0:0:
231,158,33848,2,0,B|228:139|241:127|259:131|259:131|258:144|246:144,1,58.4999973220826,2|0,1:2|0:0,0:0:0:0:
216,64,34040,2,0,B|214:29|186:14|155:25|155:25|161:48|183:44,1,116.999994644165,2|8,1:2|1:3,0:0:0:0:
47,48,34425,6,0,B|13:43|13:43|0:30|15:23|15:23|77:31,1,116.999994644165,2|0,0:3|0:0,0:0:0:0:
366,55,34810,6,0,B|362:26|382:8|410:14|410:14|408:33|390:33,1,99.0000030212403,4|2,1:2|0:3,0:0:0:0:
465,122,35194,2,0,B|487:139|485:165|461:181|461:181|448:166|462:153,1,99.0000030212403,8|2,2:2|2:3,2:0:0:0:
340,144,35579,1,0,1:2:0:0:
340,144,35771,1,2,0:0:0:0:
488,48,35964,1,8,1:2:0:0:
432,223,36156,1,2,0:3:0:0:
298,252,36348,6,0,L|412:229,1,99.0000030212403,0|0,1:2|0:0,0:0:0:0:
492,259,36733,2,0,B|495:238|495:238|481:219|467:235|467:235|461:285,1,99.0000030212403,8|0,1:2|0:0,0:0:0:0:
506,384,37117,1,0,1:2:0:0:
506,384,37310,1,0,0:0:0:0:
267,357,37502,2,0,P|321:379|374:319,1,148.50000453186,8|2,1:2|0:3,0:0:0:0:
372,305,37887,5,0,1:2:0:0:
197,273,38079,1,2,0:3:0:0:
214,275,38175,1,0,0:0:0:0:
233,279,38271,1,8,1:2:0:0:
305,294,38464,1,2,0:3:0:0:
242,356,38656,6,0,B|235:369|235:369|141:386,1,99.0000030212403,0|2,1:0|0:3,0:0:0:0:
63,333,38944,1,0,0:0:0:0:
63,333,39040,2,0,B|112:321|112:321|127:293|109:273,1,99.0000030212403,8|0,1:2|1:0,0:0:0:0:
52,205,39425,6,0,B|58:176|58:176|44:144|44:144|22:263,1,148.50000453186,10|0,1:2|0:0,0:0:0:0:
85,304,39810,2,0,B|78:338|36:364|-6:331|-6:331|10:304|4:278,1,148.50000453186,8|0,1:2|0:0,0:0:0:0:
190,273,40194,2,0,B|202:244|203:194|141:165|102:195|134:231|163:210,1,148.50000453186,8|0,1:2|0:0,0:0:0:0:
141,359,40579,2,0,L|176:355,2,36,2|2|2,1:0|0:3|0:3,0:0:0:0:
255,237,40964,5,4,1:2:0:0:
250,80,41156,1,2,0:3:0:0:
260,66,41252,1,0,0:0:0:0:
235,66,41348,2,0,B|239:37|219:19|191:25|191:25|193:44|211:44,1,99.0000030212403,8|2,1:2|0:3,0:0:0:0:
300,140,41733,2,0,B|323:157|348:149|357:122|357:122|340:114|331:130,1,99.0000030212403,0|2,1:2|0:0,0:0:0:0:
380,48,42117,1,8,1:2:0:0:
473,60,42310,1,2,0:0:0:0:
408,138,42502,6,0,B|411:154|384:160|381:139|357:139|357:139|381:138|381:110|420:106|433:134|419:145|453:156|476:142|488:133,1,198.000006042481,0|8,1:2|1:2,0:0:0:0:
424,52,43079,1,2,0:0:0:0:
429,246,43271,2,0,B|439:234|435:214|435:214|392:216|388:267,1,99.0000030212403,0|0,1:2|0:0,0:0:0:0:
507,244,43656,1,8,1:2:0:0:
419,324,43848,1,2,0:3:0:0:
435,322,43944,1,2,0:3:0:0:
452,319,44040,5,0,1:2:0:0:
357,379,44233,1,0,0:0:0:0:
241,333,44425,2,0,B|233:345|236:356|248:356|257:376|257:376|272:357|283:361|288:351|284:338,1,99.0000030212403,8|2,1:2|0:3,0:0:0:0:
176,296,44810,2,0,B|148:250|173:193|226:186|244:216|221:242|195:234,1,148.50000453186,0|0,1:2|0:0,0:0:0:0:
344,296,45194,1,8,1:2:0:0:
256,320,45387,1,2,0:0:0:0:
33,376,45579,6,0,B|25:337|63:301|67:336|102:290|78:241,1,148.50000453186,10|0,1:2|0:0,0:0:0:0:
23,187,45964,2,0,B|111:171|111:171|114:137|114:137|99:164|86:165,1,148.50000453186,8|0,1:2|0:0,0:0:0:0:
128,376,46348,2,0,B|136:337|98:301|94:336|59:290|83:241,1,148.50000453186,8|0,1:2|0:0,0:0:0:0:
64,163,46733,2,0,L|123:153,3,36,2|2|2|0,1:0|0:3|0:3|0:0,0:0:0:0:
34,95,47117,5,4,1:2:0:0:
172,7,47310,1,2,0:3:0:0:
168,25,47406,1,0,0:0:0:0:
164,41,47502,1,8,1:2:0:0:
142,150,47694,1,2,0:3:0:0:
297,95,47887,2,0,B|287:113|287:113|193:137,1,99.0000030212403,0|2,1:2|0:0,0:0:0:0:
287,2,48271,2,0,B|296:20|296:20|390:44,1,99.0000030212403,8|2,1:2|0:3,0:0:0:0:
417,115,48656,6,0,B|452:162|407:175|404:204|404:204|391:180|346:179|362:123,1,198.000006042481,0|8,1:2|1:2,0:0:0:0:
419,275,49233,1,2,0:0:0:0:
332,271,49425,2,0,B|302:274|308:251|296:243|296:243|310:243|321:224|341:245,1,99.0000030212403,0|0,1:2|0:0,0:0:0:0:
473,225,49810,2,0,B|490:183|516:208|537:198|537:198|526:216|542:247|499:257,1,148.50000453186,8|2,1:2|0:3,0:0:0:0:
419,275,50194,5,0,1:2:0:0:
441,347,50387,1,2,0:3:0:0:
317,346,50579,2,0,L|420:354,1,99.0000030212403,8|2,1:2|0:3,0:0:0:0:
447,289,50964,2,0,B|474:284|474:284|482:272|465:267|465:267|414:275,1,99.0000030212403,0|0,1:2|0:0,0:0:0:0:
344,284,51348,1,8,1:2:0:0:
312,368,51540,1,2,0:3:0:0:
258,257,51733,6,0,B|227:274|227:274|218:352|218:352|255:384,1,148.50000453186,10|0,1:2|0:0,0:0:0:0:
148,380,52117,2,0,B|139:326|66:325|62:375|13:352,1,148.50000453186,8|0,1:2|0:0,0:0:0:0:
28,212,52502,2,0,B|12:249|39:248|36:284|36:284|45:248|73:256|62:211,1,148.50000453186,8|0,1:2|0:0,0:0:0:0:
72,144,52887,2,0,L|34:137,1,36,2|2,1:0|0:3,0:0:0:0:
0,60,53079,2,0,L|38:53,1,36,2|0,0:3|0:0,0:0:0:0:
46,52,53271,6,0,B|27:27|19:45|-2:30|-2:30|17:49|2:63|33:73,1,99.0000030212403,4|0,1:2|0:0,0:0:0:0:
191,52,53656,2,0,B|216:49|207:34|227:24|227:24|205:31|200:13|179:33,1,99.0000030212403,8|2,1:2|0:3,0:0:0:0:
115,107,54040,2,0,B|110:63|110:63|114:55|114:55|108:7,1,99.0000030212403,0|2,1:2|0:0,0:0:0:0:
95,9,54425,1,8,1:2:0:0:
87,186,54617,1,2,0:0:0:0:
197,63,54810,5,0,1:2:0:0:
312,120,55002,1,2,0:0:0:0:
295,122,55098,1,0,0:0:0:0:
279,125,55194,1,8,1:2:0:0:
196,139,55387,1,2,0:0:0:0:
252,228,55579,2,0,B|260:221|276:226|281:237|281:237|257:259|223:242|217:200,1,99.0000030212403,0|0,1:2|0:0,0:0:0:0:
256,148,55964,5,8,1:2:0:0:
176,228,56156,2,0,L|220:228,1,36,2|2,0:3|0:3,0:0:0:0:
226,226,56348,5,0,3:2:0:0:
238,226,56444,1,0,3:0:0:0:
250,227,56540,1,0,3:0:0:0:
263,227,56636,1,0,3:0:0:0:
278,228,56733,6,0,B|275:184|299:157|345:163|345:163|340:203|304:201,1,148.50000453186,8|0,1:2|0:0,0:0:0:0:
334,355,57117,5,0,3:2:0:0:
335,343,57213,1,0,3:0:0:0:
337,331,57309,1,0,3:0:0:0:
338,318,57405,1,0,3:0:0:0:
340,306,57502,6,0,B|384:303|411:327|405:373|405:373|365:368|367:332,1,148.50000453186,8|0,1:2|0:0,0:0:0:0:
434,261,57887,6,0,B|451:240|451:240|427:98,1,148.50000453186,10|0,1:2|0:0,0:0:0:0:
285,21,58271,2,0,B|274:57|313:61|313:85|313:85|322:61|359:71|361:26,1,148.50000453186,8|0,1:2|0:0,0:0:0:0:
509,64,58656,2,0,B|527:37|499:6|458:30|475:64|433:79|408:40|444:23,1,148.50000453186,8|0,1:2|0:0,0:0:0:0:
392,112,59040,2,0,L|388:165,1,36,2|2,1:0|0:3,0:0:0:0:
388,224,59233,1,2,0:3:0:0:
388,224,59329,1,0,0:0:0:0:
388,224,59425,1,4,3:0:0:0:
386,311,59617,5,0,3:0:0:0:
363,316,59714,1,0,3:0:0:0:
344,323,59810,2,0,L|488:340,1,135,0|0,1:2|0:0,0:0:0:0:
478,339,60194,2,0,B|488:325|486:301|486:301|502:324|490:346,1,80.9999975280763,8|0,3:1|0:0,0:0:0:0:
267,363,60579,6,0,L|122:380,1,135
13,307,60964,2,0,B|-3:336|7:372|65:383|96:349|72:303,1,135,0|0,1:2|0:0,0:0:0:0:
79,327,61348,2,0,B|70:304|81:306|81:287|81:287|86:305|95:300|91:326,1,80.9999975280763,0|0,1:2|0:0,0:0:0:0:
152,159,61733,6,0,B|133:176|133:176|44:187|44:187|19:206,1,135,8|0,3:1|0:0,0:0:0:0:
36,81,62117,2,0,B|4:101|36:157|78:103|26:51,1,90,0|0,3:0|3:0,0:0:0:0:
45,11,62502,5,0,1:2:0:0:
168,56,62694,1,0,3:0:0:0:
151,58,62790,1,0,3:0:0:0:
134,57,62887,2,0,B|172:83|209:55|188:40|227:22|272:45,1,135,0|0,1:2|0:0,0:0:0:0:
258,39,63271,2,0,B|249:54|249:54|257:76|257:76|269:57|269:57|265:38,1,80.9999975280763,8|0,3:1|0:0,0:0:0:0:
469,49,64040,6,0,B|499:33|450:0|393:20|392:93,1,135,0|0,1:2|0:0,0:0:0:0:
316,23,64425,2,0,B|350:43|318:99|276:45|326:0,1,90,0|0,1:2|0:0,0:0:0:0:
469,49,64810,2,0,B|488:29|457:4|412:28|397:55,1,90,8|0,3:1|0:0,0:0:0:0:
456,192,65194,5,0,3:2:0:0:
456,192,65387,1,0,3:2:0:0:
343,358,65579,1,0,1:2:0:0:
352,256,65771,5,0,3:2:0:0:
368,260,65868,1,0,3:2:0:0:
388,264,65964,1,0,1:2:0:0:
359,354,66156,5,0,3:0:0:0:
343,358,66253,1,0,3:0:0:0:
328,366,66348,2,0,B|356:381|396:357|372:353|407:323|448:337|435:355|476:367|499:347,1,180,8|0,3:1|0:0,0:0:0:0:
222,264,67117,6,0,B|168:248|249:173|232:293|315:239,1,135,0|0,1:2|0:0,0:0:0:0:
297,248,67502,2,0,B|307:229|291:210|291:210|269:228|277:251,1,80.9999975280763,0|0,1:2|0:0,0:0:0:0:
114,305,67887,6,0,L|99:167,1,135,8|0,3:1|0:0,0:0:0:0:
32,128,68271,2,0,B|42:147|22:170|7:167|7:167|4:148|27:141,1,90,0|0,3:2|3:2,0:0:0:0:
84,64,68656,1,0,1:2:0:0:
173,105,68848,1,0,3:2:0:0:
156,107,68944,1,0,3:2:0:0:
144,111,69040,6,0,B|177:100|218:109|204:130|248:133|277:121,1,135,0|0,1:2|0:0,0:0:0:0:
274,122,69425,2,0,B|285:143|271:143|269:160|269:160|262:144|248:146|254:125,1,80.9999975280763,8|0,3:1|0:0,0:0:0:0:
478,47,70194,6,0,B|446:25|405:34|419:55|375:58|346:46,1,135,0|0,1:2|0:0,0:0:0:0:
326,45,70579,2,0,B|305:66|340:84|370:42|347:6|311:-14,1,90,0|0,1:2|0:0,0:0:0:0:
220,192,70964,6,0,B|234:151|234:151|268:257,1,135,8|0,3:1|0:0,0:0:0:0:
248,375,71348,2,0,B|235:378|235:378|241:350|263:327|296:317,1,90,0|0,3:2|3:2,0:0:0:0:
385,73,71733,5,2,1:2:0:0:
410,112,71829,1,2,1:2:0:0:
455,101,71926,1,2,1:2:0:0:
460,54,72022,1,2,1:2:0:0:
416,36,72118,1,8,1:3:0:0:
52,332,72502,5,2,1:2:0:0:
97,346,72598,1,2,1:2:0:0:
123,307,72694,1,2,1:2:0:0:
96,269,72791,1,2,1:2:0:0:
52,283,72887,1,8,1:3:0:0:
250,16,73271,5,2,1:2:0:0:
251,47,73367,1,2,1:2:0:0:
253,78,73463,1,2,1:2:0:0:
254,110,73559,1,2,1:2:0:0:
256,141,73655,1,8,1:3:0:0:
310,300,74810,5,2,1:2:0:0:
298,342,74906,1,2,1:2:0:0:
265,372,75002,1,2,1:2:0:0:
221,379,75098,1,2,1:2:0:0:
180,362,75194,1,8,1:3:0:0:
449,250,75579,5,2,1:2:0:0:
479,218,75675,1,2,1:2:0:0:
488,175,75771,1,2,1:2:0:0:
472,133,75867,1,2,1:2:0:0:
437,106,75963,1,8,1:3:0:0:
229,117,76348,6,0,P|222:80|290:73,1,116.999994644165,10|0,1:2|0:0,0:0:0:0:
297,180,76637,2,0,B|237:188|237:188|234:190|234:190|165:201,1,116.999994644165,8|0,1:2|0:0,0:0:0:0:
298,77,76925,2,0,B|300:96|320:102|334:95|334:95|327:77|311:76,1,58.4999973220826,8|0,1:2|0:0,0:0:0:0:
221,39,77117,2,0,B|217:17|204:12|204:12|153:23|153:23|143:50|154:58,1,116.999994644165,2|2,1:3|3:0,0:0:0:0:
221,378,77502,6,0,B|217:366|202:355|202:355|241:350|255:308|273:350|309:356|309:356|292:369|289:386,1,175.499991966248,8|0,0:3|0:0,0:0:0:0:
425,277,77887,6,0,B|461:318|432:342|433:375|433:375|415:353|366:350|372:293,1,202.500007724762,4|0,1:0|0:0,0:0:0:0:
425,107,78271,2,0,B|461:66|432:42|433:9|433:9|415:31|366:34|372:91,1,202.500007724762,8|0,0:2|0:0,0:0:0:0:
358,193,78656,2,0,B|326:198|317:164|276:171|276:206|251:209|251:209|277:206|282:236|321:233|333:197,1,202.500007724762,0|0,1:2|0:0,0:0:0:0:
487,179,79040,1,8,0:2:0:0:
358,193,79233,1,2,0:3:0:0:
456,82,79425,6,0,B|476:65|464:43|464:43|437:36|407:73|424:106,1,135.000005149842,0|2,1:2|0:3,0:0:0:0:
467,271,79714,1,0,0:0:0:0:
467,271,79810,2,0,B|453:231|481:202|480:215|513:176|482:142,1,135.000005149842,8|2,0:2|0:3,0:0:0:0:
304,146,80194,2,0,B|347:134|302:39|205:78|236:145|182:156|136:122,1,202.500007724762,0|0,1:2|0:0,0:0:0:0:
171,137,80579,2,0,P|153:130|174:134,1,67.5000025749208,8|0,0:2|0:0,0:0:0:0:
254,198,80771,1,2,1:0:0:0:
247,378,80964,6,0,B|231:359|238:333|238:333|237:331|237:331|239:332|239:332|251:282,1,67.5000025749208,0|0,1:2|0:0,0:0:0:0:
377,295,81156,1,2,0:3:0:0:
377,295,81252,2,0,B|372:308|359:311|359:311|339:315|339:315|326:317|315:306,1,67.5000025749208,0|8,0:0|0:2,0:0:0:0:
166,320,81444,2,0,B|153:316|150:303|150:303|146:283|146:283|144:270|152:263,1,67.5000025749208,0|2,0:0|0:3,0:0:0:0:
218,186,81637,1,2,0:3:0:0:
218,186,81733,2,0,B|239:194|244:222|244:222|252:267|252:267|255:294|231:313,1,135.000005149842,0|2,1:2|0:3,0:0:0:0:
151,292,82021,1,2,0:3:0:0:
151,292,82117,1,8,0:2:0:0:
151,292,82214,2,0,L|78:285,2,67.5000025749208,0|2|0,0:0|0:3|0:0,0:0:0:0:
208,322,82502,6,0,P|142:321|98:369,1,135.000005149842,0|2,1:2|0:0,0:0:0:0:
10,366,82790,1,0,0:0:0:0:
30,381,82887,2,0,B|38:318|38:318|43:315|43:315|52:242,1,135.000005149842,8|2,0:2|0:0,0:0:0:0:
108,157,83271,2,0,B|97:177|72:188|36:184|21:159|21:159|46:168|62:161,1,135.000005149842,0|2,1:2|0:0,0:0:0:0:
233,78,83656,6,0,B|240:21|240:21|260:105|260:105|252:100|252:100|263:153|263:153|293:173,1,242.999992584229,12|0,1:3|0:0,0:0:0:0:
188,281,84040,6,0,B|141:321|169:354|166:373|166:373|176:355|223:345|202:280,1,202.500007724762,4|0,1:0|0:0,0:0:0:0:
172,123,84425,2,0,B|160:62|118:70|102:57|102:57|113:75|98:121|165:135,1,202.500007724762,8|0,0:2|0:0,0:0:0:0:
304,212,84810,2,0,B|340:221|345:190|367:190|367:190|343:189|344:167|316:158|270:181|309:191|245:217|216:194,1,202.500007724762,0|0,1:2|0:0,0:0:0:0:
118,216,85194,1,8,0:2:0:0:
244,202,85387,1,2,0:3:0:0:
251,314,85579,6,0,B|277:324|292:293|257:257|201:292|213:362,1,135.000005149842,0|2,1:2|0:3,0:0:0:0:
370,360,85867,1,2,0:3:0:0:
370,360,85964,2,0,B|416:351|454:383|454:383|432:360|430:329,1,135.000005149842,8|0,0:2|0:0,0:0:0:0:
345,279,86348,2,0,B|355:208|355:208|359:205|359:205|367:150|367:150|360:140|360:140|369:73,1,202.500007724762,0|0,1:2|0:0,0:0:0:0:
368,83,86733,2,0,B|350:85|338:71|342:53|342:53|355:54|355:66,1,67.5000025749208,8|0,0:2|0:0,0:0:0:0:
436,121,86925,1,2,0:3:0:0:
243,59,87117,6,0,B|249:102|249:102|246:105|246:105|253:151|253:151|255:152|255:152|263:193,1,135.000005149842,0|2,1:2|0:3,0:0:0:0:
323,249,87406,2,0,B|327:230|348:233|348:233|351:230|351:230|350:248|334:250,1,67.5000025749208,2|8,0:3|0:2,0:0:0:0:
189,314,87598,2,0,B|157:335|150:285|252:258|263:384,1,135.000005149842
336,384,87887,2,0,B|328:322|328:322|330:316|330:316|322:238,1,135.000005149842,0|2,1:2|0:3,0:0:0:0:
250,237,88271,2,0,B|231:205|252:170|257:175|284:135|257:110,1,135.000005149842,8|2,0:2|0:3,0:0:0:0:
216,22,88656,6,0,B|211:35|194:48|194:48|238:54|254:102|275:54|316:47|316:47|297:32|293:12,1,202.500007724762,0|0,1:2|0:0,0:0:0:0:
125,57,89040,2,0,B|116:98|65:129|15:89|15:89|34:57|27:25,1,202.500007724762,8|0,0:2|0:0,0:0:0:0:
162,216,89425,2,0,B|194:241|229:240|293:182|274:126|238:136|198:129|207:191|276:216|307:187,1,202.500007724762,0|2,1:2|0:0,0:0:0:0:
288,375,89810,6,0,B|318:366|328:308|210:337|279:386|206:426|153:395|157:331|208:349|217:392|260:318,1,242.999992584229,12|0,1:3|0:0,0:0:0:0:
256,191,90194,6,0,B|293:195|319:158|254:112|214:147|169:204|228:283,1,202.500007724762,4|0,1:0|0:0,0:0:0:0:
131,318,90579,2,0,B|116:283|71:279|64:358|114:376|185:385|224:295,1,202.500007724762,8|0,0:2|0:0,0:0:0:0:
350,322,90964,2,0,B|327:352|346:393|418:359|408:307|381:240|283:252,1,202.500007724762,0|0,1:2|0:0,0:0:0:0:
256,192,91348,1,8,0:2:0:0:
256,284,91540,1,2,0:3:0:0:
196,174,91733,6,0,B|230:148|272:165|256:174|299:193|327:173,1,135.000005149842,0|2,1:2|0:3,0:0:0:0:
318,57,92021,1,0,0:0:0:0:
318,57,92117,2,0,B|322:36|297:24|297:24|273:65|290:99|321:110,1,135.000005149842,8|2,0:2|0:3,0:0:0:0:
495,89,92502,2,0,B|544:60|518:21|455:37|501:93|396:87|384:28,1,202.500007724762,0|0,1:2|0:0,0:0:0:0:
384,27,92887,2,0,B|376:5|386:9|388:-4|388:-4|393:10|407:7|397:29,1,67.5000025749208,8|0,0:2|0:0,0:0:0:0:
407,154,93079,1,2,1:0:0:0:
425,253,93271,6,0,B|391:257|391:257|388:259|388:259|352:265,1,67.5000025749208,0|0,1:2|0:0,0:0:0:0:
256,224,93464,1,2,0:3:0:0:
256,224,93560,2,0,B|272:217|255:198|235:216|231:241|245:257,1,67.5000025749208,0|8,0:0|0:2,0:0:0:0:
316,357,93752,2,0,B|330:355|330:355|340:360|340:360|290:367,1,67.5000025749208,0|2,0:0|0:3,0:0:0:0:
209,384,93944,1,2,0:3:0:0:
205,376,94040,2,0,B|168:348|133:368|141:374|103:396|73:379,1,135.000005149842,0|2,1:2|0:3,0:0:0:0:
0,262,94329,2,0,L|66:276,1,67.5000025749208,0|8,2:0|2:2,2:0:0:0:
132,294,94521,2,0,P|169:294|196:270,1,67.5000025749208,0|2,0:0|0:3,0:0:0:0:
169,214,94714,1,0,0:0:0:0:
170,201,94810,6,0,B|186:48,1,135.000005149842,0|2,2:2|2:0,2:0:0:0:
262,20,95098,1,0,0:0:0:0:
274,26,95194,2,0,B|304:7|327:35|301:76|229:55|233:-7,1,135.000005149842,8|2,0:2|0:0,0:0:0:0:
71,47,95579,2,0,B|53:35|65:6|65:6|94:8|116:38|110:71,1,135.000005149842,0|2,1:2|0:0,0:0:0:0:
132,162,95964,2,0,B|172:170|186:143|173:132|214:99|260:124,1,135.000005149842,12|2,1:3|0:0,0:0:0:0:
412,151,96348,6,0,B|311:144|280:265|332:321|488:291|478:233|446:36|328:132|265:162|271:212|246:265|161:300|75:165|120:61|297:75|195:124|305:150|332:127,1,647.99998022461,4|0,1:0|1:2,0:0:0:0:
274,348,97502,5,8,0:2:0:0:
258,254,97694,1,2,0:3:0:0:
417,371,97887,2,0,P|433:311|372:304,1,135.000005149842,0|2,1:2|0:3,0:0:0:0:
344,231,98175,1,0,0:0:0:0:
344,231,98271,2,0,B|366:204|411:201|402:227|450:228|470:203,1,135.000005149842,8|2,0:2|0:3,0:0:0:0:
342,36,98656,6,0,B|395:33|373:69|430:82|430:82|372:81|378:134|311:97,1,202.500007724762,0|2,1:2|0:3,0:0:0:0:
238,190,99040,2,0,B|204:189|203:143|304:157|262:248,1,135.000005149842,8|2,0:2|0:1,0:0:0:0:
321,333,99425,6,0,B|311:350|311:350|208:367|208:367|196:381,1,135.000005149842,0|2,1:2|0:3,0:0:0:0:
87,338,99714,1,2,0:3:0:0:
87,338,99810,2,0,B|93:346|82:357|82:357|70:342|76:321|96:312,1,67.5000025749208,8|0,0:2|0:0,0:0:0:0:
141,235,100002,1,2,0:3:0:0:
151,231,100098,1,2,0:3:0:0:
164,224,100194,6,0,P|172:258|161:294,1,67.5000025749208,0|0,1:2|0:0,0:0:0:0:
262,353,100387,2,0,P|232:372|195:374,1,67.5000025749208,2|2,0:3|0:3,0:0:0:0:
25,384,100579,2,0,B|32:352|32:352|34:349|34:349|41:315,1,67.5000025749208,8|0,0:2|0:0,0:0:0:0:
66,253,100771,2,0,B|73:221|73:221|75:218|75:218|82:184,1,67.5000025749208,2|2,0:3|0:3,0:0:0:0:
36,83,100964,6,0,B|69:76|65:36|109:26|123:66|149:59|149:59|122:66|127:99|87:110|62:78,1,202.500007724762,0|0,1:2|0:0,0:0:0:0:
171,157,101348,2,0,P|149:169|177:165,1,67.5,0|0,1:0|0:0,0:0:0:0:
319,163,101733,2,0,B|349:182|388:157|376:128|415:121|415:121|375:128|365:81|303:88|317:131|265:136,1,270,0|0,1:2|0:0,0:0:0:0:
251,29,102117,2,0,P|235:59|240:20,1,101.250003862381,0|0,1:0|0:0,0:0:0:0:
249,270,102502,6,0,B|233:199|233:199|229:198|229:198|264:158|264:158|252:96|252:96|219:90|219:90|222:91|222:91|233:11|233:11|244:57,1,346.500010574341,12|0,1:1|0:0,0:0:0:0:
395,89,103271,2,0,B|418:115|471:104|460:53|488:49|488:49|459:55|427:4|391:27|357:47|379:95|293:102|274:44|328:-4|346:54,1,346.500010574341,8|0,1:1|0:0,0:0:0:0:
414,271,104040,2,0,B|399:187|399:187|394:164|360:140|328:174|333:196|333:196|343:257|343:257|349:309|400:299|400:299|440:291,1,346.500010574341,8|0,1:1|0:0,0:0:0:0:
264,380,104810,5,0,3:1:0:0:
234,367,104906,1,0,3:0:0:0:
237,336,105002,1,0,3:0:0:0:
267,328,105098,1,0,3:0:0:0:
283,355,105195,1,4,3:0:0:0:
165,234,105579,5,6,1:2:0:0:
156,234,105675,1,2,0:0:0:0:
145,235,105771,1,2,0:0:0:0:
135,236,105867,1,2,0:0:0:0:
126,237,105964,6,0,B|90:242|90:242|85:245|85:245|58:251,1,67.5000025749208,8|0,0:2|0:0,0:0:0:0:
61,251,106156,2,0,P|47:288|67:320,1,67.5000025749208,2|0,0:0|0:0,0:0:0:0:
180,373,106348,6,0,P|223:373|237:339,1,67.5000025749208,0|0,1:2|0:0,0:0:0:0:
236,356,106540,2,0,B|231:322|231:322|228:319|228:319|220:276,1,67.5000025749208,2|0,0:0|0:0,0:0:0:0:
184,145,106733,6,0,B|204:159|192:100|192:100|197:98|197:98|191:98|191:98|116:65|92:142|113:189|130:164|144:209|110:232|81:188|104:174,1,270,8|0,0:2|0:0,0:0:0:0:
24,79,107117,5,2,1:2:0:0:
33,79,107213,1,2,0:0:0:0:
44,80,107309,1,2,0:0:0:0:
54,81,107405,1,2,0:0:0:0:
68,83,107502,6,0,B|94:84|111:90|101:99|127:115|158:109,1,67.5000025749208,8|0,0:2|0:0,0:0:0:0:
129,108,107694,2,0,P|134:152|108:174,1,67.5000025749208,2|0,0:0|0:0,0:0:0:0:
21,219,107887,6,0,P|14:253|35:275,1,67.5000025749208,0|0,1:2|0:0,0:0:0:0:
35,275,108079,2,0,B|68:262|68:262|73:264|73:264|116:252,1,67.5000025749208,2|0,0:0|0:0,0:0:0:0:
209,171,108271,6,0,B|258:178|258:178|261:176|261:176|314:178|337:245|268:288|232:250|232:250|223:241|223:241|194:238|194:238|175:264,1,270,8|0,0:2|0:0,0:0:0:0:
259,35,108656,5,2,1:2:0:0:
259,44,108752,1,2,0:0:0:0:
258,55,108848,1,2,0:0:0:0:
257,65,108944,1,2,0:0:0:0:
256,79,109040,6,0,P|282:109|314:105,1,67.5000025749208,8|0,0:2|0:0,0:0:0:0:
307,108,109233,2,0,L|403:88,1,67.5000025749208,2|0,0:0|0:0,0:0:0:0:
463,7,109425,6,0,P|446:30|454:67,1,67.5000025749208,0|0,1:2|0:0,0:0:0:0:
454,66,109617,2,0,B|466:107|466:107|470:109|470:109|483:145,1,67.5000025749208,2|0,0:0|0:0,0:0:0:0:
433,220,109810,6,0,B|433:234|423:241|412:239|412:239|364:234,1,67.5000025749208,8|0,3:2|0:0,0:0:0:0:
293,229,110002,1,2,0:0:0:0:
274,226,110098,1,0,0:0:0:0:
258,223,110194,6,0,B|207:217|207:217|171:215|161:250|166:281|209:285|209:285|271:293,1,202.500007724762,0|0,1:2|0:0,0:0:0:0:
247,289,110579,2,0,B|365:307|244:283|366:299|366:299|393:303|411:326|402:362,1,202.500007724762,8|0,0:2|0:0,0:0:0:0:
329,384,110964,2,0,P|311:378|334:379,1,67.5000025749208,0|2,1:2|0:3,0:0:0:0:
498,384,111156,1,2,0:3:0:0:
484,187,111348,6,0,B|466:227|392:236|390:196|396:201|377:161|318:170|297:210,1,202.500007724762,8|0,0:2|0:0,0:0:0:0:
126,196,111733,5,2,1:2:0:0:
135,196,111829,1,2,0:0:0:0:
146,197,111925,1,2,0:0:0:0:
156,198,112021,1,2,0:0:0:0:
168,197,112117,6,0,B|199:199|199:199|201:201|201:201|244:206,1,67.5000025749208,8|0,0:2|0:0,0:0:0:0:
235,205,112310,2,0,B|243:243|243:243|226:273,1,67.5000025749208,2|0,0:0|0:0,0:0:0:0:
80,379,112502,6,0,B|67:362|67:362|82:299,1,67.5000025749208,0|0,1:2|0:0,0:0:0:0:
78,317,112694,2,0,L|98:247,1,67.5000025749208,2|0,0:0|0:0,0:0:0:0:
116,135,112887,6,0,B|134:125|171:78|102:47|96:20|96:20|93:49|34:94|78:142|120:142,1,270,8|0,0:2|0:0,0:0:0:0:
287,131,113271,5,2,1:2:0:0:
278,131,113367,1,2,0:0:0:0:
267,132,113463,1,2,0:0:0:0:
257,133,113559,1,2,0:0:0:0:
245,134,113656,6,0,P|223:113|219:77,1,67.5000025749208,8|0,0:2|0:0,0:0:0:0:
219,77,113848,2,0,B|228:46|228:46|232:43|232:43|244:0,1,67.5000025749208,2|0,0:0|0:0,0:0:0:0:
441,25,114040,6,0,B|419:36|402:32|413:18|380:22|371:37,1,67.5000025749208,0|0,1:2|0:0,0:0:0:0:
377,31,114233,2,0,P|367:71|385:91,1,67.5000025749208,2|0,0:0|0:0,0:0:0:0:
458,190,114425,2,0,B|411:197|398:147|338:157|338:208|302:213|302:213|339:208|347:252|404:248|421:195,1,270,8|0,0:2|0:0,0:0:0:0:
432,313,114810,5,2,1:2:0:0:
441,313,114906,1,2,0:0:0:0:
452,314,115002,1,2,0:0:0:0:
462,315,115098,1,2,0:0:0:0:
474,316,115194,6,0,B|487:299|487:299|472:236,1,67.5000025749208,8|0,0:2|0:0,0:0:0:0:
476,254,115386,2,0,L|456:184,1,67.5000025749208,2|0,0:0|0:0,0:0:0:0:
245,341,115579,6,0,P|273:350|313:342,1,67.5000025749208,0|0,1:2|0:0,0:0:0:0:
309,344,115771,2,0,B|319:307|319:307|323:304|323:304|329:270,1,67.5000025749208,2|0,0:0|0:0,0:0:0:0:
300,182,115964,6,0,B|289:146|289:146|249:136|249:136|224:168|224:168|243:227|243:227|277:241,1,202.500007724762,8|0,0:2|0:0,0:0:0:0:
356,63,116348,6,0,B|331:67|334:93|334:93|377:92|402:61|392:26,1,135.000005149842,8|0,1:1|0:0,0:0:0:0:
156,63,116637,6,0,B|181:67|178:93|178:93|135:92|110:61|120:26,1,135.000005149842,8|0,1:1|0:0,0:0:0:0:
292,20,116925,6,0,L|211:20,1,67.5000025749208,8|0,1:1|0:0,0:0:0:0:
256,96,117117,6,0,L|256:280,1,135.000005149842,8|0,1:1|0:0,0:0:0:0:
